osu file format v14

[General]
AudioFilename: audio.mp3
AudioLeadIn: 0
PreviewTime: 57738
Countdown: 0
SampleSet: Soft
StackLeniency: 0.2
Mode: 0
LetterboxInBreaks: 0
WidescreenStoryboard: 1

[Editor]
DistanceSpacing: 0.5
BeatDivisor: 6
GridSize: 4
TimelineZoom: 3.699998

[Metadata]
Title:Avalanche
TitleUnicode:Avalanche
Artist:Memme
ArtistUnicode:Memme
Creator:Kalindraz
Version:Insane.
Source:Pump It Up Prime
Tags:Classic Melodia Drumstep antonio vivaldi the four seasons winter
BeatmapID:1452811
BeatmapSetID:542317

[Difficulty]
HPDrainRate:5
CircleSize:4
OverallDifficulty:7.2
ApproachRate:9
SliderMultiplier:1.8
SliderTickRate:1

[Events]
//Background and Video events
0,0,"bg.jpg",0,0
//Break Periods
//Storyboard Layer 0 (Background)
//Storyboard Layer 1 (Fail)
//Storyboard Layer 2 (Pass)
//Storyboard Layer 3 (Foreground)
//Storyboard Sound Samples

[TimingPoints]
2893,342.857142857143,4,1,1,70,1,0
23807,-100,4,1,2,70,0,0
24835,-100,4,1,1,70,0,0
28264,-100,4,1,2,70,0,0
28607,-133.333333333333,4,1,2,70,0,0
28950,-83.3333333333333,4,2,2,70,0,0
31693,-100,4,1,1,70,0,0
35464,-133.333333333333,4,1,2,70,0,0
35807,-83.3333333333333,4,2,2,70,0,0
37693,-83.3333333333333,4,1,2,70,0,0
38035,-133.333333333333,4,1,2,70,0,0
38550,-100,4,1,1,70,0,0
42664,-133.333333333333,4,1,1,50,0,0
44035,-133.333333333333,4,1,1,60,0,0
45407,-100,4,2,0,70,0,0
46093,-83.3333333333333,4,2,0,70,0,0
46778,-100,4,2,2,70,0,0
51921,-83.3333333333333,4,2,0,70,0,0
52264,-83.3333333333333,4,2,2,70,0,0
57064,-83.3333333333333,4,2,0,70,0,0
57750,-100,4,2,2,70,0,1
60150,-83.3333333333333,4,2,2,70,0,0
60493,-100,4,2,2,70,0,1
62893,-83.3333333333333,4,2,2,70,0,0
63235,-100,4,2,2,70,0,1
65635,-83.3333333333333,4,2,2,70,0,0
65978,-100,4,2,2,70,0,1
67007,-83.3333333333333,4,2,2,70,0,1
67350,-100,4,2,2,70,0,0
82435,-100,4,2,2,70,0,0
85178,-83.3333333333333,4,2,2,70,0,0
87578,-133.333333333333,4,2,2,70,0,0
87921,-100,4,2,2,70,0,0
93064,-83.3333333333333,4,2,2,70,0,0
93407,-83.3333333333333,4,2,2,70,0,0
98893,-83.3333333333333,4,2,2,70,0,1
101550,-83.3333333333333,4,2,2,70,0,0
101635,-83.3333333333333,4,2,2,70,0,1
104293,-83.3333333333333,4,2,2,70,0,0
104378,-83.3333333333333,4,2,2,70,0,1
106778,-133.333333333333,4,2,2,70,0,0
107121,-100,4,2,2,70,0,1
108407,-100,4,2,2,70,0,0
108493,-100,4,2,2,70,0,1
109778,-100,4,2,2,70,0,0
109864,-100,4,2,2,70,0,1
111150,-100,4,2,2,70,0,0
111235,-100,4,2,2,70,0,1
112521,-100,4,2,2,70,0,0
112607,-100,4,2,2,70,0,1
112778,-100,4,2,2,70,0,0
113978,-100,4,2,2,70,0,1
114150,-100,4,2,0,70,0,0
114235,-100,4,2,2,70,0,0
115350,-100,4,2,2,70,0,1
116721,-133.333333333333,4,2,2,70,0,0
117064,-100,4,2,2,70,0,1
117150,-100,4,2,2,70,0,0

[Colours]
Combo1 : 254,81,22
Combo2 : 102,255,179
Combo3 : 255,128,191
Combo4 : 74,74,74
Combo5 : 192,192,192
Combo6 : 255,0,0

[HitObjects]
36,172,2892,6,0,P|100:184|172:152,1,135,0|0,2:0|2:0,0:0:0:0:
220,100,3235,2,0,P|268:88|312:100,1,90,8|0,0:0|0:0,0:0:0:0:
468,176,3578,6,0,L|484:332,1,135,2|0,0:2|2:0,0:0:0:0:
412,368,3921,2,0,L|304:360,1,90,8|0,0:0|0:0,0:0:0:0:
232,300,4264,70,0,B|172:292|172:292|92:308,1,135,2|0,0:2|2:0,0:0:0:0:
8,332,4607,2,0,P|1:278|12:228,1,90,8|0,0:0|0:0,0:0:0:0:
48,92,4950,6,0,B|112:72|112:72|184:88,1,135,2|0,0:2|2:0,0:0:0:0:
264,120,5293,2,0,B|308:128|308:128|360:120,1,90,8|0,0:0|0:0,0:0:0:0:
480,84,5635,69,2,0:2:0:0:
352,241,5806,1,0,0:0:0:0:
376,233,5892,1,0,2:0:0:0:
400,225,5977,1,0,0:0:0:0:
512,177,6150,1,0,0:0:0:0:
492,280,6321,5,2,0:2:0:0:
352,121,6492,1,0,0:0:0:0:
376,129,6578,1,0,2:0:0:0:
400,137,6664,1,8,0:0:0:0:
512,177,6835,1,0,0:0:0:0:
376,336,7007,70,0,L|368:232,1,90,0|2,0:0|0:2,0:0:0:0:
217,206,7350,2,0,L|224:296,1,90,8|2,0:0|0:2,0:0:0:0:
362,345,7693,6,0,L|364:241,1,90,0|2,0:0|0:2,0:0:0:0:
208,212,8035,2,0,L|207:301,1,90,8|2,0:0|0:2,0:0:0:0:
348,356,8378,70,0,L|359:252,1,90,0|2,0:0|0:2,0:0:0:0:
200,220,8721,2,0,L|189:309,1,90,8|2,0:0|0:2,0:0:0:0:
332,364,9064,6,0,L|354:262,1,90,0|2,0:0|0:2,0:0:0:0:
192,228,9407,2,0,L|172:315,1,90,8|2,0:0|0:2,0:0:0:0:
316,372,9750,70,0,L|349:273,1,90,0|2,0:0|0:2,0:0:0:0:
376,208,10007,1,0,0:0:0:0:
376,208,10093,2,0,P|384:152|376:112,1,90,8|2,0:0|0:2,0:0:0:0:
256,12,10435,6,0,L|220:116,1,90,2|0,0:2|0:0,0:0:0:0:
208,172,10693,1,0,0:0:0:0:
208,172,10778,2,0,P|254:173|297:159,1,90,2|2,0:2|0:2,0:0:0:0:
380,240,11121,69,2,1:0:0:0:
464,52,11293,2,0,L|480:108,2,45,0|0|8,0:0|2:0|0:0,0:0:0:0:
280,76,11635,1,2,0:2:0:0:
480,200,11807,5,2,1:0:0:0:
372,48,11978,2,0,P|368:12|372:-4,2,45,0|0|8,0:0|2:0|0:0,0:0:0:0:
281,214,12321,1,2,0:2:0:0:
412,312,12493,69,8,0:0:0:0:
408,296,12578,1,0,0:0:0:0:
404,280,12664,1,2,0:2:0:0:
400,264,12750,1,0,2:0:0:0:
396,248,12835,2,0,L|376:156,1,90,0|0,0:0|0:0,0:0:0:0:
356,52,13178,6,0,L|352:24,6,22.5,10|0|0|0|0|0|0,1:1|0:0|0:0|0:0|0:0|0:0|0:0,0:0:0:0:
280,76,13521,2,0,L|212:72,1,45,2|0,0:0|0:0,0:0:0:0:
160,44,13693,2,0,L|92:40,1,45,2|0,0:3|0:0,0:0:0:0:
70,107,13864,70,0,L|78:207,1,90,4|0,0:0|0:0,0:0:0:0:
114,271,14121,1,0,0:0:0:0:
114,271,14207,2,0,P|166:279|210:267,1,90,8|0,0:0|0:2,0:0:0:0:
332,192,14550,6,0,P|375:183|419:191,1,90,4|0,0:0|0:0,0:0:0:0:
456,266,14807,1,0,0:0:0:0:
456,266,14893,2,0,L|463:355,1,90,8|0,0:0|0:2,0:0:0:0:
316,360,15235,70,0,B|304:304|304:304|312:260,1,90,4|0,0:0|0:0,0:0:0:0:
332,192,15493,1,0,0:0:0:0:
332,192,15578,2,0,B|344:136|344:136|336:92,1,90,8|0,0:0|0:2,0:0:0:0:
173,103,15921,6,0,B|168:136|168:136|180:192,1,90,4|0,0:0|0:0,0:0:0:0:
202,271,16177,1,0,0:0:0:0:
202,271,16264,2,0,B|208:304|208:304|196:360,1,90,8|0,0:0|0:2,0:0:0:0:
16,244,16607,69,4,0:0:0:0:
112,324,16778,1,0,0:0:0:0:
108,308,16864,1,0,0:0:0:0:
104,292,16950,1,8,0:0:0:0:
84,176,17121,1,0,0:2:0:0:
200,268,17293,5,4,0:0:0:0:
296,348,17464,1,0,0:0:0:0:
292,332,17550,1,0,0:0:0:0:
288,316,17636,1,8,0:0:0:0:
268,200,17807,1,0,0:2:0:0:
412,364,17978,70,0,L|400:272,1,90,4|0,0:0|0:0,0:0:0:0:
448,212,18235,1,0,0:0:0:0:
448,212,18321,2,0,L|436:120,1,90,8|0,0:0|0:2,0:0:0:0:
304,48,18664,6,0,L|316:140,1,90,4|0,0:0|0:0,0:0:0:0:
268,200,18921,1,0,2:0:0:0:
268,200,19007,2,0,L|280:292,1,90,8|0,0:0|0:0,0:0:0:0:
200,380,19350,69,6,0:0:0:0:
155,135,19521,2,0,P|146:168|149:188,2,45,0|0|6,0:0|0:0|0:0,0:0:0:0:
279,289,19864,2,0,P|254:264|235:257,2,45,0|0|6,0:0|0:0|0:0,0:0:0:0:
84,319,20207,2,0,P|117:309|132:296,2,45,0|0|10,0:0|0:0|0:0,0:0:0:0:
173,247,20550,1,2,0:0:0:0:
390,220,20721,5,6,0:0:0:0:
155,136,20892,2,0,P|179:160|198:167,2,45,0|0|6,0:0|0:0|0:0,0:0:0:0:
350,106,21235,2,0,P|316:115|301:128,2,45,0|0|6,0:0|0:0|0:0,0:0:0:0:
279,289,21578,2,0,P|287:255|284:235,2,45,0|0|10,0:0|0:0|0:0,0:0:0:0:
261,176,21921,1,2,0:0:0:0:
470,128,22093,69,6,0:0:0:0:
279,289,22264,2,0,P|312:279|327:266,2,45,0|0|10,0:0|0:0|0:0,0:0:0:0:
351,105,22607,2,0,P|342:138|345:158,2,45,0|0|6,0:0|0:0|0:0,0:0:0:0:
474,258,22950,2,0,P|449:233|430:226,2,45,0|0|10,0:0|0:0|0:0,0:0:0:0:
367,217,23293,1,2,0:0:0:0:
474,258,23464,38,0,L|466:202,1,45,8|0,0:2|2:0,0:0:0:0:
367,217,23635,2,0,L|359:161,1,45,8|0,0:2|2:0,0:0:0:0:
308,288,23807,54,0,L|301:332,1,45,8|0,0:2|0:0,0:0:0:0:
201,329,23978,2,0,L|194:373,1,45,8|0,0:2|0:0,0:0:0:0:
156,248,24150,54,0,L|152:200,1,45,8|0,0:2|0:0,0:0:0:0:
4,268,24321,2,0,L|0:224,1,45,8|0,0:2|0:0,0:0:0:0:
84,280,24493,70,0,L|72:136,1,135,12|0,0:0|2:0,0:0:0:0:
140,80,24835,22,0,L|136:44,14,22.5,0|0|0|0|0|0|0|0|0|0|0|0|0|0|0,0:0|0:0|0:0|0:0|0:0|0:0|0:0|0:0|0:0|0:0|0:0|0:0|0:0|0:0|0:0,0:0:0:0:
216,100,25521,5,4,0:0:0:0:
232,96,25607,1,0,0:0:0:0:
248,92,25693,1,0,0:0:0:0:
264,88,25778,1,0,0:0:0:0:
280,84,25864,1,0,0:0:0:0:
296,80,25950,1,0,0:0:0:0:
312,76,26035,1,0,1:0:0:0:
328,72,26121,1,0,0:0:0:0:
344,68,26207,70,0,P|351:43|348:16,3,45,8|0|0|0,1:0|0:0|0:0|0:0,0:0:0:0:
392,136,26550,2,0,P|410:118|421:92,3,45,0|0|0|0,0:0|0:0|0:0|0:0,0:0:0:0:
400,216,26893,2,0,P|424:209|447:193,3,45,4|0|0|0,0:0|0:0|0:0|0:0,0:0:0:0:
372,292,27235,2,0,P|396:299|424:296,3,45,0|0|0|0,0:0|0:0|0:0|0:0,0:0:0:0:
280,320,27578,5,8,0:0:0:0:
264,316,27664,1,0,0:0:0:0:
248,312,27750,2,0,L|192:300,1,45,0|0,0:0|0:0,0:0:0:0:
232,176,27921,69,12,0:0:0:0:
248,180,28007,1,0,0:0:0:0:
264,184,28093,2,0,L|320:196,1,45,0|0,0:0|0:0,0:0:0:0:
400,216,28264,70,0,P|404:192|404:164,1,45,2|0,0:2|2:0,0:0:0:0:
400,92,28435,2,0,P|399:69|395:47,1,45,2|0,0:2|2:0,0:0:0:0:
324,0,28607,54,0,L|204:12,1,101.250003862381,2|0,2:0|2:0,0:0:0:0:
116,72,28950,6,0,P|104:148|128:240,1,161.999995056153,2|0,0:0|0:0,0:0:0:0:
188,288,29293,2,0,L|260:276,1,53.9999983520508,2|0,0:0|0:0,0:0:0:0:
384,240,29464,6,0,P|396:192|312:212,1,161.999995056153,8|0,0:0|0:0,0:0:0:0:
364,324,29807,2,0,P|412:324|432:316,1,53.9999983520508,2|0,0:0|0:0,0:0:0:0:
484,228,29978,2,0,P|484:179|476:159,1,53.9999983520508,2|0,0:0|0:0,0:0:0:0:
468,84,30150,70,0,B|400:92|400:92|368:76|368:76|300:84,1,161.999995056153,8|0,0:0|0:0,0:0:0:0:
248,148,30493,2,0,L|184:156,1,53.9999983520508,2|0,0:0|0:0,0:0:0:0:
136,64,30664,2,0,L|72:72,1,53.9999983520508,2|0,0:0|0:0,0:0:0:0:
8,152,30835,6,0,B|-8:216|-8:216|12:328,1,161.999995056153,8|0,0:0|0:0,0:0:0:0:
112,312,31178,1,8,0:0:0:0:
112,312,31264,1,8,0:0:0:0:
112,312,31350,2,0,B|95:217|95:217|111:153,1,161.999995056153,12|0,0:0|0:0,0:0:0:0:
136,64,31693,6,0,L|132:32,14,22.5,0|0|0|0|0|0|0|0|0|0|0|0|0|0|0,0:0|0:0|0:0|0:0|0:0|0:0|0:0|0:0|0:0|0:0|0:0|0:0|0:0|0:0|0:0,0:0:0:0:
216,68,32378,5,4,0:0:0:0:
244,60,32464,1,0,0:0:0:0:
272,64,32550,1,0,0:0:0:0:
296,76,32635,1,0,0:0:0:0:
312,96,32721,1,0,0:0:0:0:
320,120,32807,1,0,0:0:0:0:
320,148,32893,1,0,1:0:0:0:
308,172,32978,1,0,0:0:0:0:
288,188,33064,70,0,L|236:188,7,45,8|0|0|0|0|0|0|0,1:0|0:0|0:0|0:0|0:0|0:0|0:0|0:0,0:0:0:0:
408,216,33750,2,0,L|453:216,7,45,4|0|0|0|0|0|0|0,0:0|0:0|0:0|0:0|0:0|0:0|0:0|0:0,0:0:0:0:
452,304,34435,6,0,P|404:308|348:300,1,90,8|0,0:0|0:0,0:0:0:0:
336,292,34693,1,0,0:0:0:0:
312,284,34778,70,0,P|264:280|208:288,1,90,8|0,0:0|0:0,0:0:0:0:
196,292,35035,1,0,0:0:0:0:
172,300,35121,6,0,P|144:308|112:304,1,45,4|0,0:0|0:0,0:0:0:0:
32,256,35293,1,4,0:0:0:0:
32,256,35379,1,4,0:0:0:0:
32,256,35464,22,0,L|28:152,1,101.250003862381,12|0,0:0|2:0,0:0:0:0:
72,80,35807,6,0,B|152:56|152:56|240:80,1,161.999995056153,2|0,0:0|0:0,0:0:0:0:
336,136,36150,2,0,L|360:196,1,53.9999983520508,10|0,0:0|0:0,0:0:0:0:
388,276,36321,6,0,P|436:232|424:132,1,161.999995056153,8|0,0:0|0:0,0:0:0:0:
376,64,36664,2,0,P|344:56|316:56,1,53.9999983520508,2|0,0:0|0:0,0:0:0:0:
252,172,36835,2,0,P|220:180|192:180,1,53.9999983520508,2|0,0:0|0:0,0:0:0:0:
76,160,37007,70,0,P|40:184|116:204,1,161.999995056153,8|0,0:0|0:0,0:0:0:0:
148,116,37350,2,0,L|156:56,1,53.9999983520508,2|0,0:0|0:0,0:0:0:0:
248,88,37521,2,0,L|256:28,1,53.9999983520508,10|0,0:0|0:0,0:0:0:0:
348,16,37693,6,0,B|332:136|332:136|356:192,1,161.999995056153,8|0,0:0|0:0,0:0:0:0:
432,160,38035,54,0,B|416:124|416:124|428:36|428:36|444:80,1,168.750006437302,4|0,0:0|0:0,0:0:0:0:
508,124,38550,38,0,L|512:92,14,22.5,0|0|0|0|0|0|0|0|0|0|0|0|0|0|0,0:0|0:0|0:0|0:0|0:0|0:0|0:0|0:0|0:0|0:0|0:0|0:0|0:0|0:0|0:0,0:0:0:0:
504,208,39235,5,4,0:0:0:0:
512,236,39321,1,0,0:0:0:0:
508,264,39407,1,0,0:0:0:0:
496,288,39492,1,0,0:0:0:0:
476,304,39578,1,0,0:0:0:0:
452,312,39664,1,0,0:0:0:0:
424,312,39750,1,0,1:0:0:0:
400,300,39835,1,0,0:0:0:0:
384,280,39921,70,0,P|376:256|376:228,3,45,8|0|0|0,1:0|0:0|0:0|0:0,0:0:0:0:
296,228,40264,2,0,P|301:203|315:178,3,45,0|0|0|0,0:0|0:0|0:0|0:0,0:0:0:0:
344,96,40607,2,0,P|319:93|291:101,3,45,4|0|0|0,0:0|0:0|0:0|0:0,0:0:0:0:
267,25,40950,2,0,P|244:34|224:54,3,45,0|0|0|0,0:0|0:0|0:0|0:0,0:0:0:0:
136,52,41293,6,0,L|132:4,3,45,2|0|0|0,0:0|0:0|0:0|0:0,0:0:0:0:
60,112,41635,2,0,L|56:64,3,45,2|0|0|0,0:0|0:0|0:0|0:0,0:0:0:0:
12,184,41978,2,0,L|4:244,3,45,6|0|0|0,0:0|0:0|0:0|0:0,0:0:0:0:
88,236,42321,2,0,L|80:296,3,45,2|0|0|0,0:0|0:0|0:0|0:0,0:0:0:0:
172,288,42664,6,0,L|168:368,1,67.5000025749208,2|0,0:2|0:0,0:0:0:0:
220,276,43007,2,0,L|216:356,1,67.5000025749208,2|0,0:2|0:0,0:0:0:0:
268,264,43350,2,0,L|264:344,1,67.5000025749208,2|0,0:2|0:0,0:0:0:0:
316,252,43693,2,0,L|312:332,1,67.5000025749208,2|0,0:2|0:0,0:0:0:0:
392,232,44035,53,2,0:2:0:0:
408,344,44207,1,0,0:0:0:0:
484,156,44378,5,2,0:2:0:0:
508,276,44550,1,0,0:0:0:0:
364,96,44721,69,2,0:2:0:0:
392,232,44893,1,0,0:0:0:0:
452,4,45064,5,2,0:2:0:0:
484,156,45235,1,0,0:0:0:0:
364,96,45407,70,0,L|264:92,1,90,0|0,0:0|0:0,0:0:0:0:
192,72,45664,1,0,0:0:0:0:
192,72,45750,2,0,L|132:68,1,45,2|0,0:0|0:0,0:0:0:0:
96,156,45921,2,0,L|140:158,1,45,2|0,0:0|0:0,0:0:0:0:
240,160,46093,70,0,P|244:192|236:228,1,53.9999983520508,2|0,0:0|0:0,0:0:0:0:
212,292,46264,2,0,P|208:324|216:360,1,53.9999983520508,0|0,0:0|0:0,0:0:0:0:
304,368,46435,70,0,B|416:364|416:364|456:324,1,161.999995056153,2|0,0:1|2:0,0:0:0:0:
480,244,46778,22,0,L|484:184,3,45,2|0|0|0,0:0|0:0|0:0|0:0,0:0:0:0:
400,212,47121,2,0,L|404:152,3,45,2|0|0|0,0:0|0:0|0:0|0:0,0:0:0:0:
316,180,47464,5,2,0:0:0:0:
316,180,47550,1,0,0:0:0:0:
316,180,47635,2,0,L|320:128,1,45,0|0,0:0|0:0,0:0:0:0:
236,104,47807,1,2,0:0:0:0:
236,104,47893,1,0,0:0:0:0:
236,104,47978,2,0,L|232:156,1,45,0|0,0:0|0:0,0:0:0:0:
172,216,48150,70,0,L|160:316,1,90,2|0,0:0|0:0,0:0:0:0:
60,304,48407,1,0,0:0:0:0:
60,304,48493,2,0,L|49:214,1,90,2|0,0:0|0:0,0:0:0:0:
60,72,48835,6,0,P|112:64|156:72,1,90,2|0,0:0|0:0,0:0:0:0:
236,104,49093,1,0,0:0:0:0:
236,104,49178,2,0,P|288:112|332:104,1,90,2|0,0:0|0:0,0:0:0:0:
424,80,49521,69,2,0:0:0:0:
472,176,49693,1,0,0:0:0:0:
384,172,49864,5,2,0:0:0:0:
432,268,50036,1,0,0:0:0:0:
332,344,50207,70,0,L|344:248,1,90,2|0,0:0|0:0,0:0:0:0:
232,320,50464,1,0,0:0:0:0:
232,320,50550,2,0,L|244:224,1,90,2|0,0:0|0:0,0:0:0:0:
256,132,50893,6,0,L|267:42,1,90,2|0,0:0|0:0,0:0:0:0:
156,168,51150,1,0,0:0:0:0:
156,168,51236,2,0,L|144:257,1,90,2|0,0:0|0:0,0:0:0:0:
316,192,51578,54,0,P|348:188|376:192,1,45,2|0,1:0|1:0,0:0:0:0:
496,236,51750,1,0,0:0:0:0:
496,236,51835,1,0,0:0:0:0:
496,236,51921,70,0,B|508:176|508:176|480:72,1,161.999995056153,4|0,0:0|2:0,0:0:0:0:
432,16,52264,21,6,0:0:0:0:
292,44,52435,1,2,0:0:0:0:
380,112,52607,5,2,0:0:0:0:
240,140,52778,1,2,0:0:0:0:
185,46,52950,70,0,P|237:38|301:46,1,107.999996704102,2|2,0:0|0:0,0:0:0:0:
296,232,53293,2,0,P|244:240|180:232,1,107.999996704102,2|2,0:0|0:0,0:0:0:0:
72,204,53635,5,2,0:0:0:0:
96,336,53807,1,2,0:0:0:0:
189,234,53978,69,2,0:0:0:0:
213,366,54150,1,2,0:0:0:0:
312,320,54321,6,0,B|368:312|368:312|428:320,1,107.999996704102,2|2,0:0|0:0,0:0:0:0:
492,200,54664,2,0,B|441:206|441:206|385:198,1,107.999996704102,2|2,0:0|0:0,0:0:0:0:
344,112,55007,70,0,P|323:126|306:149,3,53.9999983520508,6|0|2|0,0:0|0:0|0:0|0:0,0:0:0:0:
242,101,55350,2,0,P|231:124|227:152,3,53.9999983520508,2|0|2|0,0:0|0:0|0:0|0:0,0:0:0:0:
147,151,55693,2,0,P|148:175|160:201,3,53.9999983520508,2|0|2|0,0:0|0:0|0:0|0:0,0:0:0:0:
87,239,56036,2,0,P|100:260|123:276,3,53.9999983520508,2|0|2|0,0:0|0:0|0:0|0:0,0:0:0:0:
52,331,56378,69,6,0:0:0:0:
52,331,56550,2,0,L|90:342,10,26.9999991760254,2|2|2|2|2|2|2|2|2|2|2,0:1|0:1|0:1|0:1|0:1|0:1|0:1|0:1|0:1|0:1|0:1,0:0:0:0:
123,276,57064,70,0,L|179:272,1,53.9999983520508,4|0,0:0|0:0,0:0:0:0:
220,292,57235,2,0,L|276:288,1,53.9999983520508,4|0,0:0|0:0,0:0:0:0:
316,308,57407,2,0,L|372:304,1,53.9999983520508,4|0,0:0|0:0,0:0:0:0:
413,324,57578,2,0,L|469:320,1,53.9999983520508,4|0,0:0|0:0,0:0:0:0:
512,340,57750,21,6,0:0:0:0:
396,192,57921,1,0,0:0:0:0:
412,324,58093,1,0,0:0:0:0:
496,164,58264,1,0,0:0:0:0:
328,128,58435,6,0,L|316:32,1,90,8|0,0:0|0:0,0:0:0:0:
188,68,58778,2,0,L|196:160,1,90,0|0,0:0|0:0,0:0:0:0:
128,344,59121,6,0,L|121:299,1,45,2|0,0:0|0:0,0:0:0:0:
209,283,59293,1,0,3:0:0:0:
209,287,59378,1,0,3:0:0:0:
210,291,59464,1,0,3:0:0:0:
210,295,59550,1,0,3:0:0:0:
212,298,59635,1,2,0:0:0:0:
213,302,59721,1,0,3:0:0:0:
213,306,59807,2,0,L|272:300,1,45,8|2,0:0|0:0,0:0:0:0:
348,292,59978,2,0,L|368:324,2,30,2|0|2,0:0|0:0|0:0,0:0:0:0:
295,215,60150,22,0,L|123:231,1,161.999995056153,12|0,0:0|0:0,0:0:0:0:
36,240,60493,21,2,0:0:0:0:
80,80,60664,1,0,0:0:0:0:
134,231,60835,1,0,0:0:0:0:
4,144,61007,1,0,0:0:0:0:
160,136,61178,6,0,L|264:124,1,90,8|0,0:0|0:0,0:0:0:0:
305,1,61521,2,0,L|216:12,1,90,0|0,0:0|0:0,0:0:0:0:
73,35,61864,70,0,P|77:67|85:99,1,45,2|0,0:0|0:0,0:0:0:0:
176,172,62035,1,2,3:0:0:0:
196,184,62121,1,2,3:0:0:0:
220,184,62207,2,0,L|212:120,3,45,2|2|2|2,3:0|3:0|3:0|3:0,0:0:0:0:
312,160,62550,38,0,B|376:144|376:144|448:160,1,135,8|0,0:0|0:0,0:0:0:0:
456,244,62893,6,0,B|377:225|377:225|296:248,1,161.999995056153,2|0,0:1|0:0,0:0:0:0:
272,340,63235,21,2,0:0:0:0:
380,188,63407,1,0,0:0:0:0:
376,380,63578,1,0,0:0:0:0:
299,247,63750,1,0,0:0:0:0:
467,333,63921,6,0,L|459:238,1,90,8|0,0:0|0:0,0:0:0:0:
291,157,64264,2,0,L|299:247,1,90
264,356,64607,70,0,L|312:364,2,30,2|0|0,0:0|0:0|0:0,0:0:0:0:
176,340,64778,1,0,0:0:0:0:
152,336,64864,1,0,0:0:0:0:
128,332,64950,1,0,0:0:0:0:
108,328,65035,1,0,0:0:0:0:
84,324,65121,1,0,0:0:0:0:
64,320,65207,1,0,0:0:0:0:
40,316,65293,6,0,L|32:280,6,22.5,8|0|0|0|0|0|0,0:0|0:0|0:0|0:0|0:0|0:0|0:0,0:0:0:0:
24,216,65635,54,0,L|20:184,6,26.9999991760254,8|0|0|0|0|0|0,0:0|0:0|0:0|0:0|0:0|0:0|0:0,0:0:0:0:
88,128,65978,6,0,L|92:80,3,45,8|0|0|0,0:0|0:0|0:0|0:0,0:0:0:0:
168,188,66321,2,0,L|172:236,3,45,10|0|0|0,0:0|0:0|0:0|0:0,0:0:0:0:
192,88,66664,6,0,L|296:80,1,90,2|8,0:0|0:0,0:0:0:0:
368,72,66921,1,8,0:0:0:0:
368,72,67007,38,0,B|416:68|416:68|392:204,1,161.999995056153,10|0,0:1|0:0,0:0:0:0:
388,264,67350,22,0,B|344:272|344:272|296:264,1,90,2|0,0:0|0:0,0:0:0:0:
208,224,67607,1,0,0:0:0:0:
208,224,67693,2,0,B|164:216|164:216|116:224,1,90,12|0,0:1|0:0,0:0:0:0:
36,256,68035,6,0,P|32:304|48:348,1,90,2|0,0:0|0:0,0:0:0:0:
128,368,68293,1,0,0:0:0:0:
128,368,68378,2,0,L|224:364,1,90,12|0,0:1|0:0,0:0:0:0:
388,264,68721,70,0,L|284:268,1,90,2|0,0:0|0:0,0:0:0:0:
208,224,68978,1,0,0:0:0:0:
208,224,69064,2,0,B|200:176|200:176|212:132,1,90,12|0,0:1|0:0,0:0:0:0:
312,22,69407,6,0,L|320:122,1,90,2|0,0:0|0:0,0:0:0:0:
380,174,69664,1,0,0:0:0:0:
380,174,69750,2,0,L|388:274,1,90,12|0,0:1|0:0,0:0:0:0:
488,300,70093,70,0,L|476:152,1,135,2|0,0:0|2:0,0:0:0:0:
454,87,70435,1,12,0:1:0:0:
342,207,70607,1,0,0:0:0:0:
342,207,70693,1,0,0:0:0:0:
342,207,70778,6,0,P|322:218|300:223,3,45,2|0|0|0,0:0|0:0|0:0|0:0,0:0:0:0:
477,165,71121,2,0,P|496:175|511:192,3,45,12|0|0|0,0:1|0:0|0:0|0:0,0:0:0:0:
374,68,71464,2,0,P|373:45|380:24,3,45,2|0|0|0,0:0|0:0|0:0|0:0,0:0:0:0:
421,225,71807,70,0,P|421:247|414:268,3,45,12|0|0|0,0:1|0:0|0:0|0:0,0:0:0:0:
454,87,72150,2,0,P|473:75|495:70,3,45,2|0|0|0,0:0|0:0|0:0|0:0,0:0:0:0:
318,128,72493,2,0,P|298:117|283:100,3,45,12|0|0|0,0:1|0:0|0:0|0:0,0:0:0:0:
204,64,72835,5,2,0:0:0:0:
184,60,72921,1,0,0:0:0:0:
160,60,73007,1,0,0:0:0:0:
140,64,73093,1,0,0:0:0:0:
120,76,73178,2,0,L|96:32,3,45,12|0|0|0,0:1|0:0|0:0|0:0,0:0:0:0:
88,176,73521,69,2,0:0:0:0:
108,180,73607,1,0,0:0:0:0:
132,180,73693,1,0,0:0:0:0:
152,176,73779,1,0,0:0:0:0:
172,164,73864,2,0,L|196:208,3,45,12|0|0|0,0:1|0:0|0:0|0:0,0:0:0:0:
264,143,74207,6,0,L|256:303,1,135,2|0,0:0|0:0,0:0:0:0:
252,363,74550,1,12,0:1:0:0:
175,304,74721,1,0,0:0:0:0:
175,304,74807,1,0,0:0:0:0:
175,304,74893,70,0,P|190:284|213:272,3,45,2|0|0|0,0:0|0:0|0:0|0:0,0:0:0:0:
341,326,75236,2,0,P|316:320|294:306,3,45,12|0|0|0,0:0|0:0|0:0|0:0,0:0:0:0:
277,169,75579,2,0,P|284:192|283:217,3,45,2|0|0|0,0:0|0:0|0:0|0:0,0:0:0:0:
252,363,75922,6,0,P|243:338|244:313,3,45,12|0|0|0,0:1|0:0|0:0|0:0,0:0:0:0:
351,231,76265,2,0,P|334:248|311:261,3,45,2|0|0|0,0:0|0:0|0:0|0:0,0:0:0:0:
188,206,76608,2,0,P|211:210|233:223,3,45,12|0|0|0,0:1|0:0|0:0|0:0,0:0:0:0:
351,231,76950,69,2,0:0:0:0:
371,223,77035,1,0,0:0:0:0:
391,215,77121,1,0,0:0:0:0:
411,207,77207,1,0,0:0:0:0:
431,199,77293,2,0,L|439:135,3,45,12|0|0|0,0:1|0:0|0:0|0:0,0:0:0:0:
400,32,77635,5,2,0:0:0:0:
380,40,77720,1,0,0:0:0:0:
360,48,77806,1,0,0:0:0:0:
340,56,77892,1,0,0:0:0:0:
320,64,77978,2,0,L|312:128,3,45,12|0|0|0,0:1|0:0|0:0|0:0,0:0:0:0:
232,96,78321,70,0,B|184:112|184:112|80:104,1,135,2|0,0:0|0:0,0:0:0:0:
64,20,78664,1,8,0:1:0:0:
20,100,78835,1,0,0:0:0:0:
24,120,78921,1,0,0:0:0:0:
28,140,79007,6,0,L|24:196,3,45,2|0|0|0,0:0|0:0|0:0|0:0,0:0:0:0:
108,204,79350,2,0,L|104:260,3,45,12|0|0|0,0:1|0:0|0:0|0:0,0:0:0:0:
188,268,79693,2,0,L|184:324,3,45,2|0|0|0,0:0|0:0|0:0|0:0,0:0:0:0:
247,188,80035,70,0,L|243:132,3,45,12|0|0|0,0:1|0:0|0:0|0:0,0:0:0:0:
327,124,80378,2,0,L|323:68,3,45,2|0|0|0,0:0|0:0|0:0|0:0,0:0:0:0:
407,60,80721,2,0,L|403:4,3,45,12|0|0|0,0:1|0:0|0:0|0:0,0:0:0:0:
488,164,81064,5,2,0:0:0:0:
492,144,81150,1,0,0:0:0:0:
496,124,81235,2,0,L|504:76,1,45,0|0,0:0|0:0,0:0:0:0:
404,16,81407,69,12,0:1:0:0:
400,36,81493,1,0,0:0:0:0:
396,56,81578,2,0,L|388:104,1,45,0|0,0:0|0:0,0:0:0:0:
368,180,81750,6,0,L|376:236,3,45,2|0|0|0,0:0|0:0|0:0|0:0,0:0:0:0:
316,296,82093,54,0,P|296:304|268:308,1,45,12|0,0:1|0:0,0:0:0:0:
168,296,82264,2,0,P|149:285|127:266,1,45,12|0,0:1|0:0,0:0:0:0:
240,136,82435,70,0,L|228:240,1,90,14|0,0:0|0:0,0:0:0:0:
220,312,82693,1,0,0:0:0:0:
220,312,82778,1,2,0:0:0:0:
60,224,82950,1,2,0:0:0:0:
144,188,83121,6,0,B|136:92|136:92|156:60,1,135,8|0,0:0|0:0,0:0:0:0:
316,60,83464,2,0,B|336:92|336:92|328:188,1,135,0|0,0:0|0:0,0:0:0:0:
316,296,83807,70,0,L|408:280,1,90,14|0,0:0|0:0,0:0:0:0:
452,196,84064,1,0,0:0:0:0:
452,196,84150,1,2,0:0:0:0:
416,360,84321,1,2,0:0:0:0:
248,364,84493,6,0,P|224:300|248:224,1,135,8|0,0:0|0:0,0:0:0:0:
52,236,84835,2,0,P|67:300|43:362,1,135,0|0,0:0|0:0,0:0:0:0:
144,232,85178,70,0,P|132:196|116:169,1,53.9999983520508,6|0,0:0|0:0,0:0:0:0:
60,88,85350,1,6,0:0:0:0:
60,88,85435,1,0,0:0:0:0:
60,88,85521,2,0,P|148:96|228:56,1,161.999995056153,14|0,0:0|0:0,0:0:0:0:
320,132,85864,6,0,P|331:167|347:194,1,53.9999983520508,6|0,0:0|0:0,0:0:0:0:
404,280,86035,1,6,0:0:0:0:
404,280,86121,1,0,0:0:0:0:
404,280,86207,2,0,B|352:256|352:256|236:272,1,161.999995056153,14|0,0:0|0:0,0:0:0:0:
151,285,86550,70,0,L|143:229,1,53.9999983520508,2|0,0:0|0:0,0:0:0:0:
52,272,86721,2,0,L|44:216,1,53.9999983520508,2|0,0:0|0:0,0:0:0:0:
136,184,86893,6,0,L|128:128,1,53.9999983520508,2|0,0:0|0:0,0:0:0:0:
37,171,87064,2,0,L|29:115,1,53.9999983520508,2|0,0:0|0:0,0:0:0:0:
116,48,87235,37,2,0:0:0:0:
144,52,87321,1,2,0:0:0:0:
172,56,87407,1,2,0:0:0:0:
200,60,87493,1,2,0:0:0:0:
232,64,87578,6,0,L|348:56,1,101.250003862381,2|2,0:0|0:0,0:0:0:0:
432,84,87921,38,0,L|484:76,3,45,2|0|0|0,0:0|0:0|0:0|0:0,0:0:0:0:
412,172,88264,2,0,L|464:164,3,45,2|0|0|0,0:0|0:0|0:0|0:0,0:0:0:0:
392,260,88607,2,0,L|444:252,3,45,2|0|0|0,0:0|0:0|0:0|0:0,0:0:0:0:
372,348,88950,2,0,L|424:340,3,45,2|0|0|0,0:0|0:0|0:0|0:0,0:0:0:0:
280,336,89293,5,2,0:0:0:0:
280,336,89378,1,0,0:0:0:0:
280,336,89464,2,0,L|276:280,1,45,0|0,0:0|0:0,0:0:0:0:
192,320,89635,1,2,0:0:0:0:
192,320,89721,1,0,0:0:0:0:
192,320,89807,2,0,L|188:264,1,45,0|0,0:0|0:0,0:0:0:0:
104,304,89978,1,2,0:0:0:0:
104,304,90064,1,0,0:0:0:0:
104,304,90150,2,0,L|100:248,1,45,0|0,0:0|0:0,0:0:0:0:
16,288,90321,1,2,0:0:0:0:
16,288,90406,1,0,0:0:0:0:
16,288,90492,2,0,L|12:232,1,45,0|0,0:0|0:0,0:0:0:0:
28,156,90664,70,0,L|36:108,3,45,2|0|0|0,0:0|0:0|0:0|0:0,0:0:0:0:
116,128,91007,2,0,L|124:80,3,45,2|0|0|0,0:0|0:0|0:0|0:0,0:0:0:0:
204,100,91350,2,0,L|212:52,3,45,2|0|0|0,0:0|0:0|0:0|0:0,0:0:0:0:
292,76,91693,2,0,L|300:28,3,45,2|0|0|0,0:0|0:0|0:0|0:0,0:0:0:0:
388,56,92035,5,2,0:0:0:0:
384,76,92121,1,0,0:0:0:0:
380,96,92207,2,0,L|372:144,1,45,0|0,0:0|0:0,0:0:0:0:
300,192,92378,69,2,0:0:0:0:
296,212,92464,1,0,0:0:0:0:
292,232,92550,2,0,L|284:280,1,45,0|0,0:0|0:0,0:0:0:0:
363,364,92721,70,0,L|356:319,1,45
292,232,92893,1,0,0:0:0:0:
292,232,92978,1,0,0:0:0:0:
292,232,93064,70,0,B|232:236|232:236|200:216|200:216|132:220,1,161.999995056153,12|0,0:0|2:0,0:0:0:0:
40,236,93407,21,6,0:0:0:0:
12,108,93578,1,2,0:0:0:0:
135,219,93750,5,2,0:0:0:0:
107,91,93921,1,2,0:0:0:0:
216,16,94093,70,0,L|344:24,1,107.999996704102,2|2,0:0|0:0,0:0:0:0:
476,134,94435,2,0,L|348:126,1,107.999996704102,2|2,0:0|0:0,0:0:0:0:
256,192,94778,5,6,0:0:0:0:
256,360,94950,1,2,0:0:0:0:
344,272,95121,69,2,0:0:0:0:
168,272,95293,1,2,0:0:0:0:
352,180,95464,6,0,P|368:132|352:76,1,107.999996704102,2|2,0:0|0:0,0:0:0:0:
159,78,95807,2,0,P|144:129|160:179,1,107.999996704102,2|2,0:0|0:0,0:0:0:0:
252,312,96150,21,2,0:0:0:0:
252,312,96235,1,0,0:0:0:0:
252,312,96321,2,0,P|282:308|308:295,1,53.9999983520508,2|0,0:0|0:0,0:0:0:0:
420,243,96493,37,2,0:0:0:0:
420,243,96578,1,0,0:0:0:0:
420,243,96664,2,0,P|401:218|377:201,1,53.9999983520508,2|0,0:0|0:0,0:0:0:0:
278,131,96835,69,2,0:0:0:0:
278,131,96921,1,0,0:0:0:0:
278,131,97007,2,0,P|265:159|263:188,1,53.9999983520508,2|0,0:0|0:0,0:0:0:0:
304,300,97178,69,2,0:0:0:0:
328,308,97264,1,0,0:0:0:0:
352,316,97350,1,2,0:0:0:0:
376,324,97435,1,0,0:0:0:0:
400,332,97521,69,12,3:0:0:0:
400,332,98378,21,0,0:0:0:0:
400,332,98550,2,0,L|384:164,1,161.999995056153,8|0,0:0|0:0,0:0:0:0:
344,80,98893,70,0,P|292:72|228:80,1,107.999996704102,2|0,0:0|0:0,0:0:0:0:
392,232,99235,2,0,P|444:240|508:232,1,107.999996704102,8|0,0:0|0:0,0:0:0:0:
245,177,99578,6,0,P|193:169|129:177,1,107.999996704102,2|2,0:0|0:0,0:0:0:0:
293,329,99921,2,0,P|345:337|409:329,1,107.999996704102,8|0,0:0|0:0,0:0:0:0:
512,316,100264,70,0,L|496:252,1,53.9999983520508,2|0,0:0|0:0,0:0:0:0:
476,184,100435,1,2,3:0:0:0:
468,160,100521,1,2,3:0:0:0:
460,136,100607,1,10,0:0:0:0:
452,112,100693,1,2,3:0:0:0:
444,88,100778,1,2,3:0:0:0:
436,60,100864,1,2,3:0:0:0:
424,36,100950,6,0,L|368:32,1,53.9999983520508,2|0,0:0|0:0,0:0:0:0:
348,132,101121,2,0,L|292:128,1,53.9999983520508,0|0,0:0|0:0,0:0:0:0:
276,8,101293,70,0,L|220:4,1,53.9999983520508,8|0,0:0|0:0,0:0:0:0:
200,104,101464,2,0,L|144:100,1,53.9999983520508,0|0,0:0|0:0,0:0:0:0:
44,48,101635,5,2,0:0:0:0:
56,188,101807,1,0,0:0:0:0:
200,104,101978,69,8,0:0:0:0:
212,244,102150,1,0,0:0:0:0:
56,188,102321,5,2,0:0:0:0:
68,328,102493,1,2,0:0:0:0:
212,244,102664,69,8,0:0:0:0:
224,384,102836,1,0,0:0:0:0:
319,330,103007,6,0,L|308:268,1,53.9999983520508,2|0,0:0|0:0,0:0:0:0:
270,198,103179,1,2,3:0:0:0:
248,178,103264,1,2,3:0:0:0:
223,170,103350,1,8,0:0:0:0:
195,172,103436,1,2,3:0:0:0:
167,183,103522,1,2,3:0:0:0:
149,204,103607,1,2,3:0:0:0:
140,229,103693,70,0,L|144:292,1,53.9999983520508,2|0,0:0|0:0,0:0:0:0:
220,330,103864,2,0,L|224:393,1,53.9999983520508,0|0,0:0|0:0,0:0:0:0:
316,384,104035,2,0,L|320:321,1,53.9999983520508,8|0,0:0|0:0,0:0:0:0:
396,283,104207,2,0,L|400:220,1,53.9999983520508,0|0,0:0|0:0,0:0:0:0:
408,128,104378,5,2,0:0:0:0:
292,0,104550,1,0,0:0:0:0:
329,169,104721,69,8,0:0:0:0:
292,0,104893,1,0,0:0:0:0:
240,165,105064,5,2,0:0:0:0:
292,0,105236,1,2,0:0:0:0:
165,117,105407,69,8,0:0:0:0:
292,0,105579,1,0,0:0:0:0:
136,40,105750,6,0,P|96:76|88:136,1,107.999996704102,2|2,0:0|0:0,0:0:0:0:
114,179,106007,1,0,0:0:0:0:
114,179,106093,70,0,P|165:195|221:172,1,107.999996704102,0|2,0:0|0:0,0:0:0:0:
244,128,106350,1,0,0:0:0:0:
244,128,106435,6,0,P|232:75|184:38,1,107.999996704102,2|2,0:0|0:0,0:0:0:0:
136,40,106693,1,0,0:0:0:0:
136,40,106778,54,0,L|38:92,1,101.250003862381,0|0,0:0|0:0,0:0:0:0:
16,160,107121,6,0,P|25:180|40:196,3,45,2|0|0|0,0:0|0:0|0:0|0:0,0:0:0:0:
225,197,107464,2,0,P|202:194|181:199,3,45,2|0|0|0,0:0|0:0|0:0|0:0,0:0:0:0:
90,359,107807,2,0,P|102:340|110:319,3,45,2|0|0|0,0:0|0:0|0:0|0:0,0:0:0:0:
200,324,108150,6,0,L|340:312,1,135,2|0,0:0|0:0,0:0:0:0:
428,304,108493,6,0,P|448:244|424:168,1,135,6|0,1:0|0:0,0:0:0:0:
376,108,108835,1,8,0:0:0:0:
352,104,108921,1,0,0:0:0:0:
328,100,109007,1,0,0:0:0:0:
304,96,109093,1,0,0:0:0:0:
280,92,109178,2,0,L|176:104,1,90,2|2,1:0|1:0,0:0:0:0:
12,210,109521,2,0,L|101:199,1,90,8|2,0:0|1:0,0:0:0:0:
280,92,109864,6,0,P|244:44|160:48,1,135,6|0,1:0|0:0,0:0:0:0:
117,104,110207,1,8,0:0:0:0:
113,128,110293,1,0,0:0:0:0:
109,152,110379,1,0,0:0:0:0:
105,176,110465,1,0,0:0:0:0:
101,198,110550,2,0,L|117:306,1,90,2|2,1:0|1:0,0:0:0:0:
292,280,110893,2,0,L|305:190,1,90,8|2,0:0|1:0,0:0:0:0:
328,76,111235,70,0,P|388:68|448:108,1,135,2|2,0:0|0:0,0:0:0:0:
476,248,111578,1,10,0:0:0:0:
472,272,111664,1,0,0:0:0:0:
468,296,111750,1,2,0:0:0:0:
464,320,111836,1,2,0:3:0:0:
460,340,111921,70,0,L|400:344,1,45,10|0,0:0|0:0,0:0:0:0:
360,248,112093,2,0,L|300:252,1,45,2|2,0:0|0:0,0:0:0:0:
312,356,112264,70,0,L|252:360,1,45,10|0,0:0|0:0,0:0:0:0:
212,264,112436,2,0,L|152:268,1,45,10|0,0:0|0:0,0:0:0:0:
96,336,112607,38,0,P|76:260|92:196,1,135,6|0,1:0|0:0,0:0:0:0:
128,112,112950,1,8,0:0:0:0:
148,108,113035,1,0,0:0:0:0:
168,104,113121,1,0,0:0:0:0:
188,100,113207,1,0,0:0:0:0:
212,96,113293,1,2,1:0:0:0:
308,12,113464,1,2,1:0:0:0:
264,176,113635,1,8,0:0:0:0:
408,40,113807,1,2,1:0:0:0:
344,120,113978,70,0,L|352:264,1,135,6|0,1:0|0:0,0:0:0:0:
304,348,114321,1,8,0:0:0:0:
280,352,114407,1,0,0:0:0:0:
256,356,114493,1,0,0:0:0:0:
232,352,114578,1,0,0:0:0:0:
212,344,114664,1,2,1:0:0:0:
84,260,114835,1,2,1:0:0:0:
184,220,115007,1,8,0:0:0:0:
96,368,115178,1,2,1:0:0:0:
260,264,115350,70,0,P|268:208|244:156,1,90,8|0,0:0|0:0,0:0:0:0:
216,104,115607,1,0,0:0:0:0:
216,104,115693,1,8,0:0:0:0:
112,44,115864,1,8,0:0:0:0:
16,128,116035,70,0,L|24:228,1,90,8|0,0:0|0:0,0:0:0:0:
40,304,116293,1,0,0:0:0:0:
40,304,116378,1,8,0:0:0:0:
120,204,116550,1,8,0:0:0:0:
212,268,116721,70,0,L|336:264,1,101.250003862381,12|0,0:0|0:0,0:0:0:0:
396,260,117064,69,6,0:0:0:0:
