osu file format v14

[General]
AudioFilename: audio.mp3
AudioLeadIn: 0
PreviewTime: 57738
Countdown: 0
SampleSet: Soft
StackLeniency: 0.2
Mode: 0
LetterboxInBreaks: 0
WidescreenStoryboard: 1

[Editor]
Bookmarks: 47795
DistanceSpacing: 0.4
BeatDivisor: 6
GridSize: 4
TimelineZoom: 3.699998

[Metadata]
Title:Avalanche
TitleUnicode:Avalanche
Artist:Memme
ArtistUnicode:Memme
Creator:Kalindraz
Version:Extra.
Source:Pump It Up Prime
Tags:Classic Melodia Drumstep antonio vivaldi the four seasons winter
BeatmapID:1452809
BeatmapSetID:542317

[Difficulty]
HPDrainRate:6
CircleSize:4
OverallDifficulty:8
ApproachRate:9.3
SliderMultiplier:1.8
SliderTickRate:1

[Events]
//Background and Video events
0,0,"bg.jpg",0,0
//Break Periods
//Storyboard Layer 0 (Background)
//Storyboard Layer 1 (Fail)
//Storyboard Layer 2 (Pass)
//Storyboard Layer 3 (Foreground)
//Storyboard Sound Samples

[TimingPoints]
2893,342.857142857143,4,1,1,70,1,0
11121,-100,4,1,1,70,0,0
13864,-100,4,1,2,70,0,0
23807,-83.3333333333333,4,1,2,70,0,0
24150,-71.4285714285714,4,1,2,70,0,0
24493,-62.5,4,1,2,70,0,0
24835,-100,4,1,1,70,0,0
28264,-76.9230769230769,4,1,2,70,0,0
28607,-133.333333333333,4,1,2,70,0,0
28950,-71.4285714285714,4,2,2,70,0,0
31693,-100,4,1,1,70,0,0
35464,-200,4,1,2,70,0,0
35807,-76.9230769230769,4,2,2,70,0,0
37693,-76.9230769230769,4,1,2,70,0,0
38035,-200,4,1,2,70,0,0
38550,-100,4,1,1,70,0,0
42664,-133.333333333333,4,1,1,50,0,0
44035,-133.333333333333,4,1,1,60,0,0
45407,-100,4,2,0,70,0,0
46093,-71.4285714285714,4,2,0,70,0,0
46778,-100,4,2,2,70,0,0
51921,-66.6666666666667,4,2,0,70,0,0
52264,-83.3333333333333,4,2,2,70,0,0
57064,-62.5,4,2,0,70,0,0
57750,-100,4,2,2,70,0,1
60150,-58.8235294117647,4,2,2,70,0,0
60493,-100,4,2,2,70,0,1
62893,-66.6666666666667,4,2,2,70,0,0
63235,-100,4,2,2,70,0,1
65635,-66.6666666666667,4,2,2,70,0,0
65978,-100,4,2,2,70,0,1
67007,-76.9230769230769,4,2,2,70,0,1
67350,-100,4,2,2,70,0,0
82435,-100,4,2,2,70,0,0
85178,-74.0740740740741,4,2,2,70,0,0
87578,-133.333333333333,4,2,2,70,0,0
87921,-100,4,2,2,70,0,0
93064,-83.3333333333333,4,2,2,70,0,0
93407,-83.3333333333333,4,2,2,70,0,0
98893,-83.3333333333333,4,2,2,70,0,1
101550,-83.3333333333333,4,2,2,70,0,0
101635,-83.3333333333333,4,2,2,70,0,1
104293,-83.3333333333333,4,2,2,70,0,0
104378,-83.3333333333333,4,2,2,70,0,1
106778,-166.666666666667,4,2,2,70,0,0
107121,-100,4,2,2,70,0,1
108407,-100,4,2,2,70,0,0
108493,-62.5,4,2,2,70,0,1
109778,-62.5,4,2,2,70,0,0
109864,-62.5,4,2,2,70,0,1
111150,-62.5,4,2,2,70,0,0
111235,-62.5,4,2,2,70,0,1
112521,-62.5,4,2,2,70,0,0
112607,-62.5,4,2,2,70,0,1
112778,-100,4,2,2,70,0,0
113978,-62.5,4,2,2,70,0,1
114150,-100,4,2,0,70,0,0
114235,-100,4,2,2,70,0,0
115350,-62.5,4,2,2,70,0,1
116721,-200,4,2,2,70,0,0
117064,-62.5,4,2,2,70,0,1
117107,-62.5,4,2,2,70,0,0

[Colours]
Combo1 : 254,81,22
Combo2 : 102,255,179
Combo3 : 255,128,191
Combo4 : 74,74,74
Combo5 : 192,192,192
Combo6 : 255,0,0

[HitObjects]
32,128,2892,6,0,B|112:92|112:92|192:100,1,135,0|0,2:0|2:0,0:0:0:0:
248,112,3235,1,8,0:0:0:0:
16,216,3407,1,0,0:0:0:0:
264,376,3578,6,0,P|272:296|256:240,1,135,2|0,0:2|2:0,0:0:0:0:
188,184,3921,1,8,0:0:0:0:
92,368,4092,1,0,0:0:0:0:
196,316,4264,70,0,L|344:300,1,135,2|0,0:2|2:0,0:0:0:0:
364,380,4607,1,8,0:0:0:0:
332,212,4778,1,0,0:0:0:0:
505,133,4950,6,0,L|357:117,1,135,2|0,0:2|2:0,0:0:0:0:
332,212,5293,1,8,0:0:0:0:
364,20,5464,1,0,0:0:0:0:
425,201,5635,70,0,L|433:317,1,90,2|0,0:2|0:0,0:0:0:0:
448,300,5893,1,0,2:0:0:0:
464,308,5978,1,8,0:0:0:0:
505,133,6150,1,0,0:0:0:0:
370,118,6321,6,0,L|254:130,1,90,2|0,0:2|0:0,0:0:0:0:
271,143,6579,1,0,2:0:0:0:
263,159,6664,1,8,0:0:0:0:
425,201,6836,1,0,0:0:0:0:
420,40,7007,70,0,P|368:28|320:40,1,90,0|2,0:0|0:2,0:0:0:0:
312,44,7264,1,0,0:0:0:0:
292,56,7350,2,0,P|247:62|204:50,1,90,8|2,0:0|0:2,0:0:0:0:
104,4,7607,1,0,0:0:0:0:
104,4,7693,6,0,L|108:108,1,90,0|2,0:0|0:2,0:0:0:0:
108,116,7950,1,0,0:0:0:0:
108,140,8035,2,0,L|112:240,1,90,8|2,0:0|0:2,0:0:0:0:
152,324,8293,1,0,0:0:0:0:
152,324,8378,70,0,B|196:312|196:312|248:324,1,90,0|2,0:0|0:2,0:0:0:0:
260,328,8635,1,0,0:0:0:0:
280,336,8721,2,0,B|324:348|324:348|376:336,1,90,8|2,0:0|0:2,0:0:0:0:
420,224,8978,1,0,0:0:0:0:
420,224,9064,6,0,L|316:236,1,90,0|2,0:0|0:2,0:0:0:0:
308,236,9321,1,0,0:0:0:0:
284,236,9407,2,0,L|180:224,1,90,8|2,0:0|0:2,0:0:0:0:
152,140,9664,1,0,0:0:0:0:
152,140,9750,69,0,0:0:0:0:
188,128,9835,1,0,0:0:0:0:
228,124,9921,1,2,0:2:0:0:
268,136,10007,1,0,0:0:0:0:
304,156,10093,6,0,L|372:144,1,45,8|0,0:0|2:0,0:0:0:0:
428,40,10264,2,0,L|404:104,1,45,2|0,0:2|2:0,0:0:0:0:
464,204,10435,2,0,L|419:151,1,45,2|0,0:2|2:0,0:0:0:0:
320,72,10607,1,0,0:0:0:0:
284,52,10693,1,0,0:0:0:0:
244,40,10778,70,0,L|192:44,1,45,2|0,0:2|0:0,0:0:0:0:
108,48,10950,2,0,L|56:52,1,45,2|0,0:2|0:0,0:0:0:0:
4,136,11121,6,0,B|0:188|0:188|8:228,1,90,2|0,1:0|0:0,0:0:0:0:
28,244,11378,1,0,2:0:0:0:
48,260,11464,1,8,0:0:0:0:
168,192,11635,1,2,0:2:0:0:
199,43,11807,70,0,B|147:39|147:39|107:47,1,90,2|0,1:0|0:0,0:0:0:0:
91,67,12064,1,0,2:0:0:0:
75,87,12150,1,8,0:0:0:0:
168,192,12321,1,2,0:2:0:0:
296,76,12493,5,8,0:0:0:0:
336,64,12578,1,0,0:0:0:0:
376,68,12664,1,2,0:2:0:0:
412,84,12750,1,0,2:0:0:0:
436,116,12835,2,0,L|448:184,1,45,0|0,0:0|2:0,0:0:0:0:
360,324,13007,2,0,L|352:279,1,45,0|0,0:0|0:0,0:0:0:0:
344,176,13178,70,0,L|352:152,6,22.5,10|0|0|0|0|0|0,1:1|0:0|0:0|0:0|0:0|0:0|0:0,0:0:0:0:
280,240,13521,2,0,L|220:248,1,45,2|0,0:0|0:0,0:0:0:0:
236,368,13693,2,0,L|280:373,1,45,2|0,0:3|0:0,0:0:0:0:
360,324,13864,6,0,L|460:320,1,90,4|0,0:0|0:0,0:0:0:0:
464,308,14121,1,0,0:0:0:0:
476,296,14207,1,8,0:0:0:0:
280,240,14378,1,0,0:2:0:0:
428,136,14550,70,0,L|328:132,1,90,4|0,0:0|0:0,0:0:0:0:
324,120,14807,1,0,0:0:0:0:
312,108,14893,1,8,0:0:0:0:
512,48,15064,1,0,0:2:0:0:
356,236,15235,5,4,0:0:0:0:
256,52,15407,1,0,0:0:0:0:
256,52,15493,1,0,0:0:0:0:
256,52,15578,1,8,0:0:0:0:
156,236,15750,1,0,0:2:0:0:
84,136,15921,70,0,L|184:132,1,90,4|0,0:0|0:0,0:0:0:0:
188,120,16178,1,0,0:0:0:0:
200,108,16264,1,8,0:0:0:0:
0,48,16435,1,0,0:2:0:0:
36,244,16607,5,4,0:0:0:0:
203,126,16778,2,0,L|150:132,2,45,0|0|8,0:0|0:0|0:0,0:0:0:0:
221,330,17121,1,0,0:2:0:0:
85,136,17293,69,4,0:0:0:0:
272,223,17464,2,0,L|239:180,2,45,0|0|8,0:0|0:0|0:0,0:0:0:0:
103,341,17807,1,0,0:2:0:0:
205,128,17978,5,4,0:0:0:0:
257,372,18150,1,0,0:0:0:0:
257,372,18235,1,0,0:0:0:0:
257,372,18321,1,8,0:0:0:0:
308,128,18493,1,0,0:2:0:0:
388,292,18664,69,4,0:0:0:0:
504,200,18835,1,0,0:0:0:0:
504,200,18921,1,0,2:0:0:0:
504,200,19007,2,0,L|440:196,1,45,8|0,0:0|2:0,0:0:0:0:
308,128,19178,2,0,L|372:124,1,45,0|0,0:0|2:0,0:0:0:0:
512,40,19350,6,0,L|416:32,1,90,6|0,0:0|0:0,0:0:0:0:
384,44,19607,1,0,0:0:0:0:
344,52,19693,2,0,L|248:44,1,90,6|0,0:0|0:0,0:0:0:0:
216,60,19950,1,0,0:0:0:0:
176,68,20036,2,0,L|80:60,1,90,6|0,0:0|0:0,0:0:0:0:
48,68,20293,1,0,0:0:0:0:
12,84,20378,2,0,L|24:140,1,45,10|0,0:0|2:0,0:0:0:0:
104,216,20550,2,0,L|92:272,1,45,2|0,0:0|2:0,0:0:0:0:
0,352,20721,70,0,L|96:360,1,90,6|0,0:0|0:0,0:0:0:0:
128,348,20978,1,0,0:0:0:0:
168,340,21064,2,0,L|264:348,1,90,6|0,0:0|0:0,0:0:0:0:
296,332,21321,1,0,0:0:0:0:
336,324,21407,2,0,L|432:332,1,90,6|0,0:0|0:0,0:0:0:0:
464,324,21664,1,0,0:0:0:0:
500,312,21749,2,0,L|488:256,1,45,10|0,0:0|2:0,0:0:0:0:
408,176,21921,2,0,L|420:120,1,45,2|0,0:0|2:0,0:0:0:0:
300,72,22093,6,0,B|256:56|256:56|216:72,1,90,6|0,0:0|0:0,0:0:0:0:
172,108,22350,1,0,0:0:0:0:
136,148,22435,2,0,B|120:192|120:192|136:232,1,90,10|0,0:0|0:0,0:0:0:0:
172,276,22692,1,0,0:0:0:0:
212,312,22778,2,0,B|256:328|256:328|296:312,1,90,6|0,0:0|0:0,0:0:0:0:
340,276,23035,1,0,0:0:0:0:
376,236,23121,2,0,B|392:192|392:192|376:152,1,90,10|2,0:0|0:0,0:0:0:0:
340,108,23378,1,0,2:0:0:0:
300,72,23464,6,0,L|244:68,1,45,8|0,0:2|2:0,0:0:0:0:
172,108,23635,2,0,L|116:104,1,45,8|0,0:2|2:0,0:0:0:0:
8,204,23807,54,0,L|92:196,1,53.9999983520508,8|0,0:2|0:0,0:0:0:0:
136,272,23978,2,0,L|220:264,1,53.9999983520508,8|0,0:2|0:0,0:0:0:0:
324,296,24150,70,0,L|316:368,1,62.9999980773926,8|0,0:2|0:0,0:0:0:0:
428,272,24321,2,0,L|424:308,3,20.9999993591309,8|0|0|0,0:2|0:0|0:0|0:0,0:0:0:0:
488,184,24493,70,0,B|380:132|384:228|272:176,1,216,12|0,0:0|2:0,0:0:0:0:
236,96,24835,38,0,L|232:60,14,22.5,0|0|0|0|0|0|0|0|0|0|0|0|0|0|0,0:0|0:0|0:0|0:0|0:0|0:0|0:0|0:0|0:0|0:0|0:0|0:0|0:0|0:0|0:0,0:0:0:0:
360,160,25521,69,4,0:0:0:0:
399,154,25607,1,0,0:0:0:0:
436,134,25693,1,0,0:0:0:0:
452,97,25778,1,0,0:0:0:0:
451,56,25864,1,0,0:0:0:0:
430,20,25950,1,0,0:0:0:0:
396,0,26035,1,0,1:0:0:0:
356,4,26121,1,0,0:0:0:0:
346,43,26207,5,8,1:0:0:0:
348,66,26293,1,0,0:0:0:0:
351,89,26378,1,0,0:0:0:0:
354,114,26464,1,0,0:0:0:0:
357,136,26550,1,0,0:0:0:0:
360,160,26635,1,0,0:0:0:0:
364,184,26721,1,0,0:0:0:0:
367,207,26807,1,0,0:0:0:0:
369,230,26893,69,4,0:0:0:0:
345,238,26978,1,0,0:0:0:0:
317,218,27064,5,0,0:0:0:0:
300,236,27149,1,0,0:0:0:0:
269,222,27235,69,0,0:0:0:0:
263,246,27320,1,0,0:0:0:0:
225,242,27407,5,0,0:0:0:0:
231,265,27492,1,0,0:0:0:0:
185,266,27578,69,8,0:0:0:0:
175,295,27664,1,0,0:0:0:0:
165,325,27750,2,0,L|149:373,1,45,0|0,0:0|0:0,0:0:0:0:
0,354,27921,5,12,0:0:0:0:
10,325,28007,1,0,0:0:0:0:
20,295,28093,2,0,L|36:247,1,45,0|0,0:0|0:0,0:0:0:0:
140,190,28264,70,0,L|160:126,1,58.4999973220826,2|0,0:2|2:0,0:0:0:0:
352,160,28435,2,0,L|336:228,1,58.4999973220826,2|0,0:2|2:0,0:0:0:0:
208,339,28607,38,0,L|236:223,1,101.250003862381,2|0,2:0|2:0,0:0:0:0:
251,162,28950,22,0,B|284:36|284:36|292:72|316:96,1,188.999994232178,2|0,0:0|0:0,0:0:0:0:
352,160,29293,2,0,L|336:232,1,62.9999980773926,2|0,0:0|0:0,0:0:0:0:
396,368,29464,70,0,L|436:176,1,188.999994232178,8|0,0:0|0:0,0:0:0:0:
352,160,29807,2,0,L|336:232,1,62.9999980773926,2|0,0:0|0:0,0:0:0:0:
498,293,29978,2,0,L|512:232,1,62.9999980773926,2|0,0:0|0:0,0:0:0:0:
324,320,30150,6,0,B|232:336|232:336|124:316,1,188.999994232178,8|0,0:0|0:0,0:0:0:0:
128,220,30493,2,0,L|208:236,1,62.9999980773926,2|0,0:0|0:0,0:0:0:0:
276,233,30664,2,0,L|356:217,1,62.9999980773926,2|0,0:0|0:0,0:0:0:0:
268,156,30835,70,0,B|236:132|236:72|236:72|236:132|188:164,1,188.999994232178,8|0,0:0|0:0,0:0:0:0:
158,38,31178,1,8,0:0:0:0:
158,38,31264,1,8,0:0:0:0:
158,38,31350,6,0,P|214:-6|314:38,1,188.999994232178,12|0,0:0|0:0,0:0:0:0:
355,121,31693,22,0,L|386:134,14,22.5,0|0|0|0|0|0|0|0|0|0|0|0|0|0|0,0:0|0:0|0:0|0:0|0:0|0:0|0:0|0:0|0:0|0:0|0:0|0:0|0:0|0:0|0:0,0:0:0:0:
424,208,32378,69,4,0:0:0:0:
400,220,32464,1,0,0:0:0:0:
372,224,32550,1,0,0:0:0:0:
344,220,32635,1,0,0:0:0:0:
320,208,32721,1,0,0:0:0:0:
296,200,32807,1,0,0:0:0:0:
268,196,32893,1,0,1:0:0:0:
244,208,32978,1,0,0:0:0:0:
228,228,33064,5,8,1:0:0:0:
230,244,33150,1,0,0:0:0:0:
232,261,33235,1,0,0:0:0:0:
235,278,33321,1,0,0:0:0:0:
237,295,33407,1,0,0:0:0:0:
239,311,33493,1,0,0:0:0:0:
242,328,33578,1,0,0:0:0:0:
244,345,33664,1,0,0:0:0:0:
248,368,33750,69,4,0:0:0:0:
222,359,33835,1,0,0:0:0:0:
192,380,33921,5,0,0:0:0:0:
174,361,34006,1,0,0:0:0:0:
141,376,34092,69,0,0:0:0:0:
135,350,34177,1,0,0:0:0:0:
94,355,34264,5,0,0:0:0:0:
100,330,34349,1,0,0:0:0:0:
64,332,34435,70,0,L|32:328,2,22.5,8|0|8,0:0|0:0|0:0,0:0:0:0:
76,228,34607,1,0,0:0:0:0:
80,212,34693,1,0,0:0:0:0:
84,196,34778,2,0,L|90:138,3,45,8|0|0|0,0:0|0:0|0:0|0:0,0:0:0:0:
8,80,35121,2,0,L|2:138,1,45,4|0,0:0|0:0,0:0:0:0:
176,160,35293,1,4,0:0:0:0:
180,144,35378,1,4,0:0:0:0:
184,128,35464,38,0,L|191:48,1,67.5,12|0,0:0|2:0,0:0:0:0:
288,48,35807,6,0,P|340:64|272:104,1,175.499991966248,2|0,0:0|0:0,0:0:0:0:
396,0,36150,2,0,P|414:26|428:60,1,58.4999973220826,10|0,0:0|0:0,0:0:0:0:
452,224,36321,6,0,B|400:256|336:244|336:244|372:236|396:216,1,175.499991966248,8|0,0:0|0:0,0:0:0:0:
440,136,36664,2,0,P|472:136|512:144,1,58.4999973220826,2|0,0:0|0:0,0:0:0:0:
376,324,36836,2,0,P|344:324|304:316,1,58.4999973220826,2|0,0:0|0:0,0:0:0:0:
196,248,37007,70,0,B|180:120|180:120|192:144|212:156,1,175.499991966248,8|0,0:0|0:0,0:0:0:0:
304,160,37350,2,0,L|360:144,1,58.4999973220826,2|0,0:0|0:0,0:0:0:0:
344,31,37521,2,0,L|288:47,1,58.4999973220826,10|0,0:0|0:0,0:0:0:0:
192,40,37693,6,0,P|132:52|108:160,1,175.499991966248,8|0,0:0|0:0,0:0:0:0:
193,232,38035,54,0,L|180:120,1,112.5,4|0,0:0|0:0,0:0:0:0:
192,40,38550,38,0,L|191:13,14,22.5,0|0|0|0|0|0|0|0|0|0|0|0|0|0|0,0:0|0:0|0:0|0:0|0:0|0:0|0:0|0:0|0:0|0:0|0:0|0:0|0:0|0:0|0:0,0:0:0:0:
180,120,39235,5,4,0:0:0:0:
216,136,39321,1,0,0:0:0:0:
256,140,39407,1,0,0:0:0:0:
296,128,39493,1,0,0:0:0:0:
332,112,39578,1,0,0:0:0:0:
368,96,39664,1,0,0:0:0:0:
408,92,39750,1,0,1:0:0:0:
448,104,39836,1,0,0:0:0:0:
481,131,39921,69,8,1:0:0:0:
482,148,40007,1,0,0:0:0:0:
483,165,40093,1,0,0:0:0:0:
485,182,40178,1,0,0:0:0:0:
487,199,40264,1,0,0:0:0:0:
489,216,40350,1,0,0:0:0:0:
490,233,40435,1,0,0:0:0:0:
492,250,40521,1,0,0:0:0:0:
492,271,40607,5,4,0:0:0:0:
466,280,40692,1,0,0:0:0:0:
436,259,40778,69,0,0:0:0:0:
418,278,40863,1,0,0:0:0:0:
385,263,40949,5,0,0:0:0:0:
379,289,41034,1,0,0:0:0:0:
338,284,41121,69,0,0:0:0:0:
344,309,41206,1,0,0:0:0:0:
299,315,41293,6,0,L|308:376,3,45,2|0|0|0,0:0|0:0|0:0|0:0,0:0:0:0:
204,300,41635,2,0,L|197:255,3,45,2|0|0|0,0:0|0:0|0:0|0:0,0:0:0:0:
114,327,41978,5,6,0:0:0:0:
111,306,42063,1,0,0:0:0:0:
102,288,42149,1,0,0:0:0:0:
87,275,42235,1,0,0:0:0:0:
67,268,42321,5,2,0:0:0:0:
47,271,42406,1,0,0:0:0:0:
29,280,42492,1,0,0:0:0:0:
16,296,42578,1,0,0:0:0:0:
58,329,42664,69,2,0:2:0:0:
58,329,42835,1,0,0:0:0:0:
16,233,43007,5,2,0:2:0:0:
16,233,43178,1,0,0:0:0:0:
95,169,43350,69,2,0:2:0:0:
95,169,43521,1,0,0:0:0:0:
136,264,43693,5,2,0:2:0:0:
136,264,43864,1,0,0:0:0:0:
16,233,44035,37,2,0:2:0:0:
128,85,44207,1,0,0:0:0:0:
136,264,44378,5,2,0:2:0:0:
152,97,44550,1,0,0:0:0:0:
266,249,44721,69,2,0:2:0:0:
176,109,44893,1,0,0:0:0:0:
366,169,45064,5,2,0:2:0:0:
200,121,45235,1,0,0:0:0:0:
431,44,45407,6,0,L|383:64,1,45,0|0,0:0|0:0,0:0:0:0:
244,113,45578,1,0,0:0:0:0:
244,113,45664,1,0,0:0:0:0:
244,113,45750,54,0,L|196:121,1,45,2|0,0:0|0:0,0:0:0:0:
8,204,45921,2,0,L|56:212,1,45,2|0,0:0|0:0,0:0:0:0:
266,249,46093,70,0,L|201:240,1,62.9999980773926,2|0,0:0|0:0,0:0:0:0:
6,317,46264,2,0,L|69:327,1,62.9999980773926,0|0,0:0|0:0,0:0:0:0:
136,372,46435,70,0,B|160:320|136:280|136:280|116:232|144:184,1,188.999994232178,2|0,0:1|2:0,0:0:0:0:
244,68,46778,22,0,L|240:16,3,45,2|0|0|0,0:0|0:0|0:0|0:0,0:0:0:0:
364,59,47121,2,0,L|368:104,3,45,2|0|0|0,0:0|0:0|0:0|0:0,0:0:0:0:
476,24,47464,5,2,0:0:0:0:
480,52,47550,1,0,0:0:0:0:
484,80,47635,2,0,L|488:132,1,45,0|0,0:0|0:0,0:0:0:0:
488,232,47807,69,2,0:0:0:0:
484,260,47893,1,0,0:0:0:0:
480,288,47978,2,0,L|476:340,1,45,0|0,0:0|0:0,0:0:0:0:
372,336,48150,6,0,L|368:288,3,45,2|0|0|0,0:0|0:0|0:0|0:0,0:0:0:0:
256,288,48493,2,0,L|252:240,3,45,2|0|0|0,0:0|0:0|0:0|0:0,0:0:0:0:
136,340,48835,69,2,0:0:0:0:
132,312,48921,1,0,0:0:0:0:
128,284,49007,2,0,L|124:232,1,45,0|0,0:0|0:0,0:0:0:0:
124,132,49178,5,2,0:0:0:0:
128,104,49264,1,0,0:0:0:0:
132,76,49350,2,0,L|136:24,1,45,0|0,0:0|0:0,0:0:0:0:
256,166,49521,70,0,L|208:162,1,45,2|0,0:0|0:0,0:0:0:0:
135,31,49693,2,0,L|180:34,1,45,0|0,0:0|0:0,0:0:0:0:
405,185,49864,6,0,L|357:181,1,45,2|0,0:0|0:0,0:0:0:0:
284,50,50036,2,0,L|328:54,1,45,0|0,0:0|0:0,0:0:0:0:
464,76,50207,70,0,L|460:24,3,45,2|0|0|0,0:0|0:0|0:0|0:0,0:0:0:0:
408,229,50550,2,0,L|404:177,3,45,2|0|0|0,0:0|0:0|0:0|0:0,0:0:0:0:
484,359,50893,6,0,L|436:355,1,45,2|0,0:0|0:0,0:0:0:0:
363,224,51065,2,0,L|407:228,1,45,0|0,0:0|0:0,0:0:0:0:
335,340,51235,70,0,L|287:336,1,45,2|0,0:0|0:0,0:0:0:0:
214,205,51407,2,0,L|259:208,1,45,0|0,0:0|0:0,0:0:0:0:
136,320,51578,70,0,L|112:272,1,45,2|0,0:0|0:0,0:0:0:0:
56,148,51750,1,0,1:0:0:0:
56,148,51835,1,0,1:0:0:0:
56,148,51921,70,0,B|136:148|136:148|180:116|180:116|260:116,1,202.500007724762,4|0,0:0|2:0,0:0:0:0:
352,116,52264,22,0,L|340:64,1,53.9999983520508,6|0,0:0|0:0,0:0:0:0:
456,144,52435,2,0,L|444:92,1,53.9999983520508,2|0,0:0|0:0,0:0:0:0:
500,264,52607,6,0,L|512:212,1,53.9999983520508,2|0,0:0|0:0,0:0:0:0:
396,292,52778,2,0,L|408:240,1,53.9999983520508,2|0,0:0|1:0,0:0:0:0:
296,212,52950,70,0,L|232:224,1,53.9999983520508,2|0,0:0|0:0,0:0:0:0:
242,357,53121,2,0,L|296:348,1,53.9999983520508,2|0,0:0|0:0,0:0:0:0:
152,232,53293,6,0,L|88:244,1,53.9999983520508,2|0,0:0|0:0,0:0:0:0:
98,377,53464,2,0,L|151:367,1,53.9999983520508,2|0,0:0|1:0,0:0:0:0:
152,232,53635,70,0,P|120:224|92:224,1,53.9999983520508,2|0,0:0|0:0,0:0:0:0:
204,144,53807,2,0,P|178:123|153:111,1,53.9999983520508,2|0,0:0|0:0,0:0:0:0:
288,84,53978,2,0,P|273:54|255:32,1,53.9999983520508,2|0,0:0|0:0,0:0:0:0:
388,67,54150,2,0,P|387:34|380:6,1,53.9999983520508,2|0,0:0|1:0,0:0:0:0:
448,160,54321,6,0,P|480:168|508:168,1,53.9999983520508,2|0,0:0|0:0,0:0:0:0:
396,248,54493,2,0,P|421:268|446:280,1,53.9999983520508,2|0,0:0|0:0,0:0:0:0:
312,308,54664,2,0,P|326:337|344:359,1,53.9999983520508,2|0,0:0|0:0,0:0:0:0:
212,325,54836,2,0,P|212:357|219:385,1,53.9999983520508,2|0,0:0|1:0,0:0:0:0:
92,292,55007,5,6,0:0:0:0:
88,260,55093,1,0,0:0:0:0:
84,228,55178,1,2,0:0:0:0:
80,196,55264,1,0,0:0:0:0:
76,164,55350,1,2,0:0:0:0:
72,132,55435,1,0,0:0:0:0:
68,100,55521,1,2,0:0:0:0:
64,68,55607,1,0,0:0:0:0:
60,36,55693,53,2,0:0:0:0:
92,56,55778,1,0,0:0:0:0:
128,64,55864,1,2,0:0:0:0:
164,52,55950,1,0,0:0:0:0:
196,32,56035,1,2,0:0:0:0:
228,12,56120,1,0,0:0:0:0:
264,4,56206,1,2,0:0:0:0:
300,16,56292,1,0,0:0:0:0:
332,40,56378,54,0,L|348:104,1,53.9999983520508,6|0,0:0|0:0,0:0:0:0:
376,212,56550,2,0,L|376:244,10,26.9999991760254,2|2|2|2|2|2|2|2|2|2|2,0:1|0:1|0:1|0:1|0:1|0:1|0:1|0:1|0:1|0:1|0:1,0:0:0:0:
472,160,57064,6,0,P|480:197|480:240,1,72,4|0,0:0|0:0,0:0:0:0:
428,308,57235,2,0,L|420:388,1,72,4|0,0:0|0:0,0:0:0:0:
328,376,57407,2,0,L|320:304,1,72,4|0,0:0|0:0,0:0:0:0:
267,227,57578,2,0,P|267:191|275:156,1,72,4|0,0:0|0:0,0:0:0:0:
348,92,57750,5,6,0:0:0:0:
148,36,57921,1,0,0:0:0:0:
352,0,58093,1,0,0:0:0:0:
124,128,58264,1,0,0:0:0:0:
236,64,58435,5,8,0:0:0:0:
160,232,58607,1,0,0:0:0:0:
60,60,58778,1,0,0:0:0:0:
256,176,58950,1,0,0:0:0:0:
152,0,59121,6,0,L|144:52,1,45,2|0,0:0|0:0,0:0:0:0:
124,136,59293,1,0,3:0:0:0:
123,139,59378,1,0,3:0:0:0:
123,143,59464,1,0,3:0:0:0:
122,147,59550,1,0,3:0:0:0:
122,151,59635,1,2,0:0:0:0:
121,155,59721,1,0,3:0:0:0:
121,159,59807,6,0,L|110:222,1,45,8|0,0:0|0:0,0:0:0:0:
92,328,59978,2,0,L|84:372,2,30,2|2|2,0:0|0:0|0:0,0:0:0:0:
8,292,60150,6,0,P|104:244|184:324,1,229.500004377365,12|0,0:0|0:0,0:0:0:0:
256,368,60493,21,2,0:0:0:0:
472,288,60664,1,0,0:0:0:0:
356,368,60835,1,0,0:0:0:0:
356,368,61007,1,0,0:0:0:0:
356,152,61178,5,8,0:0:0:0:
196,292,61350,1,0,0:0:0:0:
456,384,61521,1,0,0:0:0:0:
456,384,61693,1,0,0:0:0:0:
456,284,61864,70,0,L|400:284,1,45,2|0,0:0|0:0,0:0:0:0:
308,284,62035,5,2,3:0:0:0:
284,292,62121,1,2,3:0:0:0:
232,288,62207,69,2,3:0:0:0:
208,280,62293,1,2,3:0:0:0:
156,280,62378,5,2,3:0:0:0:
132,288,62464,1,2,3:0:0:0:
80,296,62550,6,0,B|68:196|68:196|76:216|100:228,1,135,8|0,0:0|0:0,0:0:0:0:
228,176,62893,22,0,P|253:135|168:157,1,202.500007724762,2|0,0:1|0:0,0:0:0:0:
168,232,63235,21,2,0:0:0:0:
292,372,63407,1,0,0:0:0:0:
352,184,63578,1,0,0:0:0:0:
160,364,63750,1,0,0:0:0:0:
408,344,63921,5,8,0:0:0:0:
280,268,64093,1,0,0:0:0:0:
464,228,64264,1,0,0:0:0:0:
252,152,64435,1,0,0:0:0:0:
400,292,64607,70,0,L|404:321,2,30,2|0|0,0:0|0:0|0:0,0:0:0:0:
384,192,64778,1,0,0:0:0:0:
380,167,64864,1,0,0:0:0:0:
376,141,64950,1,0,0:0:0:0:
373,116,65035,1,0,0:0:0:0:
369,91,65121,1,0,0:0:0:0:
365,65,65207,1,0,0:0:0:0:
361,40,65293,54,0,L|356:7,6,22.5,8|0|0|0|0|0|0,0:0|0:0|0:0|0:0|0:0|0:0|0:0,0:0:0:0:
221,130,65635,6,0,L|223:163,6,33.7500012874604,8|0|0|0|0|0|0,0:0|0:0|0:0|0:0|0:0|0:0|0:0,0:0:0:0:
232,40,65978,5,8,0:0:0:0:
204,32,66064,1,0,0:0:0:0:
176,28,66150,2,0,P|148:28|120:32,1,45,0|0,0:0|0:0,0:0:0:0:
0,192,66321,5,10,0:0:0:0:
28,200,66407,1,0,0:0:0:0:
56,204,66493,2,0,P|84:204|112:200,1,45,0|0,0:0|0:0,0:0:0:0:
224,164,66664,54,0,L|172:128,1,45,2|0,0:0|0:0,0:0:0:0:
53,37,66835,1,8,0:0:0:0:
45,33,66921,1,8,0:0:0:0:
37,29,67007,70,0,L|57:217,1,175.499991966248,10|0,0:1|0:0,0:0:0:0:
72,316,67350,21,2,0:0:0:0:
104,336,67435,1,0,0:0:0:0:
140,344,67521,1,0,0:0:0:0:
176,332,67607,1,0,0:0:0:0:
208,312,67693,2,0,L|200:252,1,45,12|0,0:1|0:0,0:0:0:0:
272,200,67864,2,0,L|264:140,1,45,0|0,0:0|0:0,0:0:0:0:
312,28,68035,5,2,0:0:0:0:
344,8,68120,1,0,0:0:0:0:
380,0,68206,1,0,0:0:0:0:
416,12,68292,1,0,0:0:0:0:
448,32,68378,2,0,L|440:92,1,45,12|0,0:1|0:0,0:0:0:0:
512,144,68549,2,0,L|504:204,1,45,0|0,0:0|0:0,0:0:0:0:
424,256,68721,70,0,L|436:312,1,45,2|0,0:0|0:0,0:0:0:0:
332,384,68893,2,0,L|344:328,1,45,0|0,0:0|0:0,0:0:0:0:
240,256,69064,6,0,L|252:312,1,45,12|0,0:1|0:0,0:0:0:0:
148,384,69236,2,0,L|160:328,1,45,0|0,0:0|0:0,0:0:0:0:
32,224,69407,70,0,L|88:232,1,45,2|0,0:0|0:0,0:0:0:0:
232,152,69578,2,0,L|187:145,1,45,0|0,0:0|0:0,0:0:0:0:
16,104,69750,6,0,L|72:112,1,45,12|0,0:1|0:0,0:0:0:0:
220,32,69921,2,0,L|175:25,1,45,0|0,0:0|0:0,0:0:0:0:
56,4,70093,70,0,B|64:108|64:108|92:92,1,135,2|0,0:0|2:0,0:0:0:0:
175,39,70435,2,0,L|223:31,1,45,12|0,0:1|0:0,0:0:0:0:
330,79,70607,1,0,0:0:0:0:
330,79,70693,1,0,0:0:0:0:
330,79,70778,5,2,0:0:0:0:
330,79,70864,1,0,0:0:0:0:
330,79,70950,2,0,L|310:123,1,45,0|0,0:0|0:0,0:0:0:0:
248,270,71121,69,12,0:1:0:0:
248,270,71207,1,0,0:0:0:0:
248,270,71293,2,0,L|219:230,1,45,0|0,0:0|0:0,0:0:0:0:
123,103,71464,5,2,0:0:0:0:
123,103,71550,1,0,0:0:0:0:
123,103,71636,2,0,L|171:98,1,45,0|0,0:0|0:0,0:0:0:0:
344,198,71807,69,12,0:1:0:0:
344,198,71893,1,0,0:0:0:0:
344,198,71979,2,0,L|295:202,1,45,0|0,0:0|0:0,0:0:0:0:
138,223,72150,5,2,0:0:0:0:
138,223,72236,1,0,0:0:0:0:
138,223,72322,2,0,L|158:179,1,45,0|0,0:0|0:0,0:0:0:0:
219,31,72493,69,12,0:1:0:0:
219,31,72579,1,0,0:0:0:0:
219,31,72665,2,0,L|247:70,1,45,0|0,0:0|0:0,0:0:0:0:
344,198,72835,5,2,0:0:0:0:
380,214,72921,1,0,0:0:0:0:
420,214,73007,1,0,0:0:0:0:
456,198,73092,1,0,0:0:0:0:
476,162,73178,1,12,0:1:0:0:
480,122,73264,1,0,0:0:0:0:
460,86,73350,2,0,P|440:76|420:64,1,45,0|0,0:0|0:0,0:0:0:0:
219,31,73521,69,2,0:0:0:0:
183,15,73607,1,0,0:0:0:0:
143,15,73693,1,0,0:0:0:0:
107,31,73778,1,0,0:0:0:0:
87,67,73864,1,12,0:1:0:0:
83,107,73950,1,0,0:0:0:0:
103,143,74036,2,0,P|123:153|143:165,1,45,0|0,0:0|0:0,0:0:0:0:
344,260,74207,6,0,B|356:160|356:160|320:200,1,135,2|0,0:0|0:0,0:0:0:0:
258,200,74550,2,0,L|250:264,1,45,12|0,0:1|0:0,0:0:0:0:
444,212,74721,1,0,0:0:0:0:
444,212,74807,1,0,0:0:0:0:
444,212,74893,69,2,0:0:0:0:
444,212,74978,1,0,0:0:0:0:
444,212,75064,2,0,L|432:164,1,45,0|0,0:0|0:0,0:0:0:0:
309,358,75235,5,12,0:1:0:0:
325,362,75320,1,0,0:0:0:0:
341,367,75407,2,0,L|388:380,1,45,0|0,0:0|0:0,0:0:0:0:
282,177,75578,69,2,0:0:0:0:
270,189,75664,1,0,0:0:0:0:
258,200,75750,2,0,L|222:234,1,45,0|0,0:0|0:0,0:0:0:0:
64,244,75921,5,12,0:1:0:0:
68,228,76007,1,0,0:0:0:0:
72,212,76093,2,0,L|84:164,1,45,0|0,0:0|0:0,0:0:0:0:
207,358,76264,69,2,0:0:0:0:
191,362,76350,1,0,0:0:0:0:
175,367,76435,2,0,L|127:380,1,45,0|0,0:0|0:0,0:0:0:0:
234,177,76607,5,12,0:1:0:0:
246,189,76693,1,0,0:0:0:0:
258,200,76778,2,0,L|293:234,1,45,0|0,0:0|0:0,0:0:0:0:
372,308,76950,69,2,0:0:0:0:
404,312,77035,1,0,0:0:0:0:
436,316,77121,1,0,0:0:0:0:
468,320,77207,1,0,0:0:0:0:
460,288,77293,1,12,0:1:0:0:
452,256,77378,1,0,0:0:0:0:
444,224,77464,2,0,L|428:160,1,45,0|0,0:0|0:0,0:0:0:0:
376,16,77635,5,2,0:0:0:0:
344,12,77720,1,0,0:0:0:0:
312,8,77806,1,0,0:0:0:0:
280,4,77892,1,0,0:0:0:0:
288,36,77978,1,12,0:1:0:0:
296,68,78063,1,0,0:0:0:0:
304,100,78149,2,0,L|320:164,1,45,0|0,0:0|0:0,0:0:0:0:
352,224,78321,70,0,B|444:224|444:224|396:204,1,135,2|0,0:0|0:0,0:0:0:0:
314,143,78664,2,0,L|254:143,1,45,8|0,0:1|0:0,0:0:0:0:
192,216,78835,1,0,0:0:0:0:
192,216,78921,1,0,0:0:0:0:
192,216,79006,5,2,0:0:0:0:
225,230,79092,1,0,0:0:0:0:
261,234,79178,2,0,P|293:229|316:220,1,45,0|0,0:0|0:0,0:0:0:0:
308,2,79349,69,12,0:1:0:0:
280,23,79435,1,0,0:0:0:0:
258,53,79521,2,0,P|245:83|242:107,1,45,0|0,0:0|0:0,0:0:0:0:
435,209,79692,5,2,0:0:0:0:
431,174,79778,1,0,0:0:0:0:
417,140,79864,2,0,P|396:114|377:99,1,45,0|0,0:0|0:0,0:0:0:0:
189,76,80035,69,12,0:1:0:0:
193,110,80121,1,0,0:0:0:0:
207,145,80207,2,0,P|227:170|246:185,1,45,0|0,0:0|0:0,0:0:0:0:
431,69,80378,5,2,0:0:0:0:
399,55,80464,1,0,0:0:0:0:
363,50,80550,2,0,P|330:54|307:63,1,45,0|0,0:0|0:0,0:0:0:0:
316,283,80721,69,12,0:1:0:0:
344,262,80807,1,0,0:0:0:0:
366,232,80893,2,0,P|378:201|381:177,1,45,0|0,0:0|0:0,0:0:0:0:
363,50,81064,5,2,0:0:0:0:
332,40,81150,1,0,0:0:0:0:
300,40,81235,1,0,0:0:0:0:
272,52,81321,1,0,0:0:0:0:
244,64,81407,1,12,0:1:0:0:
213,74,81493,1,0,0:0:0:0:
181,74,81578,1,0,0:0:0:0:
153,62,81664,1,0,0:0:0:0:
124,44,81750,70,0,L|116:96,1,45,2|0,0:0|0:0,0:0:0:0:
196,240,81921,2,0,L|202:195,1,45,0|0,0:0|0:0,0:0:0:0:
8,160,82093,6,0,L|0:212,1,45,12|0,0:1|0:0,0:0:0:0:
80,356,82264,2,0,L|86:311,1,45,12|0,0:1|0:0,0:0:0:0:
196,240,82435,54,0,L|204:140,1,90,14|0,0:0|0:0,0:0:0:0:
265,95,82693,1,0,0:0:0:0:
328,40,82778,2,0,L|384:48,1,45,2|0,0:0|0:0,0:0:0:0:
448,224,82950,2,0,L|403:217,1,45,2|0,0:0|0:0,0:0:0:0:
344,124,83121,70,0,L|488:144,1,135,8|0,0:0|0:0,0:0:0:0:
448,312,83464,2,0,L|314:293,1,135,0|0,0:0|0:0,0:0:0:0:
220,216,83807,6,0,L|112:216,1,90,14|0,0:0|0:0,0:0:0:0:
48,216,84064,1,0,0:0:0:0:
96,144,84150,2,0,L|128:104,1,45,2|0,0:0|0:0,0:0:0:0:
96,292,84321,2,0,L|128:332,1,45,2|0,0:0|0:0,0:0:0:0:
248,328,84493,70,0,B|197:265|197:265|225:204,1,135,8|0,0:0|0:0,0:0:0:0:
248,103,84835,2,0,B|197:166|197:166|225:227,1,135,0|0,0:0|0:0,0:0:0:0:
324,240,85178,6,0,L|384:232,1,60.7500002317429,6|0,0:0|0:0,0:0:0:0:
511,306,85350,1,6,0:0:0:0:
511,306,85435,1,0,0:0:0:0:
511,306,85521,2,0,L|327:326,1,182.250000695229,14|0,0:0|0:0,0:0:0:0:
324,144,85864,70,0,L|384:151,1,60.7500002317429,6|0,0:0|0:0,0:0:0:0:
511,78,86036,1,6,0:0:0:0:
511,78,86121,1,0,0:0:0:0:
511,78,86207,2,0,L|327:58,1,182.250000695229,14|0,0:0|0:0,0:0:0:0:
240,164,86550,6,0,L|232:224,1,60.7500002317429,2|0,0:0|0:0,0:0:0:0:
188,76,86721,2,0,L|196:16,1,60.7500002317429,2|0,0:0|0:0,0:0:0:0:
96,216,86893,70,0,L|88:276,1,60.7500002317429,2|0,0:0|0:0,0:0:0:0:
48,72,87064,2,0,L|56:12,1,60.7500002317429,2|0,0:0|0:0,0:0:0:0:
188,76,87235,69,2,0:0:0:0:
184,120,87321,1,2,0:0:0:0:
180,164,87407,1,2,0:0:0:0:
176,208,87493,1,2,0:0:0:0:
172,252,87578,70,0,L|288:236,1,101.250003862381,2|2,0:0|0:0,0:0:0:0:
376,268,87921,54,0,L|392:332,3,45,2|0|0|0,0:0|0:0|0:0|0:0,0:0:0:0:
464,152,88264,2,0,L|480:216,3,45,2|0|0|0,0:0|0:0|0:0|0:0,0:0:0:0:
344,184,88607,6,0,L|332:132,1,45,2|0,0:0|0:0,0:0:0:0:
448,60,88778,2,0,L|436:8,1,45,0|0,0:0|0:0,0:0:0:0:
252,168,88950,70,0,L|240:116,1,45,2|0,0:0|0:0,0:0:0:0:
356,44,89121,2,0,L|344:-8,1,45,0|0,0:0|0:0,0:0:0:0:
188,36,89293,6,0,P|156:32|136:32,3,45,2|0|0|0,0:0|0:0|0:0|0:0,0:0:0:0:
52,112,89635,2,0,P|20:116|0:116,3,45,2|0|0|0,0:0|0:0|0:0|0:0,0:0:0:0:
132,160,89978,70,0,L|136:208,1,45,2|0,0:0|0:0,0:0:0:0:
28,240,90150,2,0,L|32:288,1,45,0|0,0:0|0:0,0:0:0:0:
228,224,90321,6,0,L|232:272,1,45,2|0,0:0|0:0,0:0:0:0:
124,304,90493,2,0,L|128:352,1,45,0|0,0:0|0:0,0:0:0:0:
328,368,90664,69,2,0:0:0:0:
332,352,90750,1,0,0:0:0:0:
336,340,90835,2,0,L|348:288,1,45,0|0,0:0|0:0,0:0:0:0:
512,212,91007,5,2,0:0:0:0:
508,228,91093,1,0,0:0:0:0:
504,240,91178,2,0,L|492:292,1,45,0|0,0:0|0:0,0:0:0:0:
432,376,91350,70,0,L|424:328,1,45,2|0,0:0|0:0,0:0:0:0:
400,216,91521,2,0,L|392:168,1,45,0|0,0:0|0:0,0:0:0:0:
288,12,91693,6,0,L|280:60,1,45,2|0,0:0|0:0,0:0:0:0:
256,172,91864,2,0,L|248:220,1,45,0|0,0:0|0:0,0:0:0:0:
208,368,92035,69,2,0:0:0:0:
204,352,92121,1,0,0:0:0:0:
200,340,92207,2,0,L|184:284,1,45,0|0,0:0|0:0,0:0:0:0:
24,212,92378,5,2,0:0:0:0:
28,228,92464,1,0,0:0:0:0:
32,240,92550,2,0,L|44:296,1,45,0|0,0:0|0:0,0:0:0:0:
92,384,92721,70,0,L|112:332,1,45,2|0,0:0|0:0,0:0:0:0:
168,216,92893,1,0,0:0:0:0:
168,216,92978,1,0,0:0:0:0:
168,216,93064,54,0,L|340:200,1,161.999995056153,12|0,0:0|2:0,0:0:0:0:
452,140,93407,22,0,L|516:128,1,53.9999983520508,6|0,0:0|0:0,0:0:0:0:
392,48,93578,2,0,L|456:36,1,53.9999983520508,2|0,0:0|0:0,0:0:0:0:
280,128,93750,6,0,L|344:116,1,53.9999983520508,2|0,0:0|0:0,0:0:0:0:
220,36,93921,2,0,L|284:24,1,53.9999983520508,2|0,0:0|1:0,0:0:0:0:
104,104,94093,70,0,L|116:160,1,53.9999983520508,2|0,0:0|0:0,0:0:0:0:
0,64,94264,2,0,L|12:120,1,53.9999983520508,2|0,0:0|0:0,0:0:0:0:
140,264,94435,6,0,L|152:320,1,53.9999983520508,2|0,0:0|0:0,0:0:0:0:
36,224,94607,2,0,L|48:280,1,53.9999983520508,2|0,0:0|1:0,0:0:0:0:
256,344,94778,70,0,P|264:312|264:288,1,53.9999983520508,6|0,0:0|0:0,0:0:0:0:
356,292,94950,2,0,P|352:259|344:236,1,53.9999983520508,2|0,0:0|0:0,0:0:0:0:
432,208,95121,2,0,P|417:178|402:159,1,53.9999983520508,2|0,0:0|0:0,0:0:0:0:
476,104,95293,2,0,P|452:81|431:69,1,53.9999983520508,2|0,0:0|1:0,0:0:0:0:
320,0,95464,6,0,P|312:32|312:56,1,53.9999983520508,2|0,0:0|0:0,0:0:0:0:
220,52,95636,2,0,P|223:84|231:107,1,53.9999983520508,2|0,0:0|0:0,0:0:0:0:
144,136,95807,2,0,P|158:165|173:184,1,53.9999983520508,2|0,0:0|0:0,0:0:0:0:
100,240,95979,2,0,P|123:262|144:274,1,53.9999983520508,2|0,0:0|1:0,0:0:0:0:
251,341,96150,5,2,0:0:0:0:
277,332,96235,1,0,0:0:0:0:
308,328,96321,1,2,0:0:0:0:
339,336,96407,1,0,0:0:0:0:
370,358,96493,53,2,0:0:0:0:
365,310,96578,1,0,0:0:0:0:
361,262,96664,1,2,0:0:0:0:
356,213,96750,1,0,0:0:0:0:
352,165,96835,69,2,0:0:0:0:
413,165,96921,1,0,0:0:0:0:
453,121,97007,1,2,0:0:0:0:
453,60,97093,1,0,0:0:0:0:
413,16,97178,69,2,0:0:0:0:
343,12,97264,1,0,0:0:0:0:
295,64,97350,2,0,P|260:69|225:60,1,53.9999983520508,2|0,0:0|0:0,0:0:0:0:
146,38,97521,69,12,3:0:0:0:
160,28,98378,6,0,L|164:84,1,53.9999983520508,0|0,0:0|0:0,0:0:0:0:
100,276,98550,2,0,L|84:108,1,161.999995056153,8|0,0:0|0:0,0:0:0:0:
8,112,98893,5,2,0:0:0:0:
72,36,99064,1,0,0:0:0:0:
56,180,99235,69,8,0:0:0:0:
72,36,99407,1,0,0:0:0:0:
140,208,99578,5,2,0:0:0:0:
72,36,99750,1,2,0:0:0:0:
228,200,99921,69,8,0:0:0:0:
72,36,100093,1,0,0:0:0:0:
124,120,100264,70,0,L|184:100,1,53.9999983520508,2|0,0:0|0:0,0:0:0:0:
244,80,100435,1,2,3:0:0:0:
272,72,100521,1,2,3:0:0:0:
300,64,100607,1,10,0:0:0:0:
328,56,100693,1,2,3:0:0:0:
356,48,100778,1,2,3:0:0:0:
380,40,100864,1,2,3:0:0:0:
404,32,100950,6,0,L|396:92,1,53.9999983520508,2|0,0:0|0:0,0:0:0:0:
508,148,101121,2,0,L|500:208,1,53.9999983520508,0|0,0:0|0:0,0:0:0:0:
320,136,101293,2,0,L|312:196,1,53.9999983520508,8|0,0:0|0:0,0:0:0:0:
424,248,101464,2,0,L|416:308,1,53.9999983520508,0|0,0:0|0:0,0:0:0:0:
360,376,101635,5,2,0:0:0:0:
412,168,101806,1,0,0:0:0:0:
280,328,101977,69,8,0:0:0:0:
412,168,102149,1,0,0:0:0:0:
216,256,102320,5,2,0:0:0:0:
412,168,102492,1,2,0:0:0:0:
168,168,102663,69,8,0:0:0:0:
412,168,102835,1,0,0:0:0:0:
452,296,103007,70,0,L|396:296,1,53.9999983520508,2|0,0:0|0:0,0:0:0:0:
304,296,103178,1,2,3:0:0:0:
300,296,103264,1,2,3:0:0:0:
296,296,103350,1,8,0:0:0:0:
292,296,103435,1,2,3:0:0:0:
288,296,103521,1,2,3:0:0:0:
284,296,103607,1,2,3:0:0:0:
280,296,103693,6,0,L|224:296,1,53.9999983520508,2|0,0:0|0:0,0:0:0:0:
136,236,103864,2,0,L|80:236,1,53.9999983520508,0|0,0:0|0:0,0:0:0:0:
0,144,104035,2,0,P|-4:120|0:88,1,53.9999983520508,8|0,0:0|0:0,0:0:0:0:
152,8,104207,2,0,P|156:32|152:64,1,53.9999983520508,0|0,0:0|0:0,0:0:0:0:
91,143,104378,5,2,0:0:0:0:
264,88,104550,1,0,0:0:0:0:
172,236,104721,69,8,0:0:0:0:
264,88,104893,1,0,0:0:0:0:
280,280,105064,5,2,0:0:0:0:
264,88,105235,1,2,0:0:0:0:
396,268,105407,69,8,0:0:0:0:
264,88,105578,1,0,0:0:0:0:
280,280,105750,70,0,L|232:316,1,53.9999983520508,2|0,0:0|0:0,0:0:0:0:
176,364,105921,21,2,0:0:0:0:
176,364,106006,1,0,0:0:0:0:
176,364,106092,1,0,0:0:0:0:
264,168,106264,69,2,0:0:0:0:
264,168,106349,1,0,0:0:0:0:
264,168,106435,1,2,0:0:0:0:
392,344,106607,5,2,0:0:0:0:
392,344,106693,1,0,0:0:0:0:
392,344,106778,54,0,L|384:260,1,80.9999975280763,0|0,0:0|0:0,0:0:0:0:
376,180,107121,53,2,0:0:0:0:
372,152,107207,1,0,0:0:0:0:
368,120,107293,2,0,L|360:64,1,45,0|0,0:0|0:0,0:0:0:0:
185,94,107464,69,2,0:0:0:0:
163,111,107550,1,0,0:0:0:0:
137,131,107636,2,0,L|93:165,1,45,0|0,0:0|0:0,0:0:0:0:
206,301,107807,69,2,0:0:0:0:
232,312,107893,1,0,0:0:0:0:
262,324,107979,2,0,L|314:346,1,45,0|0,0:0|0:0,0:0:0:0:
500,276,108150,69,2,0:0:0:0:
496,248,108236,1,0,0:0:0:0:
492,216,108321,1,0,0:0:0:0:
488,180,108407,1,0,0:0:0:0:
484,144,108493,22,0,B|400:128|400:128|268:176,1,216,6|0,1:0|0:0,0:0:0:0:
208,256,108835,5,8,0:0:0:0:
168,268,108921,1,0,0:0:0:0:
124,268,109007,1,0,0:0:0:0:
84,252,109093,1,0,0:0:0:0:
52,220,109178,38,0,L|56:148,1,72,2|0,1:0|0:0,0:0:0:0:
144,88,109350,2,0,L|148:16,1,72,2|0,1:0|0:0,0:0:0:0:
260,8,109521,2,0,L|264:80,1,72,8|0,0:0|0:0,0:0:0:0:
352,140,109693,2,0,L|356:212,1,72,2|0,1:0|0:0,0:0:0:0:
392,300,109864,38,0,B|424:312|440:352|440:352|432:324|420:276|444:196,1,216,6|0,1:0|0:0,0:0:0:0:
352,140,110207,69,8,0:0:0:0:
308,148,110293,1,0,0:0:0:0:
264,156,110378,1,0,0:0:0:0:
220,164,110464,1,0,0:0:0:0:
176,172,110550,70,0,L|188:272,1,72,2|0,1:0|0:0,0:0:0:0:
240,75,110721,2,0,L|232:4,1,72,2|0,1:0|0:0,0:0:0:0:
288,237,110893,2,0,L|300:337,1,72,8|0,0:0|0:0,0:0:0:0:
352,140,111064,2,0,L|343:68,1,72,2|0,1:0|0:0,0:0:0:0:
496,4,111235,6,0,B|492:48|492:48|500:80|484:104|484:104|480:144|480:144|492:172|492:172|488:216,1,216,2|2,0:0|0:0,0:0:0:0:
492,316,111578,5,10,0:0:0:0:
452,304,111664,1,0,0:0:0:0:
408,296,111750,1,2,0:0:0:0:
364,304,111835,1,2,0:3:0:0:
328,324,111921,54,0,P|288:332|248:328,1,72,10|0,0:0|0:0,0:0:0:0:
84,304,112093,1,2,0:0:0:0:
84,304,112178,1,2,0:0:0:0:
84,304,112264,70,0,P|76:256|88:212,1,72,10|0,0:0|0:0,0:0:0:0:
184,88,112435,2,0,P|192:136|180:180,1,72,10|0,0:0|0:0,0:0:0:0:
172,268,112607,22,0,B|216:284|216:284|228:316|228:316|284:316|284:316|296:284|296:284|344:268,1,216,6|0,1:0|0:0,0:0:0:0:
376,188,112950,5,8,0:0:0:0:
372,160,113035,1,0,0:0:0:0:
368,132,113121,1,0,0:0:0:0:
364,104,113207,1,0,0:0:0:0:
360,76,113293,70,0,L|416:80,1,45,2|0,1:0|0:0,0:0:0:0:
512,160,113464,2,0,L|467:156,1,45,2|0,1:0|0:0,0:0:0:0:
331,184,113635,2,0,L|387:188,1,45,8|0,0:0|0:0,0:0:0:0:
483,268,113807,2,0,L|438:264,1,45,2|0,1:0|0:0,0:0:0:0:
356,344,113978,6,0,B|303:370|255:344|255:344|203:370|146:339,1,216,6|0,1:0|0:0,0:0:0:0:
100,272,114321,69,8,0:0:0:0:
92,244,114407,1,0,0:0:0:0:
92,216,114493,1,0,0:0:0:0:
100,188,114578,1,0,0:0:0:0:
116,164,114664,6,0,L|152:124,1,45,2|0,1:0|0:0,0:0:0:0:
323,164,114835,2,0,L|293:198,1,45,2|0,1:0|0:0,0:0:0:0:
212,56,115007,2,0,L|248:16,1,45,8|0,0:0|0:0,0:0:0:0:
419,56,115178,2,0,L|388:89,1,45,2|0,1:0|0:0,0:0:0:0:
294,198,115350,54,0,B|298:298|298:298|318:346,1,144,8|0,0:0|0:0,0:0:0:0:
332,356,115607,1,0,0:0:0:0:
348,376,115693,1,8,0:0:0:0:
196,304,115864,1,8,0:0:0:0:
404,292,116035,70,0,L|396:144,1,144,8|0,0:0|0:0,0:0:0:0:
394,118,116293,1,0,0:0:0:0:
392,88,116378,1,8,0:0:0:0:
488,204,116550,1,8,0:0:0:0:
300,152,116721,70,0,L|224:152,1,67.5,12|0,0:0|0:0,0:0:0:0:
152,152,117064,69,6,0:0:0:0:
