osu file format v14

[General]
AudioFilename: audio.mp3
AudioLeadIn: 0
PreviewTime: 57738
Countdown: 0
SampleSet: Soft
StackLeniency: 0.2
Mode: 0
LetterboxInBreaks: 0
WidescreenStoryboard: 0

[Editor]
DistanceSpacing: 0.4
BeatDivisor: 8
GridSize: 4
TimelineZoom: 3.699998

[Metadata]
Title:Avalanche
TitleUnicode:Avalanche
Artist:Memme
ArtistUnicode:Memme
Creator:Kalindraz
Version:Harmonical Catastrophe.
Source:Pump It Up Prime
Tags:Classic Melodia Drumstep antonio vivaldi the four seasons winter
BeatmapID:1451342
BeatmapSetID:542317

[Difficulty]
HPDrainRate:6
CircleSize:4
OverallDifficulty:8.5
ApproachRate:9.5
SliderMultiplier:2.2
SliderTickRate:1

[Events]
//Background and Video events
0,0,"bg.jpg",0,0
//Break Periods
//Storyboard Layer 0 (Background)
//Storyboard Layer 1 (Fail)
//Storyboard Layer 2 (Pass)
//Storyboard Layer 3 (Foreground)
//Storyboard Sound Samples

[TimingPoints]
2893,342.857142857143,4,1,1,70,1,0
10093,-133.333333333333,4,1,1,70,0,0
11121,-100,4,1,1,70,0,0
13864,-100,4,1,2,70,0,0
23807,-83.3333333333333,4,1,2,70,0,0
24150,-71.4285714285714,4,1,2,70,0,0
24493,-62.5,4,1,2,70,0,0
24835,-100,4,1,1,70,0,0
28264,-76.9230769230769,4,1,2,70,0,0
28607,-133.333333333333,4,1,2,70,0,0
28950,-71.4285714285714,4,2,2,70,0,0
31693,-100,4,1,1,70,0,0
35464,-200,4,1,2,70,0,0
35807,-76.9230769230769,4,2,2,70,0,0
37693,-68.9655172413793,4,1,2,70,0,0
38035,-200,4,1,2,70,0,0
38550,-100,4,1,1,70,0,0
42664,-133.333333333333,4,1,1,50,0,0
44035,-133.333333333333,4,1,1,60,0,0
45407,-100,4,2,0,70,0,0
46093,-71.4285714285714,4,2,0,70,0,0
46778,-100,4,2,2,70,0,0
51921,-66.6666666666667,4,2,0,70,0,0
52264,-83.3333333333333,4,2,2,70,0,0
57064,-62.5,4,2,0,70,0,0
57750,-100,4,2,2,70,0,1
60150,-58.8235294117647,4,2,2,70,0,0
60493,-100,4,2,2,70,0,1
62893,-66.6666666666667,4,2,2,70,0,0
63235,-100,4,2,2,70,0,1
65635,-66.6666666666667,4,2,2,70,0,0
65978,-100,4,2,2,70,0,1
67007,-76.9230769230769,4,2,2,70,0,1
67350,-100,4,2,2,70,0,0
82435,-100,4,2,2,70,0,0
85178,-74.0740740740741,4,2,2,70,0,0
87578,-133.333333333333,4,2,2,70,0,0
87921,-100,4,2,2,70,0,0
93064,-66.6666666666667,4,2,2,70,0,0
93407,-83.3333333333333,4,2,2,70,0,0
98893,-83.3333333333333,4,2,2,70,0,1
101550,-83.3333333333333,4,2,2,70,0,0
101635,-83.3333333333333,4,2,2,70,0,1
104293,-83.3333333333333,4,2,2,70,0,0
104378,-83.3333333333333,4,2,2,70,0,1
106778,-166.666666666667,4,2,2,70,0,0
107121,-100,4,2,2,70,0,1
108407,-100,4,2,2,70,0,0
108493,-62.5,4,2,2,70,0,1
109778,-62.5,4,2,2,70,0,0
109864,-58.8235294117647,4,2,2,70,0,1
111150,-62.5,4,2,2,70,0,0
111235,-62.5,4,2,2,70,0,1
112521,-62.5,4,2,2,70,0,0
112607,-62.5,4,2,2,70,0,1
112778,-100,4,2,2,70,0,0
113978,-58.8235294117647,4,2,2,70,0,1
114235,-100,4,2,2,70,0,0
115350,-62.5,4,2,2,70,0,1
116721,-200,4,2,2,70,0,0
117064,-62.5,4,2,2,70,0,1
117150,-62.5,4,2,2,70,0,0

[Colours]
Combo1 : 254,81,22
Combo2 : 102,255,179
Combo3 : 255,128,191
Combo4 : 74,74,74
Combo5 : 192,192,192
Combo6 : 255,0,0

[HitObjects]
96,112,2892,6,0,B|124:212|124:212|116:288,1,165,0|0,2:0|2:0,0:0:0:0:
108,352,3235,1,8,0:0:0:0:
0,224,3407,1,0,0:0:0:0:
220,100,3578,6,0,B|248:200|248:200|240:276,1,165,2|0,0:2|2:0,0:0:0:0:
232,340,3921,1,8,0:0:0:0:
124,212,4093,1,0,0:0:0:0:
344,88,4264,70,0,B|372:188|372:188|364:264,1,165,2|0,0:2|2:0,0:0:0:0:
356,328,4607,1,8,0:0:0:0:
248,200,4779,1,0,0:0:0:0:
468,76,4950,6,0,B|496:176|496:176|488:252,1,165,2|0,0:2|2:0,0:0:0:0:
480,316,5293,1,8,0:0:0:0:
372,188,5465,1,0,0:0:0:0:
391,89,5635,69,2,0:2:0:0:
218,56,5807,2,0,P|185:67|162:84,2,55,0|0|8,0:0|2:0|0:0,0:0:0:0:
277,222,6150,1,0,0:0:0:0:
314,23,6321,5,2,0:2:0:0:
200,156,6493,2,0,P|194:189|196:218,2,55,0|0|8,0:0|2:0|0:0,0:0:0:0:
372,188,6836,1,0,0:0:0:0:
218,56,7007,70,0,L|158:64,1,55,0|2,0:0|2:0,0:0:0:0:
102,144,7178,5,2,0:2:0:0:
102,144,7264,1,0,0:0:0:0:
102,144,7350,1,8,0:0:0:0:
158,319,7521,69,2,0:2:0:0:
158,319,7607,1,0,0:0:0:0:
158,319,7693,1,0,0:0:0:0:
9,210,7864,5,2,0:2:0:0:
9,210,7950,1,0,0:0:0:0:
9,210,8036,1,8,0:0:0:0:
194,210,8207,69,2,0:2:0:0:
194,210,8293,1,0,0:0:0:0:
194,210,8379,1,0,0:0:0:0:
45,319,8550,5,2,0:2:0:0:
68,289,8636,1,0,0:0:0:0:
92,260,8722,1,8,0:0:0:0:
101,143,8893,69,2,0:2:0:0:
100,181,8979,1,0,0:0:0:0:
98,219,9065,1,0,0:0:0:0:
158,319,9235,5,2,0:2:0:0:
137,288,9321,1,0,0:0:0:0:
117,256,9407,1,8,0:0:0:0:
9,210,9578,69,2,0:2:0:0:
45,223,9664,1,0,0:0:0:0:
80,237,9750,1,0,0:0:0:0:
194,210,9921,5,2,0:2:0:0:
157,221,10007,1,0,0:0:0:0:
120,228,10093,70,0,L|60:240,1,41.2500015735627,8|0,0:0|2:0,0:0:0:0:
215,136,10264,2,0,L|234:78,1,41.2500015735627,2|0,0:2|2:0,0:0:0:0:
246,265,10435,2,0,L|286:310,1,41.2500015735627,2|0,0:2|2:0,0:0:0:0:
352,384,10607,5,0,0:0:0:0:
360,360,10693,1,0,0:0:0:0:
368,336,10778,2,0,L|380:292,1,41.2500015735627,2|0,0:2|0:0,0:0:0:0:
512,124,10950,2,0,L|501:163,1,41.2500015735627,2|0,0:2|0:0,0:0:0:0:
480,248,11121,70,0,B|384:212|384:212|324:228,1,165,2|0,1:0|2:0,0:0:0:0:
360,360,11464,2,0,L|376:296,1,55,8|0,0:0|2:0,0:0:0:0:
344,128,11635,2,0,L|288:146,1,55,2|0,0:2|2:0,0:0:0:0:
188,212,11807,6,0,B|92:248|92:248|32:232,1,165,2|0,1:0|2:0,0:0:0:0:
68,100,12150,2,0,L|84:164,1,55,8|0,0:0|2:0,0:0:0:0:
52,332,12321,2,0,L|-3:313,1,55,2|0,0:2|2:0,0:0:0:0:
4,160,12493,69,8,0:0:0:0:
36,128,12578,1,0,0:0:0:0:
68,100,12664,6,0,L|128:96,1,55,2|0,0:2|2:0,0:0:0:0:
356,144,12835,2,0,L|301:147,1,55,0|0,0:0|2:0,0:0:0:0:
224,8,13007,69,0,0:0:0:0:
216,72,13093,1,0,0:0:0:0:
208,136,13178,6,0,L|184:148,6,27.5,10|0|0|0|0|0|0,1:1|0:0|0:0|0:0|0:0|0:0|0:0,0:0:0:0:
301,146,13521,70,0,L|372:143,1,55,2|0,0:0|0:0,0:0:0:0:
476,140,13693,2,0,L|504:104,2,27.5,2|0|0,0:3|0:0|0:0,0:0:0:0:
400,232,13864,6,0,P|392:288|400:344,1,110,4|0,0:0|0:0,0:0:0:0:
316,360,14121,1,0,0:0:0:0:
288,348,14207,2,0,L|224:352,1,55,8|0,0:0|2:0,0:0:0:0:
53,279,14378,2,0,L|108:276,1,55,0|0,0:2|2:0,0:0:0:0:
248,232,14550,70,0,B|256:176|256:176|240:116,1,110,4|0,0:0|0:0,0:0:0:0:
196,44,14807,1,0,0:0:0:0:
176,28,14893,2,0,L|116:40,1,55,8|0,0:0|2:0,0:0:0:0:
56,164,15064,2,0,L|109:153,1,55,0|0,0:2|2:0,0:0:0:0:
242,124,15235,6,0,P|302:116|366:128,1,110,4|0,0:0|0:0,0:0:0:0:
424,184,15493,1,0,0:0:0:0:
440,212,15578,2,0,L|448:268,1,55,8|0,0:0|2:0,0:0:0:0:
348,352,15750,2,0,L|340:297,1,55,0|0,0:2|2:0,0:0:0:0:
253,229,15921,70,0,L|125:237,1,110,4|0,0:0|0:0,0:0:0:0:
36,180,16178,1,0,0:0:0:0:
40,156,16264,2,0,L|52:92,1,55,8|0,0:0|2:0,0:0:0:0:
176,28,16435,2,0,L|165:82,1,55,0|0,0:2|2:0,0:0:0:0:
144,236,16607,5,4,0:0:0:0:
320,352,16778,1,0,0:0:0:0:
328,336,16864,1,0,0:0:0:0:
340,316,16950,1,8,0:0:0:0:
304,140,17121,1,0,0:2:0:0:
192,352,17293,69,4,0:0:0:0:
388,240,17464,1,0,0:0:0:0:
380,223,17550,1,0,0:0:0:0:
371,202,17636,1,8,0:0:0:0:
180,120,17807,1,0,0:2:0:0:
256,292,17978,5,4,0:0:0:0:
144,200,18150,1,0,0:0:0:0:
172,208,18235,1,0,0:0:0:0:
204,204,18321,1,8,0:0:0:0:
416,48,18493,1,0,0:2:0:0:
300,151,18665,69,4,0:0:0:0:
328,143,18750,1,0,0:0:0:0:
360,147,18835,2,0,L|372:211,1,55,0|0,0:0|2:0,0:0:0:0:
232,360,19007,2,0,L|222:306,1,55,8|0,0:0|2:0,0:0:0:0:
404,280,19178,2,0,P|372:284|336:280,1,55,0|0,0:0|2:0,0:0:0:0:
79,191,19350,6,0,P|103:135|157:105,1,110,6|0,0:0|0:0,0:0:0:0:
183,207,19607,1,0,0:0:0:0:
221,305,19693,70,0,P|160:312|107:280,1,110,6|0,0:0|0:0,0:0:0:0:
183,207,19950,1,0,0:0:0:0:
248,124,20035,6,0,P|284:172|283:234,1,110,6|0,0:0|0:0,0:0:0:0:
182,206,20292,1,0,0:0:0:0:
79,191,20378,70,0,P|76:156|96:116,1,55,10|0,0:0|2:0,0:0:0:0:
128,64,20550,2,0,P|164:59|196:71,1,55,2|0,0:0|2:0,0:0:0:0:
287,220,20721,6,0,B|336:247|336:247|406:234,1,110,6|0,0:0|0:0,0:0:0:0:
351,135,20978,1,0,0:0:0:0:
310,38,21064,70,0,B|261:66|261:66|237:134,1,110,6|0,0:0|0:0,0:0:0:0:
351,135,21321,1,0,0:0:0:0:
454,149,21407,6,0,B|453:92|453:92|406:38,1,110,6|0,0:0|0:0,0:0:0:0:
351,135,21663,1,0,0:0:0:0:
287,220,21749,70,0,L|272:284,1,55,10|0,0:0|2:0,0:0:0:0:
136,272,21921,2,0,L|120:212,1,55,2|0,0:0|2:0,0:0:0:0:
80,84,22093,22,0,P|111:73|136:76,1,55,6|0,0:0|0:0,0:0:0:0:
351,135,22264,1,0,0:0:0:0:
304,124,22350,1,0,0:0:0:0:
260,112,22435,6,0,L|192:88,1,55,10|0,0:0|0:0,0:0:0:0:
204,345,22607,1,0,0:0:0:0:
233,320,22693,1,0,0:0:0:0:
261,295,22778,70,0,L|315:248,1,55,6|0,0:0|0:0,0:0:0:0:
87,130,22950,1,0,0:0:0:0:
94,167,23036,1,0,0:0:0:0:
102,204,23121,6,0,L|115:274,1,55,10|0,0:0|2:0,0:0:0:0:
332,136,23293,1,2,0:0:0:0:
360,128,23378,1,0,2:0:0:0:
384,120,23464,54,0,L|396:56,1,55,8|0,0:2|2:0,0:0:0:0:
400,272,23635,2,0,L|412:336,1,55,8|0,0:2|2:0,0:0:0:0:
252,100,23807,70,0,L|264:36,1,65.9999979858399,8|0,0:2|0:0,0:0:0:0:
261,295,23978,2,0,L|273:359,1,65.9999979858399,8|0,0:2|0:0,0:0:0:0:
116,84,24150,70,0,L|130:6,1,76.9999976501466,8|0,0:2|0:0,0:0:0:0:
124,320,24321,2,0,L|128:348,3,25.6666658833822,8|0|0|0,0:2|0:0|0:0|0:0,0:0:0:0:
64,264,24493,70,0,B|108:228|160:240|188:272|188:272|210:267|232:272|232:272|252:256|252:256|284:264|316:256,1,264,12|0,0:0|2:0,0:0:0:0:
412,264,24835,22,0,L|440:280,14,27.5,0|0|0|0|0|0|0|0|0|0|0|0|0|0|0,0:0|0:0|0:0|0:0|0:0|0:0|0:0|0:0|0:0|0:0|0:0|0:0|0:0|0:0|0:0,0:0:0:0:
348,208,25521,5,4,0:0:0:0:
397,197,25607,1,0,0:0:0:0:
437,167,25693,1,0,0:0:0:0:
457,121,25778,1,0,0:0:0:0:
453,71,25864,1,0,0:0:0:0:
428,29,25950,1,0,0:0:0:0:
385,2,26035,1,0,1:0:0:0:
335,0,26121,1,0,0:0:0:0:
284,76,26207,69,8,1:0:0:0:
280,96,26293,1,0,0:0:0:0:
276,116,26378,1,0,0:0:0:0:
272,136,26464,1,0,0:0:0:0:
268,156,26550,1,0,0:0:0:0:
264,176,26635,1,0,0:0:0:0:
260,196,26721,1,0,0:0:0:0:
256,216,26807,1,0,0:0:0:0:
184,272,26893,5,4,0:0:0:0:
135,261,26979,1,0,0:0:0:0:
95,231,27065,1,0,0:0:0:0:
75,185,27150,1,0,0:0:0:0:
79,135,27236,1,0,0:0:0:0:
104,93,27322,1,0,0:0:0:0:
147,66,27407,1,0,0:0:0:0:
197,64,27493,1,0,0:0:0:0:
276,116,27578,21,8,0:0:0:0:
280,136,27664,1,0,0:0:0:0:
284,156,27750,2,0,L|296:216,1,55,0|0,0:0|0:0,0:0:0:0:
492,332,27921,69,12,0:0:0:0:
488,312,28007,1,0,0:0:0:0:
484,292,28093,2,0,L|472:232,1,55,0|0,0:0|0:0,0:0:0:0:
396,28,28264,22,0,L|388:100,1,71.4999967269899,2|0,0:2|2:0,0:0:0:0:
368,292,28435,2,0,L|360:364,1,71.4999967269899,2|0,0:2|2:0,0:0:0:0:
316,196,28607,70,0,B|380:184|380:184|444:212,1,123.750004720688,2|0,2:0|2:0,0:0:0:0:
484,292,28950,6,0,B|368:328|368:256|248:292,1,230.99999295044,2|0,0:0|0:0,0:0:0:0:
128,312,29293,2,0,P|120:288|152:304,1,76.9999976501466,2|0,0:0|0:0,0:0:0:0:
40,324,29464,2,0,B|28:240|96:208|96:208|76:168|96:108,1,230.99999295044,8|0,0:0|0:0,0:0:0:0:
207,27,29807,6,0,P|247:17|295:21,1,76.9999976501466,2|0,0:0|0:0,0:0:0:0:
372,180,29978,2,0,P|331:189|283:185,1,76.9999976501466,2|0,0:0|0:0,0:0:0:0:
224,108,30150,70,0,B|316:109|316:109|358:82|358:82|446:84,1,230.99999295044,8|0,0:0|0:0,0:0:0:0:
448,180,30493,2,0,L|360:179,1,76.9999976501466,2|0,0:0|0:0,0:0:0:0:
284,28,30664,2,0,L|196:27,1,76.9999976501466,2|0,0:0|0:0,0:0:0:0:
40,132,30835,6,0,B|-4:172|20:216|20:216|160:200,1,230.99999295044,8|0,0:0|0:0,0:0:0:0:
326,185,31178,1,8,0:0:0:0:
368,180,31264,1,8,0:0:0:0:
411,176,31350,70,0,B|373:118|373:118|389:298,1,230.99999295044,12|0,0:0|0:0,0:0:0:0:
424,364,31693,22,0,L|456:376,14,27.5,0|0|0|0|0|0|0|0|0|0|0|0|0|0|0,0:0|0:0|0:0|0:0|0:0|0:0|0:0|0:0|0:0|0:0|0:0|0:0|0:0|0:0|0:0,0:0:0:0:
328,272,32378,5,4,0:0:0:0:
280,260,32464,1,0,0:0:0:0:
232,268,32550,1,0,0:0:0:0:
192,296,32635,1,0,0:0:0:0:
148,320,32721,1,0,0:0:0:0:
100,332,32807,1,0,0:0:0:0:
52,324,32893,1,0,1:0:0:0:
12,296,32978,1,0,0:0:0:0:
56,228,33064,69,8,1:0:0:0:
81,241,33150,1,0,0:0:0:0:
111,244,33236,1,0,0:0:0:0:
139,232,33321,1,0,0:0:0:0:
157,208,33407,1,0,0:0:0:0:
162,180,33493,1,0,0:0:0:0:
154,150,33578,1,0,0:0:0:0:
132,130,33664,1,0,0:0:0:0:
104,44,33750,5,4,0:0:0:0:
149,43,33835,1,0,0:0:0:0:
201,75,33921,69,0,0:0:0:0:
247,73,34006,1,0,0:0:0:0:
297,40,34093,5,0,0:0:0:0:
343,38,34178,1,0,0:0:0:0:
395,71,34264,69,0,0:0:0:0:
441,69,34349,1,0,0:0:0:0:
496,32,34435,54,0,L|504:-12,2,27.5,8|0|8,0:0|0:0|0:0,0:0:0:0:
464,144,34607,1,0,0:0:0:0:
466,160,34693,1,0,0:0:0:0:
468,177,34778,6,0,L|478:243,1,55,8|0,0:0|0:0,0:0:0:0:
212,276,34950,1,0,0:0:0:0:
207,237,35035,1,0,0:0:0:0:
200,196,35121,70,0,L|192:140,1,55,4|0,0:0|0:0,0:0:0:0:
372,196,35293,1,4,0:0:0:0:
372,196,35378,1,4,0:0:0:0:
372,196,35464,70,0,P|332:191|278:218,1,82.5,12|0,0:0|2:0,0:0:0:0:
212,276,35807,6,0,B|72:292|72:292|32:260|60:204,1,214.49999018097,2|0,0:0|0:0,0:0:0:0:
94,120,36150,2,0,B|125:114|176:124,1,71.4999967269899,10|0,0:0|0:0,0:0:0:0:
372,196,36321,6,0,P|400:144|300:160,1,214.49999018097,8|0,0:0|0:0,0:0:0:0:
396,280,36664,2,0,P|428:264|460:232,1,71.4999967269899,2|0,0:0|0:0,0:0:0:0:
369,17,36835,2,0,P|334:14|300:24,1,71.4999967269899,2|0,0:0|0:0,0:0:0:0:
299,149,37007,70,0,B|188:164|188:164|95:121,1,214.49999018097,8|0,0:0|0:0,0:0:0:0:
112,16,37350,2,0,P|152:20|192:48,1,71.4999967269899,2|0,0:0|0:0,0:0:0:0:
312,244,37521,2,0,L|236:256,1,71.4999967269899,10|0,0:0|0:0,0:0:0:0:
94,120,37693,6,0,B|78:88|126:56|190:88|138:160|78:192|142:280,1,239.250007301331,8|0,0:0|0:0,0:0:0:0:
28,236,38035,54,0,B|32:180|32:180|-4:144|12:92,1,137.5,4|0,0:0|0:0,0:0:0:0:
104,48,38550,38,0,L|96:8,14,27.5,0|0|0|0|0|0|0|0|0|0|0|0|0|0|0,0:0|0:0|0:0|0:0|0:0|0:0|0:0|0:0|0:0|0:0|0:0|0:0|0:0|0:0|0:0,0:0:0:0:
184,0,39235,5,4,0:0:0:0:
207,43,39321,1,0,0:0:0:0:
205,94,39406,1,0,0:0:0:0:
182,136,39492,1,0,0:0:0:0:
141,165,39578,1,0,0:0:0:0:
90,170,39663,1,0,0:0:0:0:
45,150,39749,1,0,1:0:0:0:
11,115,39835,1,0,0:0:0:0:
112,68,39921,69,8,1:0:0:0:
116,88,40007,1,0,0:0:0:0:
120,108,40093,1,0,0:0:0:0:
124,128,40178,1,0,0:0:0:0:
128,148,40264,1,0,0:0:0:0:
132,168,40350,1,0,0:0:0:0:
136,188,40435,1,0,0:0:0:0:
140,208,40521,1,0,0:0:0:0:
120,292,40607,5,4,0:0:0:0:
165,293,40692,1,0,0:0:0:0:
217,261,40778,69,0,0:0:0:0:
263,263,40863,1,0,0:0:0:0:
313,296,40950,5,0,0:0:0:0:
359,298,41035,1,0,0:0:0:0:
411,265,41121,69,0,0:0:0:0:
457,267,41206,1,0,0:0:0:0:
504,304,41293,6,0,L|508:268,6,27.5,2|0|0|0|0|0|0,0:0|0:0|0:0|0:0|0:0|0:0|0:0,0:0:0:0:
359,298,41635,2,0,L|355:334,6,27.5,2|0|0|0|0|0|0,0:0|0:0|0:0|0:0|0:0|0:0|0:0,0:0:0:0:
217,261,41978,5,6,0:0:0:0:
197,257,42064,1,0,0:0:0:0:
177,253,42150,1,0,0:0:0:0:
157,249,42235,1,0,0:0:0:0:
116,216,42321,5,2,0:0:0:0:
96,212,42407,1,0,0:0:0:0:
76,208,42493,1,0,0:0:0:0:
56,204,42578,1,0,0:0:0:0:
12,168,42664,69,2,0:2:0:0:
12,168,42835,1,0,0:0:0:0:
80,64,43007,5,2,0:2:0:0:
80,64,43178,1,0,0:0:0:0:
144,180,43350,69,2,0:2:0:0:
144,180,43521,1,0,0:0:0:0:
212,76,43693,5,2,0:2:0:0:
212,76,43864,1,0,0:0:0:0:
496,144,44035,37,2,0:2:0:0:
464,20,44207,1,0,0:0:0:0:
400,176,44378,5,2,0:2:0:0:
310,84,44550,1,0,0:0:0:0:
336,256,44721,69,2,0:2:0:0:
212,221,44893,1,0,0:0:0:0:
320,352,45064,5,2,0:2:0:0:
195,383,45236,1,0,0:0:0:0:
256,304,45407,54,0,L|256:228,1,55
363,149,45578,1,0,0:0:0:0:
359,129,45664,1,0,0:0:0:0:
355,109,45750,70,0,L|343:45,1,55,2|0,0:0|0:0,0:0:0:0:
168,56,45921,2,0,L|157:110,1,55,2|0,0:0|0:0,0:0:0:0:
347,277,46093,6,0,P|387:277|419:261,1,76.9999976501466,2|0,0:0|0:0,0:0:0:0:
160,280,46264,2,0,P|120:280|88:264,1,76.9999976501466
254,81,46435,70,0,B|246:129|266:169|266:169|250:213|250:213|274:257|254:309,1,230.99999295044,2|0,0:1|2:0,0:0:0:0:
156,372,46778,21,2,0:0:0:0:
108,364,46864,1,0,0:0:0:0:
76,328,46950,1,0,0:0:0:0:
68,280,47035,1,0,0:0:0:0:
84,232,47121,1,2,0:0:0:0:
120,200,47207,1,0,0:0:0:0:
168,192,47293,1,0,0:0:0:0:
216,208,47378,1,0,0:0:0:0:
260,228,47464,6,0,P|292:232|320:224,1,55,2|0,0:0|0:0,0:0:0:0:
313,109,47635,2,0,P|287:103|260:108,1,55,0|0,0:0|0:0,0:0:0:0:
360,292,47807,2,0,P|380:268|388:240,1,55,2|0,0:0|0:0,0:0:0:0:
387,90,47978,2,0,P|378:64|360:44,1,55,0|0,0:0|0:0,0:0:0:0:
128,32,48150,69,2,0:0:0:0:
80,36,48235,1,0,0:0:0:0:
40,68,48321,1,0,0:0:0:0:
32,116,48407,1,0,0:0:0:0:
52,160,48493,1,2,0:0:0:0:
96,176,48578,1,0,0:0:0:0:
144,168,48664,1,0,0:0:0:0:
192,184,48750,1,0,0:0:0:0:
204,232,48835,6,0,P|204:260|200:288,1,55,2|0,0:0|0:0,0:0:0:0:
311,286,49007,2,0,P|307:259|308:232,1,55,0|0,0:0|0:0,0:0:0:0:
129,315,49178,2,0,P|118:340|120:368,1,55,2|0,0:0|0:0,0:0:0:0:
391,368,49350,2,0,P|393:340|382:315,1,55,0|0,0:0|0:0,0:0:0:0:
361,168,49521,70,0,L|429:156,1,55,2|0,0:0|0:0,0:0:0:0:
495,158,49693,2,0,L|440:167,1,55,0|0,0:0|0:0,0:0:0:0:
345,160,49864,2,0,L|413:148,1,55,2|0,0:0|0:0,0:0:0:0:
479,150,50036,2,0,L|424:159,1,55,0|0,0:0|0:0,0:0:0:0:
293,72,50207,6,0,P|277:96|269:123,1,55,2|0,0:0|0:0,0:0:0:0:
293,248,50378,2,0,P|277:223|269:196,1,55,0|0,0:0|0:0,0:0:0:0:
217,32,50550,2,0,P|189:24|161:20,1,55,2|0,0:0|0:0,0:0:0:0:
217,288,50721,2,0,P|189:296|161:300,1,55
16,248,50893,70,0,L|8:193,1,55,2|0,0:0|0:0,0:0:0:0:
16,128,51064,2,0,L|24:184,1,55,0|0,0:0|0:0,0:0:0:0:
40,248,51235,2,0,L|32:193,1,55,2|0,0:0|0:0,0:0:0:0:
40,128,51407,2,0,L|48:184,1,55
164,300,51578,70,0,P|152:271|147:245,1,55,2|0,0:0|0:0,0:0:0:0:
348,84,51750,1,0,1:0:0:0:
360,137,51835,1,0,1:0:0:0:
373,192,51921,70,0,B|256:240|256:144|134:192,1,247.500009441376,4|0,0:0|2:0,0:0:0:0:
32,304,52264,22,0,P|65:308|97:301,1,65.9999979858399,6|0,0:0|0:0,0:0:0:0:
96,87,52435,2,0,P|64:79|24:87,1,65.9999979858399,2|0,0:0|0:0,0:0:0:0:
17,193,52607,5,2,0:0:0:0:
33,193,52693,1,0,0:0:0:0:
49,193,52778,2,0,L|125:193,1,65.9999979858399,2|0,0:0|1:0,0:0:0:0:
180,340,52950,70,0,P|193:310|195:277,1,65.9999979858399,2|0,0:0|0:0,0:0:0:0:
179,35,53121,2,0,P|193:65|195:98,1,65.9999979858399,2|0,0:0|0:0,0:0:0:0:
115,193,53293,5,2,0:0:0:0:
131,193,53379,1,0,0:0:0:0:
147,193,53464,2,0,L|223:193,1,65.9999979858399,2|0,0:0|1:0,0:0:0:0:
332,340,53635,70,0,P|319:310|317:277,1,65.9999979858399,2|0,0:0|0:0,0:0:0:0:
333,35,53807,2,0,P|319:65|317:98,1,65.9999979858399,2|0,0:0|0:0,0:0:0:0:
397,193,53978,5,2,0:0:0:0:
381,193,54065,1,0,0:0:0:0:
365,193,54150,2,0,L|289:193,1,65.9999979858399,2|0,0:0|1:0,0:0:0:0:
480,304,54321,70,0,P|447:308|415:301,1,65.9999979858399,2|0,0:0|0:0,0:0:0:0:
416,87,54492,2,0,P|448:79|488:87,1,65.9999979858399,2|0,0:0|0:0,0:0:0:0:
495,193,54664,5,2,0:0:0:0:
479,193,54750,1,0,0:0:0:0:
463,193,54835,2,0,L|387:193,1,65.9999979858399,2|0,0:0|1:0,0:0:0:0:
312,46,55007,38,0,P|297:84|301:117,1,65.9999979858399,6|0,0:0|0:0,0:0:0:0:
315,343,55178,2,0,P|328:303|324:270,1,65.9999979858399,2|0,0:0|0:0,0:0:0:0:
416,87,55350,2,0,P|378:104|358:130,1,65.9999979858399,2|0,0:0|0:0,0:0:0:0:
209,302,55521,2,0,P|245:283|265:257,1,65.9999979858399,2|0,0:0|0:0,0:0:0:0:
462,192,55693,2,0,P|422:177|389:181,1,65.9999979858399,2|0,0:0|0:0,0:0:0:0:
163,196,55864,2,0,P|201:209|234:205,1,65.9999979858399,2|0,0:0|0:0,0:0:0:0:
419,297,56035,2,0,P|400:259|374:239,1,65.9999979858399,2|0,0:0|0:0,0:0:0:0:
206,92,56207,1,2,0:0:0:0:
206,92,56293,1,0,0:0:0:0:
206,92,56378,6,0,P|224:129|250:149,1,65.9999979858399,2|0,0:0|0:0,0:0:0:0:
376,344,56550,2,0,L|385:386,10,32.99999899292,2|2|2|2|2|2|2|2|2|2|2,0:1|0:1|0:1|0:1|0:1|0:1|0:1|0:1|0:1|0:1|0:1,0:0:0:0:
294,289,57064,70,0,P|250:288|208:300,1,88,4|0,0:0|0:0,0:0:0:0:
148,144,57235,2,0,P|160:192|156:240,1,88,4|0,0:0|0:0,0:0:0:0:
364,240,57407,2,0,P|352:192|356:144,1,88,4|0,0:0|0:0,0:0:0:0:
217,94,57578,2,0,P|261:95|304:84,1,88,4|0,0:0|0:0,0:0:0:0:
400,40,57750,21,6,0:0:0:0:
460,164,57921,1,0,0:0:0:0:
304,84,58093,1,0,0:0:0:0:
504,72,58264,1,0,0:0:0:0:
284,192,58435,2,0,P|276:244|288:304,1,110,8|0,0:0|0:0,0:0:0:0:
496,360,58778,2,0,P|504:308|492:248,1,110
460,164,59121,22,0,L|416:124,1,55,2|0,0:0|0:0,0:0:0:0:
272,40,59293,1,0,3:0:0:0:
268,41,59378,1,0,3:0:0:0:
264,42,59464,1,0,3:0:0:0:
260,43,59550,1,0,3:0:0:0:
256,44,59635,1,2,0:0:0:0:
252,46,59721,1,0,3:0:0:0:
249,47,59807,6,0,L|176:70,1,55,8|0,0:0|0:0,0:0:0:0:
36,128,59978,2,0,L|-4:144,2,36.6666666666667,2|2|2,0:0|0:0|0:0,0:0:0:0:
80,40,60150,6,0,B|68:24|68:24|128:4|128:4|112:88|112:88|132:120|132:120|124:200,1,280.500005350113,12|0,0:0|0:0,0:0:0:0:
120,280,60493,21,2,0:0:0:0:
252,356,60664,1,0,0:0:0:0:
252,156,60835,1,0,0:0:0:0:
152,372,61007,1,0,0:0:0:0:
424,300,61178,5,8,0:0:0:0:
228,256,61350,1,0,0:0:0:0:
476,168,61521,1,0,0:0:0:0:
252,156,61693,1,0,0:0:0:0:
352,40,61864,70,0,L|360:104,1,55,2|0,0:0|0:0,0:0:0:0:
352,220,62035,5,2,3:0:0:0:
356,252,62121,1,2,3:0:0:0:
320,252,62207,69,2,3:0:0:0:
318,284,62293,1,2,3:0:0:0:
284,276,62378,5,2,3:0:0:0:
276,307,62464,1,2,3:0:0:0:
240,284,62550,22,0,B|176:284|176:284|144:304|144:304|68:304,1,165,8|0,0:0|0:0,0:0:0:0:
36,212,62893,6,0,L|136:212,1,82.5000031471254,2|0,0:1|0:0,0:0:0:0:
208,372,63064,2,0,L|308:372,1,82.5000031471254,2|0,0:1|0:0,0:0:0:0:
344,128,63235,21,2,0:0:0:0:
428,280,63407,1,0,0:0:0:0:
508,144,63578,1,0,0:0:0:0:
260,276,63750,1,0,0:0:0:0:
332,0,63921,5,8,0:0:0:0:
504,232,64093,1,0,0:0:0:0:
236,176,64264,1,0,0:0:0:0:
464,48,64435,1,0,0:0:0:0:
344,192,64607,6,0,L|348:248,2,36.6666666666667,2|0|0,0:0|0:0|0:0,0:0:0:0:
316,74,64778,1,0,0:0:0:0:
316,74,64864,1,0,0:0:0:0:
316,74,64950,5,0,0:0:0:0:
255,86,65035,1,0,0:0:0:0:
192,99,65121,1,0,0:0:0:0:
128,112,65207,1,0,0:0:0:0:
136,28,65293,6,0,P|136:4|140:-4,1,27.5,8|0,0:0|0:0,0:0:0:0:
80,32,65379,2,0,P|63:15|60:6,1,27.5
44,76,65465,2,0,P|20:76|12:72,1,27.5
36,132,65550,2,0,P|19:148|10:151,1,27.5
64,180,65635,6,0,P|64:210|58:220,6,41.2500015735627,8|0|0|0|0|0|0,0:0|0:0|0:0|0:0|0:0|0:0|0:0,0:0:0:0:
128,112,65978,22,0,L|196:108,1,55,8|0,0:0|0:0,0:0:0:0:
384,272,66150,2,0,L|316:276,1,55
348,76,66321,54,0,P|348:112|340:136,1,55,10|0,0:0|0:0,0:0:0:0:
164,308,66493,1,0,0:0:0:0:
164,308,66578,1,0,0:0:0:0:
164,308,66664,70,0,P|164:272|172:248,1,55,2|0,0:0|0:0,0:0:0:0:
348,76,66835,1,8,0:0:0:0:
348,76,66921,1,8,0:0:0:0:
348,76,67007,54,0,B|354:107|341:131|341:131|308:112|308:112|276:112|248:128|248:128|220:112|180:112,1,214.49999018097,10|0,0:1|0:0,2:0:0:0:
100,176,67350,53,2,0:0:0:0:
44,172,67435,1,0,0:0:0:0:
8,128,67521,1,0,0:0:0:0:
0,72,67607,1,0,0:0:0:0:
28,24,67693,2,0,L|92:12,1,55,12|0,0:1|0:0,0:0:0:0:
193,112,67864,2,0,L|257:100,1,55
412,208,68035,5,2,0:0:0:0:
468,212,68120,1,0,0:0:0:0:
504,256,68206,1,0,0:0:0:0:
512,312,68292,1,0,0:0:0:0:
484,360,68378,2,0,L|420:372,1,55,12|0,0:1|0:0,0:0:0:0:
319,272,68549,2,0,L|255:284,1,55
104,344,68721,69,2,0:0:0:0:
52,332,68807,1,0,0:0:0:0:
0,316,68893,1,0,0:0:0:0:
52,300,68978,1,0,0:0:0:0:
104,284,69064,2,0,L|180:276,1,55,12|0,0:1|0:0,0:0:0:0:
244,208,69235,2,0,L|298:202,1,55
408,144,69407,5,2,0:0:0:0:
460,132,69493,1,0,0:0:0:0:
512,116,69579,1,0,0:0:0:0:
460,100,69664,1,0,0:0:0:0:
408,84,69750,2,0,L|332:76,1,55,12|0,0:1|0:0,0:0:0:0:
268,8,69921,2,0,L|213:2,1,55
68,16,70093,70,0,L|80:184,1,165,2|0,0:0|2:0,0:0:0:0:
160,220,70435,2,0,L|164:276,1,55,12|0,0:1|0:0,0:0:0:0:
296,332,70607,5,0,0:0:0:0:
296,332,70693,1,0,0:0:0:0:
296,332,70778,69,2,0:0:0:0:
340,300,70864,1,0,0:0:0:0:
396,296,70950,1,0,0:0:0:0:
448,316,71035,1,0,0:0:0:0:
480,360,71121,5,12,0:1:0:0:
448,316,71207,1,0,0:0:0:0:
444,260,71293,1,0,0:0:0:0:
464,208,71378,1,0,0:0:0:0:
508,176,71464,69,2,0:0:0:0:
464,208,71550,1,0,0:0:0:0:
408,212,71636,1,0,0:0:0:0:
356,192,71721,1,0,0:0:0:0:
324,148,71807,5,12,0:1:0:0:
356,192,71893,1,0,0:0:0:0:
360,248,71979,1,0,0:0:0:0:
340,300,72064,1,0,0:0:0:0:
296,332,72150,69,2,0:0:0:0:
240,324,72235,1,0,0:0:0:0:
184,316,72321,2,0,L|168:240,1,55,0|0,0:0|0:0,0:0:0:0:
128,16,72493,5,12,0:1:0:0:
184,24,72578,1,0,0:0:0:0:
240,32,72664,2,0,L|256:108,1,55,0|0,0:0|0:0,0:0:0:0:
255,243,72835,69,2,0:0:0:0:
266,292,72921,1,0,0:0:0:0:
296,332,73007,1,0,0:0:0:0:
342,352,73092,1,0,0:0:0:0:
392,348,73178,1,12,0:1:0:0:
434,323,73264,1,0,0:0:0:0:
461,280,73350,2,0,L|460:208,1,55,0|0,0:0|0:0,0:0:0:0:
256,112,73521,5,2,0:0:0:0:
245,63,73607,1,0,0:0:0:0:
215,23,73693,1,0,0:0:0:0:
169,3,73778,1,0,0:0:0:0:
119,7,73864,1,12,0:1:0:0:
77,32,73950,1,0,0:0:0:0:
50,75,74036,2,0,L|51:147,1,55,0|0,0:0|0:0,0:0:0:0:
140,320,74207,70,0,B|164:360|164:360|156:240,1,165,2|0,0:0|0:0,0:0:0:0:
152,156,74550,2,0,L|148:96,1,55,12|0,0:1|0:0,0:0:0:0:
215,23,74721,5,0,0:0:0:0:
215,23,74807,1,0,0:0:0:0:
215,23,74892,69,2,0:0:0:0:
260,22,74978,1,0,0:0:0:0:
301,47,75064,1,0,0:0:0:0:
327,87,75149,1,0,0:0:0:0:
393,131,75234,5,12,0:1:0:0:
394,177,75320,1,0,0:0:0:0:
368,218,75406,1,0,0:0:0:0:
328,244,75493,1,0,0:0:0:0:
284,310,75578,69,2,0:0:0:0:
238,311,75664,1,0,0:0:0:0:
197,285,75750,1,0,0:0:0:0:
172,245,75835,1,0,0:0:0:0:
106,201,75921,5,12,0:1:0:0:
105,155,76007,1,0,0:0:0:0:
130,114,76093,1,0,0:0:0:0:
170,89,76178,1,0,0:0:0:0:
215,23,76264,69,2,0:0:0:0:
268,36,76350,1,0,0:0:0:0:
320,48,76435,2,0,L|376:60,1,55,0|0,0:0|0:0,0:0:0:0:
501,278,76607,5,12,0:1:0:0:
448,265,76693,1,0,0:0:0:0:
396,253,76778,2,0,L|340:241,1,55,0|0,0:0|0:0,0:0:0:0:
56,176,76950,69,2,0:0:0:0:
3,160,77035,1,0,0:0:0:0:
12,216,77121,1,0,0:0:0:0:
21,272,77207,1,0,0:0:0:0:
30,328,77293,1,12,0:1:0:0:
76,296,77378,1,0,0:0:0:0:
120,264,77464,2,0,L|176:220,1,55,0|0,0:0|0:0,0:0:0:0:
392,56,77635,5,2,0:0:0:0:
434,20,77720,1,0,0:0:0:0:
447,74,77806,1,0,0:0:0:0:
459,130,77892,1,0,0:0:0:0:
472,186,77978,1,12,0:1:0:0:
416,173,78063,1,0,0:0:0:0:
365,161,78149,2,0,L|296:141,1,55,0|0,0:0|0:0,0:0:0:0:
48,56,78321,70,0,B|84:28|84:28|72:148,1,165,2|0,0:0|0:0,0:0:0:0:
123,209,78664,2,0,L|119:269,1,55,8|0,0:1|0:0,0:0:0:0:
256,320,78835,5,0,0:0:0:0:
256,320,78921,1,0,0:0:0:0:
256,320,79007,69,2,0:0:0:0:
298,343,79093,1,0,0:0:0:0:
341,367,79178,1,0,0:0:0:0:
318,322,79264,1,0,0:0:0:0:
332,244,79350,5,12,0:1:0:0:
355,202,79436,1,0,0:0:0:0:
379,159,79521,1,0,0:0:0:0:
334,182,79607,1,0,0:0:0:0:
256,168,79693,69,2,0:0:0:0:
214,145,79779,1,0,0:0:0:0:
171,121,79864,1,0,0:0:0:0:
194,166,79950,1,0,0:0:0:0:
180,244,80036,5,12,0:1:0:0:
157,286,80122,1,0,0:0:0:0:
133,329,80207,1,0,0:0:0:0:
178,306,80293,1,0,0:0:0:0:
256,320,80378,69,2,0:0:0:0:
312,308,80464,1,0,0:0:0:0:
368,296,80550,2,0,L|440:284,1,55,0|0,0:0|0:0,0:0:0:0:
508,169,80721,5,12,0:1:0:0:
452,181,80807,1,0,0:0:0:0:
396,193,80893,2,0,L|324:205,1,55,0|0,0:0|0:0,0:0:0:0:
108,240,81064,69,2,0:0:0:0:
54,250,81150,1,0,0:0:0:0:
1,260,81235,1,0,0:0:0:0:
56,272,81321,1,0,0:0:0:0:
108,288,81407,2,0,L|172:276,1,55,12|0,0:1|0:0,0:0:0:0:
404,240,81578,5,0,0:0:0:0:
404,240,81664,1,0,0:0:0:0:
404,240,81750,69,2,0:0:0:0:
458,250,81836,1,0,0:0:0:0:
511,260,81921,1,0,0:0:0:0:
456,272,82007,1,0,0:0:0:0:
404,288,82093,6,0,L|340:276,1,55,12|0,0:1|0:0,0:0:0:0:
256,121,82264,2,0,L|256:205,1,55,12|0,0:1|0:0,0:0:0:0:
256,368,82435,54,0,L|256:252,1,110,14|0,0:0|0:0,0:0:0:0:
256,176,82693,1,0,0:0:0:0:
336,144,82778,2,0,L|344:84,1,55,2|0,0:0|0:0,0:0:0:0:
169,89,82950,2,0,L|177:149,1,55,2|0,0:0|0:0,0:0:0:0:
360,228,83121,70,0,B|416:204|420:144|420:144|428:72,1,165,8|0,0:0|0:0,0:0:0:0:
85,88,83464,2,0,B|92:144|92:144|96:204|152:228,1,165
256,180,83807,6,0,L|256:64,1,110,14|0,0:0|0:0,0:0:0:0:
256,274,84064,1,0,0:0:0:0:
169,334,84150,2,0,L|113:354,1,55,2|0,0:0|0:0,0:0:0:0:
343,334,84321,2,0,L|399:354,1,55,2|0,0:0|0:0,0:0:0:0:
492,248,84493,70,0,B|384:208|384:208|324:225,1,165,8|0,0:0|0:0,0:0:0:0:
20,248,84835,2,0,B|128:208|128:208|188:225,1,165
343,334,85178,6,0,P|351:298|339:246,1,74.2500002832413,6|0,0:0|0:0,0:0:0:0:
256,20,85350,1,6,0:0:0:0:
256,20,85435,1,0,0:0:0:0:
168,50,85521,2,0,P|256:109|343:50,1,222.750000849724,14|0,0:0|0:0,0:0:0:0:
169,50,85864,70,0,P|161:86|173:138,1,74.2500002832413,6|0,0:0|0:0,0:0:0:0:
256,364,86036,1,6,0:0:0:0:
256,364,86121,1,0,0:0:0:0:
343,334,86207,2,0,P|258:275|168:336,1,222.750000849724,14|0,0:0|0:0,0:0:0:0:
109,281,86550,6,0,P|131:251|160:228,1,74.2500002832413,2|0,0:0|0:0,0:0:0:0:
402,281,86721,2,0,P|380:251|352:228,1,74.2500002832413,2|0,0:0|0:0,0:0:0:0:
56,164,86893,2,0,P|112:148|136:148,1,74.2500002832413,2|0,0:0|0:0,0:0:0:0:
456,164,87064,2,0,P|400:148|376:148,1,74.2500002832413,2|0,0:0|0:0,0:0:0:0:
256,28,87235,53,2,0:0:0:0:
256,28,87321,1,2,0:0:0:0:
256,28,87407,1,2,0:0:0:0:
256,28,87493,1,2,0:0:0:0:
316,112,87578,70,0,B|256:127|256:127|189:111,1,123.750004720688,2|2,0:0|0:0,0:0:0:0:
107,78,87921,54,0,L|99:14,3,55,2|0|0|0,0:0|0:0|0:0|0:0,0:0:0:0:
197,196,88264,2,0,L|204:251,3,55,2|0|0|0,0:0|0:0|0:0|0:0,0:0:0:0:
320,132,88607,5,2,0:0:0:0:
364,112,88693,1,0,0:0:0:0:
412,112,88778,1,0,0:0:0:0:
456,132,88864,1,0,0:0:0:0:
456,224,88950,69,2,0:0:0:0:
412,244,89036,1,0,0:0:0:0:
364,244,89121,1,0,0:0:0:0:
320,224,89207,1,0,0:0:0:0:
249,178,89293,6,0,L|179:202,3,55,2|0|0|0,0:0|0:0|0:0|0:0,0:0:0:0:
232,333,89635,2,0,L|284:315,3,55,2|0|0|0,0:0|0:0|0:0|0:0,0:0:0:0:
142,348,89978,69,2,0:0:0:0:
97,325,90064,1,0,0:0:0:0:
76,283,90150,1,0,0:0:0:0:
87,235,90235,1,0,0:0:0:0:
128,154,90321,5,2,0:0:0:0:
145,109,90407,1,0,0:0:0:0:
131,63,90493,1,0,0:0:0:0:
90,37,90578,1,0,0:0:0:0:
2,44,90664,70,0,B|11:71|11:71|37:97,1,55,2|0,0:0|0:0,0:0:0:0:
112,199,90835,2,0,B|102:171|102:171|76:145,1,55
2,44,91007,2,0,B|11:71|11:71|37:97,1,55,2|0,0:0|0:0,0:0:0:0:
112,199,91178,2,0,B|102:171|102:171|76:145,1,55,0|0,0:0|0:0,0:0:0:0:
163,106,91350,6,0,P|178:127|188:154,1,55,2|0,0:0|0:0,0:0:0:0:
50,259,91521,2,0,P|27:243|11:222,1,55,0|0,0:0|0:0,0:0:0:0:
240,211,91693,2,0,B|255:201|255:201|282:177,1,55,2|0,0:0|0:0,0:0:0:0:
90,323,91864,2,0,B|76:336|76:336|45:355,1,55,0|0,0:0|0:0,0:0:0:0:
333,335,92035,70,0,P|337:306|329:274,1,55,2|0,0:0|0:0,0:0:0:0:
180,281,92207,2,0,P|174:307|179:335,1,55
333,335,92378,2,0,P|337:306|329:274,1,55,2|0,0:0|0:0,0:0:0:0:
180,281,92550,2,0,P|174:307|179:335,1,55
386,194,92721,70,0,P|354:190|326:174,1,55,2|0,0:0|0:0,0:0:0:0:
129,82,92893,1,0,0:0:0:0:
181,67,92978,1,0,0:0:0:0:
256,4,93064,70,0,B|304:121|208:121|256:242,1,247.500009441376,12|0,0:0|2:0,0:0:0:0:
371,376,93407,22,0,P|375:343|368:312,1,65.9999979858399,6|0,0:0|0:0,0:0:0:0:
143,312,93578,2,0,P|135:344|140:377,1,65.9999979858399,2|0,0:0|0:0,0:0:0:0:
256,384,93750,5,2,0:0:0:0:
256,370,93836,1,0,0:0:0:0:
256,356,93921,2,0,L|256:289,1,65.9999979858399,2|0,0:0|1:0,0:0:0:0:
392,232,94093,70,0,P|424:251|441:274,1,65.9999979858399,2|0,0:0|0:0,0:0:0:0:
71,273,94264,2,0,P|91:247|119:231,1,65.9999979858399,2|0,0:0|0:0,0:0:0:0:
256,298,94435,5,2,0:0:0:0:
256,284,94521,1,0,0:0:0:0:
256,270,94607,2,0,L|256:203,1,65.9999979858399,2|0,0:0|1:0,0:0:0:0:
120,152,94779,70,0,P|88:133|71:110,1,65.9999979858399,6|0,0:0|0:0,0:0:0:0:
441,111,94950,2,0,P|421:137|393:153,1,65.9999979858399,2|0,0:0|0:0,0:0:0:0:
256,86,95121,5,2,0:0:0:0:
256,100,95207,1,0,0:0:0:0:
256,114,95293,2,0,L|256:181,1,65.9999979858399,2|0,0:0|1:0,0:0:0:0:
371,7,95464,70,0,P|375:40|368:72,1,65.9999979858399,2|0,0:0|0:0,0:0:0:0:
143,71,95635,2,0,P|135:39|140:7,1,65.9999979858399,2|0,0:0|0:0,0:0:0:0:
256,0,95807,5,2,0:0:0:0:
256,14,95893,1,0,0:0:0:0:
256,28,95978,2,0,L|256:95,1,65.9999979858399,2|0,0:0|1:0,0:0:0:0:
135,244,96150,21,2,0:0:0:0:
128,284,96235,1,0,0:0:0:0:
131,324,96321,1,2,0:0:0:0:
155,356,96407,1,0,0:0:0:0:
191,376,96493,53,2,0:0:0:0:
243,372,96578,1,0,0:0:0:0:
287,344,96664,1,2,0:0:0:0:
299,292,96750,1,0,0:0:0:0:
283,244,96835,69,2,0:0:0:0:
251,188,96921,1,0,0:0:0:0:
255,120,97007,1,2,0:0:0:0:
291,64,97093,1,0,0:0:0:0:
355,44,97178,69,2,0:0:0:0:
424,66,97264,1,0,0:0:0:0:
466,125,97349,1,2,0:0:0:0:
466,197,97435,1,0,0:0:0:0:
424,256,97521,53,12,3:0:0:0:
424,256,98378,6,0,L|464:250,2,32.99999899292,0|0|0,0:0|0:0|0:0,0:0:0:0:
359,328,98550,2,0,P|296:353|297:245,1,197.99999395752,8|0,0:0|0:0,0:0:0:0:
368,184,98893,5,2,0:0:0:0:
148,148,99064,1,0,0:0:0:0:
424,256,99235,69,8,0:0:0:0:
184,64,99407,1,0,0:0:0:0:
188,320,99578,5,2,0:0:0:0:
348,96,99750,1,2,0:0:0:0:
152,236,99921,69,8,0:0:0:0:
356,8,100093,1,0,0:0:0:0:
468,176,100264,6,0,P|492:200|509:239,1,65.9999979858399,2|0,0:0|0:0,0:0:0:0:
431,353,100436,1,2,3:0:0:0:
374,343,100521,1,2,3:0:0:0:
335,300,100607,1,10,0:0:0:0:
306,251,100693,1,2,3:0:0:0:
254,227,100779,1,2,3:0:0:0:
197,237,100864,1,2,3:0:0:0:
158,280,100950,70,0,L|144:352,1,65.9999979858399,2|0,0:0|0:0,0:0:0:0:
28,204,101121,2,0,L|43:138,1,65.9999979858399
319,186,101293,2,0,L|304:259,1,65.9999979858399,8|0,0:0|0:0,0:0:0:0:
184,104,101464,2,0,L|196:40,1,65.9999979858399
385,48,101635,5,2,0:0:0:0:
249,322,101807,1,0,0:0:0:0:
268,43,101978,69,8,0:0:0:0:
368,328,102150,1,0,0:0:0:0:
136,118,102321,5,2,0:0:0:0:
492,248,102493,1,2,0:0:0:0:
132,227,102664,69,8,0:0:0:0:
496,139,102835,1,0,0:0:0:0:
319,186,103007,70,0,L|344:263,1,65.9999979858399,2|0,0:0|0:0,0:0:0:0:
376,352,103178,1,2,3:0:0:0:
371,346,103264,1,2,3:0:0:0:
366,339,103350,1,8,0:0:0:0:
361,333,103435,1,2,3:0:0:0:
356,327,103521,1,2,3:0:0:0:
351,320,103607,1,2,3:0:0:0:
347,314,103693,6,0,L|339:246,1,65.9999979858399,2|0,0:0|0:0,0:0:0:0:
108,170,103864,2,0,L|116:236,1,65.9999979858399,0|0,0:0|0:0,0:0:0:0:
386,191,104035,2,0,L|378:123,1,65.9999979858399,8|0,0:0|0:0,0:0:0:0:
147,47,104207,2,0,L|154:112,1,65.9999979858399,0|0,0:0|0:0,0:0:0:0:
184,336,104378,5,2,0:0:0:0:
316,100,104550,1,0,0:0:0:0:
136,252,104721,69,8,0:0:0:0:
360,196,104893,1,0,0:0:0:0:
92,164,105064,5,2,0:0:0:0:
404,288,105235,1,2,0:0:0:0:
52,312,105407,69,8,0:0:0:0:
448,148,105578,1,0,0:0:0:0:
72,100,105750,6,0,L|92:170,1,65.9999979858399,2|0,0:0|0:0,0:0:0:0:
144,344,105921,69,2,0:0:0:0:
210,339,106007,1,0,0:0:0:0:
257,293,106093,1,0,0:0:0:0:
180,19,106264,5,2,0:0:0:0:
151,78,106350,1,0,0:0:0:0:
168,142,106436,1,2,0:0:0:0:
443,212,106607,69,2,0:0:0:0:
406,158,106693,1,0,0:0:0:0:
342,140,106778,70,0,L|232:156,1,98.9999969787599,0|0,0:0|0:0,0:0:0:0:
164,190,107121,37,2,0:0:0:0:
164,190,107207,1,0,0:0:0:0:
164,190,107293,2,0,L|173:263,1,55
348,194,107464,5,2,0:0:0:0:
348,194,107550,1,0,0:0:0:0:
348,194,107636,2,0,L|339:121,1,55
128,324,107807,53,2,0:0:0:0:
128,324,107893,1,0,0:0:0:0:
128,324,107979,2,0,P|157:337|184:340,1,55
384,60,108150,69,2,0:0:0:0:
384,60,108236,1,0,0:0:0:0:
384,60,108322,2,0,P|354:46|328:44,1,55
116,96,108493,22,0,B|108:72|108:72|88:56|48:64|48:64|72:132|72:132|60:172|60:172|76:240,1,264,6|0,1:0|0:0,0:0:0:0:
88,352,108835,5,8,0:0:0:0:
108,332,108921,1,0,0:0:0:0:
164,264,109007,69,0,0:0:0:0:
184,284,109092,1,0,0:0:0:0:
255,337,109178,54,0,L|344:328,1,88,2|0,1:0|0:0,0:0:0:0:
504,232,109350,2,0,L|415:223,1,88,2|0,1:0|0:0,0:0:0:0:
252,128,109521,2,0,L|341:119,1,88,8|0,0:0|0:0,0:0:0:0:
501,23,109693,2,0,L|412:14,1,88,2|0,1:0|0:0,0:0:0:0:
180,88,109864,22,0,B|119:96|44:99|53:-8|75:0|142:38|88:156,1,280.500005350113,6|0,1:0|0:0,0:0:0:0:
24,288,110207,5,8,0:0:0:0:
50,299,110293,1,0,0:0:0:0:
136,296,110378,69,0,0:0:0:0:
162,285,110464,1,0,0:0:0:0:
240,244,110550,54,0,L|247:337,1,93.500001783371,2|0,1:0|0:0,0:0:0:0:
346,166,110721,2,0,L|337:72,1,93.500001783371,2|0,1:0|0:0,0:0:0:0:
413,370,110893,2,0,L|404:262,1,93.500001783371,8|0,0:0|0:0,0:0:0:0:
503,105,111064,2,0,L|510:199,1,93.500001783371,2|0,1:0|0:0,0:0:0:0:
498,359,111235,22,0,P|458:371|402:367,1,88,2|0,0:0|0:0,0:0:0:0:
254,330,111407,1,2,0:0:0:0:
254,330,111493,1,2,0:0:0:0:
254,330,111578,6,0,L|237:229,1,88,10|0,0:0|0:0,0:0:0:0:
16,152,111750,1,2,0:0:0:0:
16,152,111836,1,2,0:3:0:0:
16,152,111921,54,0,L|30:242,1,88,10|0,0:0|0:0,0:0:0:0:
168,332,112093,1,2,0:0:0:0:
168,332,112178,1,2,0:0:0:0:
168,332,112264,70,0,P|212:340|256:328,1,88,10|0,0:0|0:0,0:0:0:0:
496,172,112435,2,0,P|452:164|408:176,1,88,10|0,0:0|0:0,0:0:0:0:
340,352,112607,22,0,B|344:284|344:284|316:256|316:256|320:184|320:184|336:244|388:264,1,264,6|0,1:0|0:0,0:0:0:0:
480,304,112950,5,8,0:0:0:0:
489,261,113035,1,0,0:0:0:0:
496,172,113121,69,0,0:0:0:0:
487,129,113206,1,0,0:0:0:0:
464,44,113293,6,0,P|438:31|408:24,1,55,2|0,1:0|0:0,0:0:0:0:
288,24,113464,2,0,P|261:27|232:39,1,55,2|0,1:0|0:0,0:0:0:0:
56,164,113635,70,0,P|77:180|106:195,1,55,8|0,0:0|0:0,0:0:0:0:
220,216,113807,2,0,P|246:217|277:211,1,55,2|0,1:0|0:0,0:0:0:0:
464,180,113978,6,0,B|512:166|508:112|508:112|465:139|465:139|452:280,1,280.500005350113,6|0,1:0|0:0,0:0:0:0:
396,360,114321,69,8,0:0:0:0:
371,355,114407,1,0,0:0:0:0:
279,341,114493,5,0,0:0:0:0:
254,337,114579,1,0,0:0:0:0:
160,320,114664,70,0,L|156:256,1,55,2|0,1:0|0:0,0:0:0:0:
292,129,114835,2,0,L|296:184,1,55,2|0,1:0|0:0,0:0:0:0:
128,168,115007,6,0,L|192:164,1,55,8|0,0:0|0:0,0:0:0:0:
314,292,115178,2,0,L|259:295,1,55,2|0,1:0|0:0,0:0:0:0:
48,208,115350,54,0,B|36:88|36:88|64:36,1,176,8|0,0:0|0:0,0:0:0:0:
140,0,115607,1,0,0:0:0:0:
137,84,115693,2,0,B|121:116|121:116|129:180,1,88,8|0,0:0|0:0,0:0:0:0:
304,375,115864,2,0,B|320:343|320:343|312:279,1,88,8|0,0:0|0:0,0:0:0:0:
208,128,116035,70,0,L|231:306,1,176,8|0,0:0|0:0,0:0:0:0:
212,384,116293,1,0,0:0:0:0:
148,329,116378,2,0,L|138:241,1,88,8|0,0:0|0:0,0:0:0:0:
300,212,116550,2,0,P|340:216|380:248,1,88,8|0,0:0|0:0,0:0:0:0:
456,368,116721,70,0,L|460:280,1,82.5,12|0,0:0|0:0,0:0:0:0:
464,200,117064,69,6,0:0:0:0:
