osu file format v14

[General]
AudioFilename: audio.mp3
AudioLeadIn: 0
PreviewTime: 57738
Countdown: 0
SampleSet: Soft
StackLeniency: 0.5
Mode: 0
LetterboxInBreaks: 0
WidescreenStoryboard: 1

[Editor]
DistanceSpacing: 1.7
BeatDivisor: 4
GridSize: 4
TimelineZoom: 3.699998

[Metadata]
Title:Avalanche
TitleUnicode:Avalanche
Artist:Memme
ArtistUnicode:Memme
Creator:Kalindraz
Version:Hard.
Source:Pump It Up Prime
Tags:Classic Melodia Drumstep antonio vivaldi the four seasons winter
BeatmapID:1452819
BeatmapSetID:542317

[Difficulty]
HPDrainRate:4
CircleSize:3.2
OverallDifficulty:6
ApproachRate:7.5
SliderMultiplier:1.8
SliderTickRate:1

[Events]
//Background and Video events
0,0,"bg.jpg",0,0
//Break Periods
2,42864,45610
//Storyboard Layer 0 (Background)
//Storyboard Layer 1 (Fail)
//Storyboard Layer 2 (Pass)
//Storyboard Layer 3 (Foreground)
//Storyboard Sound Samples

[TimingPoints]
2893,342.857142857143,4,1,1,70,1,0
13864,-100,4,1,2,70,0,0
24835,-100,4,1,1,70,0,0
28264,-133.333333333333,4,1,2,70,0,0
28950,-100,4,2,2,70,0,0
31693,-100,4,1,1,70,0,0
35464,-133.333333333333,4,1,2,70,0,0
35807,-83.3333333333333,4,2,2,70,0,0
38035,-133.333333333333,4,1,2,70,0,0
38550,-100,4,1,1,70,0,0
42664,-133.333333333333,4,1,1,70,0,0
45407,-100,4,2,0,70,0,0
46093,-133.333333333333,4,2,0,70,0,0
46778,-100,4,2,2,70,0,0
51921,-100,4,2,0,70,0,0
52264,-100,4,2,2,70,0,0
57750,-100,4,2,2,70,0,1
60150,-100,4,2,2,70,0,1
60493,-100,4,2,2,70,0,1
62893,-100,4,2,2,70,0,1
63235,-100,4,2,2,70,0,1
65635,-100,4,2,2,70,0,1
65978,-100,4,2,2,70,0,1
67350,-100,4,2,2,70,0,0
82435,-100,4,2,2,70,0,0
85178,-100,4,2,2,70,0,0
87578,-133.333333333333,4,2,2,70,0,0
87921,-100,4,2,2,70,0,0
93064,-83.3333333333333,4,2,2,70,0,0
93407,-83.3333333333333,4,2,2,70,0,0
96150,-100,4,2,0,70,0,0
98893,-100,4,2,2,70,0,1
101550,-83.3333333333333,4,2,2,70,0,1
101635,-100,4,2,2,70,0,1
104293,-83.3333333333333,4,2,2,70,0,1
104378,-100,4,2,2,70,0,1
106778,-133.333333333333,4,2,2,70,0,1
107121,-100,4,2,2,70,0,1
108407,-100,4,2,2,70,0,1
108493,-100,4,2,2,70,0,1
109778,-100,4,2,2,70,0,1
109864,-100,4,2,2,70,0,1
111150,-100,4,2,2,70,0,1
111235,-100,4,2,2,70,0,1
112521,-100,4,2,2,70,0,1
112607,-100,4,2,2,70,0,1
112778,-100,4,2,2,70,0,1
113978,-100,4,2,2,70,0,1
114150,-100,4,2,0,70,0,1
115350,-100,4,2,2,70,0,1
116721,-133.333333333333,4,2,2,70,0,1
117064,-100,4,2,2,70,0,0

[Colours]
Combo1 : 254,81,22
Combo2 : 102,255,179
Combo3 : 255,128,191
Combo4 : 74,74,74
Combo5 : 192,192,192
Combo6 : 255,0,0

[HitObjects]
96,176,2892,6,0,P|108:128|100:80,2,90,0|0|0,2:0|2:0|2:0,0:0:0:0:
64,272,3407,1,0,0:0:0:0:
64,272,3578,2,0,B|156:252|156:252|252:272,1,180,2|8,0:2|0:0,0:0:0:0:
364,308,4092,1,0,0:0:0:0:
364,308,4264,6,0,P|372:252|364:220,2,90,2|0|8,0:2|0:0|0:0,0:0:0:0:
272,376,4778,1,0,0:0:0:0:
240,269,4950,2,0,B|228:145|228:145|252:85,1,180,2|8,0:2|0:0,0:0:0:0:
288,4,5464,1,0,0:0:0:0:
376,88,5635,69,2,0:2:0:0:
324,188,5807,2,0,L|353:226,2,45,0|0|8,0:0|2:0|0:0,0:0:0:0:
248,93,6150,1,0,0:0:0:0:
172,184,6321,1,2,0:2:0:0:
96,276,6493,2,0,L|44:280,2,45,0|0|8,0:0|2:0|0:0,0:0:0:0:
172,360,6835,1,0,0:0:0:0:
240,268,7007,6,0,P|292:260|336:268,1,90,0|2,0:0|0:2,0:0:0:0:
384,356,7350,2,0,P|332:364|288:356,1,90,8|2,0:0|0:2,0:0:0:0:
240,268,7693,2,0,B|232:220|232:220|248:160,1,90,0|2,0:0|0:2,0:0:0:0:
304,100,8035,2,0,B|312:52|312:52|296:-8,1,90,8|2,0:0|0:2,0:0:0:0:
196,16,8378,70,0,L|100:24,1,90,0|2,0:0|0:2,0:0:0:0:
28,88,8721,2,0,P|20:132|32:176,1,90,8|2,0:0|0:2,0:0:0:0:
128,208,9064,2,0,L|224:200,1,90,0|2,0:0|0:2,0:0:0:0:
308,240,9407,2,0,P|316:284|304:328,1,90,8|2,0:0|0:2,0:0:0:0:
212,384,9750,5,0,0:0:0:0:
112,336,9921,2,0,L|132:276,2,45,2|0|8,0:2|0:0|0:0,0:0:0:0:
24,264,10264,1,2,0:2:0:0:
24,264,10435,2,0,B|16:188|16:188|32:152|32:152|24:80,1,180,2|2,0:2|0:2,0:0:0:0:
136,32,10950,1,2,0:2:0:0:
164,152,11121,70,0,P|224:156|260:140,1,90,2|0,1:0|0:0,0:0:0:0:
368,84,11464,2,0,P|428:80|464:96,1,90,8|2,0:0|0:2,0:0:0:0:
512,197,11807,1,2,1:0:0:0:
409,171,11978,1,0,0:0:0:0:
409,171,12150,2,0,L|397:269,1,90,8|2,0:0|0:2,0:0:0:0:
328,348,12493,5,8,0:0:0:0:
328,348,12578,1,0,0:0:0:0:
328,348,12664,2,0,P|276:356|236:352,1,90,2|0,0:2|0:0,0:0:0:0:
144,304,13007,1,0,0:0:0:0:
64,248,13178,2,0,P|148:212|228:260,1,180,10|2,1:1|0:0,0:0:0:0:
144,304,13693,1,2,0:3:0:0:
64,248,13864,70,0,B|28:156|96:160|56:64,1,180,4|8,0:0|0:0,0:0:0:0:
120,4,14378,1,0,0:2:0:0:
184,72,14550,2,0,B|148:164|216:160|176:256,1,180,4|8,0:0|0:0,0:0:0:0:
240,316,15064,1,0,0:2:0:0:
304,248,15235,6,0,B|268:156|336:160|296:64,1,180,4|8,0:0|0:0,0:0:0:0:
360,4,15749,1,0,0:2:0:0:
424,72,15921,2,0,B|388:164|456:160|416:256,1,180,4|8,0:0|0:0,0:0:0:0:
512,344,16435,1,0,0:2:0:0:
512,344,16607,70,0,B|424:312|424:368|332:340,1,180,4|8,0:0|0:0,0:0:0:0:
224,356,17121,1,0,0:2:0:0:
152,288,17293,2,0,L|160:188,1,90,4|0,0:0|0:0,0:0:0:0:
272,180,17635,2,0,L|264:269,1,90,8|0,0:0|0:2,0:0:0:0:
152,288,17978,6,0,B|64:284|64:284|28:200,1,180,4|8,0:0|0:0,0:0:0:0:
116,140,18493,1,0,0:2:0:0:
24,88,18664,2,0,B|60:4|60:4|148:0,1,180,4|8,0:0|0:0,0:0:0:0:
240,44,19178,1,0,0:0:0:0:
348,8,19350,70,0,L|344:104,1,90,6|0,0:0|0:0,0:0:0:0:
472,68,19693,2,0,L|468:164,1,90,6|0,0:0|0:0,0:0:0:0:
340,200,20035,2,0,L|336:296,1,90,6|0,0:0|0:0,0:0:0:0:
464,260,20378,2,0,L|460:356,1,90,10|2,0:0|0:0,0:0:0:0:
344,368,20721,6,0,P|288:372|252:368,1,90,6|0,0:0|0:0,0:0:0:0:
160,260,21064,2,0,P|104:256|68:260,1,90,6|0,0:0|0:0,0:0:0:0:
162,348,21407,2,0,B|170:304|170:304|158:252,1,90,6|0,0:0|0:0,0:0:0:0:
76,168,21750,2,0,B|68:124|68:124|80:72,1,90,10|2,0:0|0:0,0:0:0:0:
150,17,22093,70,0,P|193:8|236:20,1,90,6|0,0:0|0:0,0:0:0:0:
294,93,22435,2,0,P|303:136|291:179,1,90,10|0,0:0|0:0,0:0:0:0:
220,244,22778,2,0,P|177:253|134:241,1,90,6|0,0:0|0:0,0:0:0:0:
76,168,23121,2,0,P|67:125|79:82,1,90,10|2,0:0|0:0,0:0:0:0:
256,192,23464,12,12,24493,0:0:0:0:
80,152,24835,6,0,B|72:120|72:120|108:108|136:80|136:80|120:240,1,270,0|0,0:0|0:0,0:0:0:0:
108,348,25521,1,4,0:0:0:0:
200,312,25693,1,0,0:0:0:0:
284,364,25864,2,0,L|388:352,1,90,0|0,0:0|1:0,0:0:0:0:
452,296,26207,70,0,P|468:212|440:120,1,180,8|0,1:0|0:0,0:0:0:0:
372,56,26721,1,0,0:0:0:0:
286,10,26893,2,0,P|260:96|276:184,1,180,4|0,0:0|0:0,0:0:0:0:
348,264,27407,1,0,0:0:0:0:
236,288,27578,6,0,B|188:292|188:292|140:280,1,90,8|0,0:0|0:0,0:0:0:0:
88,192,27921,2,0,B|40:188|40:188|-8:200,1,90,12|0,0:0|0:0,0:0:0:0:
40,292,28264,1,2,0:2:0:0:
40,292,28435,1,2,0:2:0:0:
88,192,28607,22,0,L|164:96,1,101.250003862381,2|0,2:0|2:0,0:0:0:0:
200,52,28950,6,0,P|248:40|300:52,1,90,2|0,0:0|0:0,0:0:0:0:
332,172,29293,1,2,0:0:0:0:
252,216,29464,2,0,P|240:168|252:128,1,90,8|0,0:0|0:0,0:0:0:0:
412,122,29807,1,2,0:0:0:0:
480,212,29978,1,2,0:0:0:0:
464,316,30150,6,0,P|412:344|296:308,1,180,8|2,0:0|0:0,0:0:0:0:
252,216,30664,1,2,0:0:0:0:
168,172,30835,2,0,P|156:220|168:264,1,90,8|0,0:0|0:0,0:0:0:0:
52,228,31178,1,8,0:0:0:0:
52,228,31264,1,8,0:0:0:0:
52,228,31350,2,0,L|76:136,1,90,12|0,0:0|0:0,0:0:0:0:
12,56,31693,6,0,P|100:40|188:100,1,180,0|0,0:0|0:0,0:0:0:0:
256,144,32207,1,0,0:0:0:0:
336,82,32378,2,0,P|413:39|500:56,1,180,4|0,0:0|0:0,0:0:0:0:
436,144,32893,1,0,1:0:0:0:
504,228,33064,6,0,B|512:272|512:272|500:324,1,90,8|0,1:0|0:0,0:0:0:0:
416,360,33407,2,0,B|372:368|372:368|320:356,1,90,0|0,0:0|0:0,0:0:0:0:
272,276,33750,2,0,B|220:252|220:252|92:268,1,180,4|0,0:0|0:0,0:0:0:0:
12,328,34264,1,0,0:0:0:0:
98,267,34435,70,0,P|114:171|74:91,2,180,8|8|4,0:0|0:0|0:0,0:0:0:0:
112,372,35293,1,4,0:0:0:0:
112,372,35378,1,4,0:0:0:0:
112,372,35464,38,0,L|216:320,1,101.250003862381,12|0,0:0|2:0,0:0:0:0:
272,276,35807,6,0,P|280:216|264:168,1,107.999996704102,2|0,0:0|0:0,0:0:0:0:
212,69,36150,1,10,0:0:0:0:
304,4,36321,2,0,L|428:12,1,107.999996704102,8|0,0:0|0:0,0:0:0:0:
512,112,36664,1,2,0:0:0:0:
340,120,36835,1,2,0:0:0:0:
411,10,37007,6,0,B|432:120|432:120|392:232,1,215.999993408203,8|2,0:0|0:0,0:0:0:0:
420,328,37521,1,10,0:0:0:0:
498,246,37693,2,0,P|434:218|394:218,1,107.999996704102,8|0,0:0|0:0,0:0:0:0:
296,292,38035,54,0,L|148:300,1,135.000005149842,4|0,0:0|0:0,0:0:0:0:
64,304,38550,38,0,P|36:208|80:140,1,180,0|0,0:0|0:0,0:0:0:0:
180,180,39064,1,0,0:0:0:0:
300,176,39235,2,0,P|329:93|289:16,1,180,4|0,0:0|0:0,0:0:0:0:
164,28,39750,1,0,1:0:0:0:
244,100,39921,6,0,P|292:88|344:100,1,90,8|0,1:0|0:0,0:0:0:0:
424,132,40264,2,0,P|465:159|490:206,1,90,0|0,0:0|0:0,0:0:0:0:
427,278,40607,2,0,L|248:260,1,180,4|0,0:0|0:0,0:0:0:0:
140,328,41121,1,0,0:0:0:0:
68,264,41293,70,0,P|104:238|148:233,1,90,2|0,0:0|0:0,0:0:0:0:
123,146,41635,2,0,P|167:142|208:159,1,90,2|0,0:0|0:0,0:0:0:0:
226,68,41978,2,0,P|265:87|292:123,1,90,6|0,0:0|0:0,0:0:0:0:
357,60,42321,2,0,P|382:96|388:141,1,90,2|0,0:0|0:0,0:0:0:0:
372,232,42664,5,2,0:2:0:0:
60,236,46435,6,0,L|56:128,1,101.250003862381,2|0,0:1|2:0,0:0:0:0:
56,40,46778,54,0,P|112:32|160:48,1,90,2|0,0:0|0:0,0:0:0:0:
232,96,47121,2,0,P|288:104|336:88,1,90,2|0,0:0|0:0,0:0:0:0:
412,40,47464,2,0,L|400:228,1,180,2|2,0:0|0:0,0:0:0:0:
392,340,47978,1,0,0:0:0:0:
392,340,48150,6,0,L|292:348,1,90,2|0,0:0|0:0,0:0:0:0:
204,288,48493,2,0,L|104:296,1,90,2|0,0:0|0:0,0:0:0:0:
20,348,48835,2,0,B|60:256|-8:260|32:156,1,180,2|2,0:0|0:0,0:0:0:0:
56,48,49350,1,0,0:0:0:0:
56,48,49521,70,0,B|104:60|104:60|104:60|164:52,1,90,2|0,0:0|0:0,0:0:0:0:
243,41,49864,2,0,B|284:36|284:36|284:36|332:48,1,90,2|0,0:0|0:0,0:0:0:0:
376,144,50207,2,0,B|296:140|296:140|268:156|268:156|184:152,1,180,2|2,0:0|0:0,0:0:0:0:
124,216,50721,1,0,0:0:0:0:
124,216,50893,6,0,P|112:268|128:304,1,90,2|0,0:0|0:0,0:0:0:0:
208,364,51235,2,0,P|260:376|296:360,1,90,2|0,0:0|0:0,0:0:0:0:
376,300,51578,2,0,P|390:257|377:215,1,90,2|0,0:0|1:0,0:0:0:0:
327,127,51921,38,0,L|191:143,1,135,4|0,0:0|2:0,0:0:0:0:
92,124,52264,22,0,B|108:80|108:80|136:48,1,90,6|2,0:0|0:0,0:0:0:0:
193,143,52607,2,0,B|228:112|228:112|269:99,1,90,2|2,0:0|0:0,0:0:0:0:
272,216,52950,2,0,B|318:207|318:207|359:216,1,90,2|2,0:0|0:0,0:0:0:0:
306,312,53293,2,0,B|350:328|350:328|382:356,1,90,2|2,0:0|0:0,0:0:0:0:
165,377,53635,6,0,P|119:344|102:314,1,90,2|2,0:0|0:0,0:0:0:0:
198,285,53978,2,0,P|175:233|175:199,1,90,2|2,0:0|0:0,0:0:0:0:
272,216,54321,2,0,P|277:160|295:130,1,90,2|2,0:0|0:0,0:0:0:0:
367,200,54664,2,0,P|399:154|429:137,1,90,2|2,0:0|0:0,0:0:0:0:
460,228,55007,69,6,0:0:0:0:
500,352,55178,1,2,0:0:0:0:
396,308,55350,2,0,P|348:300|304:312,1,90,2|2,0:0|0:0,0:0:0:0:
203,360,55693,1,2,0:0:0:0:
243,236,55864,1,2,0:0:0:0:
140,280,56036,2,0,P|96:288|52:278,1,90,2|2,0:0|0:0,0:0:0:0:
96,192,56378,5,6,0:0:0:0:
96,192,56550,2,0,B|84:60|84:60|132:108,1,180,2|2,0:1|0:1,0:0:0:0:
212,104,57064,6,0,L|324:92,3,90,4|4|4|4,0:0|0:0|0:0|0:0,0:0:0:0:
364,156,57750,54,0,P|428:164|452:152,1,90,6|0,0:0|0:0,0:0:0:0:
500,56,58093,2,0,P|436:48|412:60,1,90,0|0,0:0|0:0,0:0:0:0:
364,156,58435,2,0,L|372:260,1,90,8|0,0:0|0:0,0:0:0:0:
512,264,58778,2,0,L|504:368,1,90,0|0,0:0|0:0,0:0:0:0:
424,368,59121,6,0,B|352:368|352:368|324:344|324:344|252:344,1,180,2|0,0:0|3:0,0:0:0:0:
152,384,59635,1,2,0:0:0:0:
152,384,59721,1,0,3:0:0:0:
152,384,59807,1,8,0:0:0:0:
52,288,59978,1,2,0:0:0:0:
169,280,60150,38,0,L|149:140,1,135,12|0,0:0|0:0,0:0:0:0:
132,56,60493,22,0,B|184:48|184:48|232:56,1,90,2|0,0:0|0:0,0:0:0:0:
312,124,60835,2,0,B|364:132|364:132|412:124,1,90,0|0,0:0|0:0,0:0:0:0:
464,32,61178,2,0,B|412:24|412:24|364:32,1,90,8|0,0:0|0:0,0:0:0:0:
312,124,61521,2,0,B|304:176|304:176|312:224,1,90,0|0,0:0|0:0,0:0:0:0:
384,304,61864,6,0,B|420:248|420:248|412:120,1,180,2|2,0:0|3:0,0:0:0:0:
375,30,62378,1,2,3:0:0:0:
375,30,62464,1,2,3:0:0:0:
375,30,62550,1,8,0:0:0:0:
312,124,62721,1,0,0:0:0:0:
272,36,62893,38,0,L|132:28,1,135,2|0,0:1|0:0,0:0:0:0:
52,16,63235,38,0,P|44:64|56:108,1,90,2|0,0:0|0:0,0:0:0:0:
148,144,63578,2,0,P|156:192|144:236,1,90,0|0,0:0|0:0,0:0:0:0:
92,324,63921,2,0,P|136:316|184:320,1,90,8|0,0:0|0:0,0:0:0:0:
280,368,64264,2,0,P|324:376|372:372,1,90,0|0,0:0|0:0,0:0:0:0:
468,368,64607,70,0,P|420:292|328:288,1,180,2|0,0:0|0:0,0:0:0:0:
280,368,65121,1,0,0:0:0:0:
280,368,65207,1,0,0:0:0:0:
280,368,65293,2,0,L|176:356,1,90,8|0,0:0|0:0,0:0:0:0:
92,324,65635,54,0,B|84:268|84:268|100:180,1,135,8|0,0:0|0:0,0:0:0:0:
124,100,65978,22,0,L|220:92,1,90,8|0,0:0|0:0,0:0:0:0:
304,184,66321,2,0,L|214:191,1,90,10|0,0:0|0:0,0:0:0:0:
316,84,66664,1,2,0:0:0:0:
404,148,66835,1,8,0:0:0:0:
404,148,66921,1,8,0:0:0:0:
404,148,67007,2,0,P|408:196|396:248,1,90,10|0,0:1|0:0,0:0:0:0:
356,332,67350,6,0,B|284:360|284:360|156:348,1,180,2|12,0:0|0:1,0:0:0:0:
68,376,67864,1,0,0:0:0:0:
76,264,68035,2,0,B|148:236|148:236|276:248,1,180,2|12,0:0|0:1,0:0:0:0:
356,216,68550,1,0,0:0:0:0:
460,212,68721,70,0,P|418:130|335:113,1,180,2|12,0:0|0:1,0:0:0:0:
256,24,69235,1,0,0:0:0:0:
174,112,69407,2,0,P|89:133|52:212,1,180,2|12,0:0|0:1,0:0:0:0:
156,216,69921,1,0,0:0:0:0:
200,304,70093,6,0,P|224:356|304:296,1,180,2|12,0:0|0:1,0:0:0:0:
256,220,70607,1,0,0:0:0:0:
256,220,70693,1,0,0:0:0:0:
256,220,70778,70,0,P|248:160|256:128,1,90,2|0,0:0|0:0,0:0:0:0:
300,40,71121,2,0,L|416:32,1,90,12|0,0:1|0:0,0:0:0:0:
504,44,71464,2,0,P|512:104|504:136,1,90,2|0,0:0|0:0,0:0:0:0:
460,224,71807,2,0,L|344:232,1,90,12|0,0:1|0:0,0:0:0:0:
256,220,72150,2,0,P|196:212|164:220,1,90,2|0,0:0|0:0,0:0:0:0:
76,264,72493,2,0,L|68:380,1,90,12|0,0:1|0:0,0:0:0:0:
176,384,72835,5,2,0:0:0:0:
263,309,73007,1,0,0:0:0:0:
263,309,73093,1,0,0:0:0:0:
263,309,73178,2,0,L|255:209,1,90,12|0,0:1|0:0,0:0:0:0:
340,144,73521,69,2,0:0:0:0:
427,219,73693,1,0,0:0:0:0:
427,219,73779,1,0,0:0:0:0:
427,219,73864,2,0,L|419:319,1,90,12|0,0:1|0:0,0:0:0:0:
501,377,74207,6,0,L|513:197,1,180,2|12,0:0|0:1,0:0:0:0:
448,120,74721,1,0,0:0:0:0:
448,120,74807,1,0,0:0:0:0:
448,120,74893,70,0,P|392:132|356:124,1,90,2|0,0:0|0:0,0:0:0:0:
264,80,75235,2,0,P|208:68|172:76,1,90,12|0,0:1|0:0,0:0:0:0:
88,124,75578,2,0,L|76:224,1,90,2|0,0:0|0:0,0:0:0:0:
168,260,75921,2,0,L|178:349,1,90,12|0,0:1|0:0,0:0:0:0:
284,348,76264,2,0,L|294:258,1,90,2|0,0:0|0:0,0:0:0:0:
385,212,76607,2,0,L|374:122,1,90,12|0,0:1|0:0,0:0:0:0:
312,40,76950,5,2,0:0:0:0:
248,128,77121,1,0,0:0:0:0:
248,128,77207,1,0,0:0:0:0:
248,128,77293,2,0,P|196:136|156:128,1,90,12|0,0:1|0:0,0:0:0:0:
92,52,77635,69,2,0:0:0:0:
56,164,77807,1,0,0:0:0:0:
56,164,77893,1,0,0:0:0:0:
56,164,77978,2,0,L|64:272,1,90,12|0,0:1|0:0,0:0:0:0:
172,308,78321,6,0,B|222:308|254:274|254:274|294:308|347:308,1,180,2|8,0:0|0:1,0:0:0:0:
388,224,78835,1,0,0:0:0:0:
388,224,78921,1,0,0:0:0:0:
388,224,79007,70,0,P|340:224|304:192,1,90,2|0,0:0|0:0,0:0:0:0:
204,200,79350,2,0,P|168:226|124:224,1,90,12|0,0:1|0:0,0:0:0:0:
144,128,79693,2,0,L|208:48,1,90,2|0,0:0|0:0,0:0:0:0:
311,57,80035,2,0,L|368:128,1,90,12|0,0:1|0:0,0:0:0:0:
464,164,80378,2,0,P|480:208|476:260,1,90,2|0,0:0|0:0,0:0:0:0:
424,344,80721,2,0,P|380:360|328:356,1,90,12|0,0:1|0:0,0:0:0:0:
240,328,81064,6,0,B|192:304|192:304|64:320,1,180,2|12,0:0|0:1,0:0:0:0:
92,224,81578,1,0,0:0:0:0:
66,124,81750,70,0,B|192:140|192:140|240:116,1,180,2|12,0:0|0:1,0:0:0:0:
280,20,82264,1,12,0:1:0:0:
160,44,82435,54,0,L|192:244,1,180,14|2,0:0|0:0,0:0:0:0:
316,204,82950,1,2,0:0:0:0:
388,100,83121,5,8,0:0:0:0:
308,328,83464,1,0,0:0:0:0:
492,344,83807,70,0,P|492:264|408:264,1,180,14|2,0:0|0:0,0:0:0:0:
308,328,84321,1,2,0:0:0:0:
188,300,84493,5,8,0:0:0:0:
396,384,84835,1,0,0:0:0:0:
188,300,85178,69,6,0:0:0:0:
120,144,85350,1,6,0:0:0:0:
64,228,85521,2,0,B|136:232|136:232|172:212|172:212|244:216,1,180,14|6,0:0|0:0,0:0:0:0:
280,120,86035,1,6,0:0:0:0:
204,64,86207,2,0,B|170:65|170:65|151:55|151:55|115:57,1,90,14|0,0:0|0:0,0:0:0:0:
28,116,86550,5,2,0:0:0:0:
120,144,86721,1,2,0:0:0:0:
64,228,86893,2,0,P|60:272|80:320,1,90,2|2,0:0|0:0,0:0:0:0:
164,352,87235,1,2,0:0:0:0:
164,352,87321,1,2,0:0:0:0:
164,352,87407,1,2,0:0:0:0:
256,328,87578,54,0,L|372:320,1,101.250003862381,2|2,0:0|0:0,0:0:0:0:
444,316,87921,38,0,P|452:260|436:212,1,90,2|0,0:0|0:0,0:0:0:0:
376,160,88264,2,0,P|368:104|384:56,1,90,2|0,0:0|0:0,0:0:0:0:
460,112,88607,2,0,L|272:124,1,180,2|2,0:0|0:0,0:0:0:0:
197,165,89121,1,0,0:0:0:0:
197,165,89207,1,0,0:0:0:0:
197,165,89293,6,0,B|201:217|201:217|189:265,1,90,2|0,0:0|0:0,0:0:0:0:
93,297,89635,2,0,B|89:245|89:245|101:197,1,90,2|0,0:0|0:0,0:0:0:0:
125,101,89978,2,0,P|193:73|285:133,1,180,2|2,0:0|0:0,0:0:0:0:
312,216,90493,1,0,0:0:0:0:
312,216,90578,1,0,0:0:0:0:
312,216,90664,70,0,P|324:256|316:308,1,90,2|0,0:0|0:0,0:0:0:0:
432,300,91007,2,0,P|425:255|437:212,1,90,2|0,0:0|0:0,0:0:0:0:
456,120,91350,2,0,B|415:119|375:153|375:153|343:119|293:119,1,180,2|2,0:0|0:0,0:0:0:0:
276,220,91864,1,0,0:0:0:0:
276,220,91950,1,0,0:0:0:0:
276,220,92035,6,0,P|220:204|196:184,1,90,2|0,0:0|0:0,0:0:0:0:
87,184,92378,2,0,P|51:210|8:220,1,90,2|0,0:0|0:0,0:0:0:0:
8,112,92721,1,2,0:0:0:0:
144,116,92893,1,0,0:0:0:0:
144,116,92978,1,0,0:0:0:0:
144,116,93064,22,0,L|144:284,1,161.999995056153,12|0,0:0|2:0,0:0:0:0:
200,352,93407,38,0,P|264:360|308:348,1,107.999996704102,6|2,0:0|0:0,0:0:0:0:
392,284,93750,2,0,P|456:276|500:288,1,107.999996704102,2|2,0:0|0:0,0:0:0:0:
440,364,94093,2,0,B|480:248|408:248|448:144,1,215.999993408203,2|2,0:0|0:0,0:0:0:0:
512,64,94607,1,2,0:0:0:0:
412,16,94778,6,0,P|356:8|300:24,1,107.999996704102,6|2,0:0|0:0,0:0:0:0:
240,112,95121,2,0,P|184:120|128:104,1,107.999996704102,2|2,0:0|0:0,0:0:0:0:
36,88,95464,2,0,B|16:188|16:188|48:308,1,215.999993408203,2|2,0:0|0:0,0:0:0:0:
144,328,95978,1,2,0:0:0:0:
112,232,96150,70,0,B|100:186|100:186|105:144,1,90,2|2,0:0|0:0,0:0:0:0:
214,190,96493,2,0,B|225:144|225:144|252:111,1,90,2|2,0:0|0:0,0:0:0:0:
320,207,96836,2,0,B|353:173|353:173|392:158,1,90,2|2,0:0|0:0,0:0:0:0:
402,267,97179,2,0,B|447:255|447:255|489:260,1,90,2|0,0:0|0:0,0:0:0:0:
434,366,97521,53,12,3:0:0:0:
434,366,98550,2,0,L|288:360,1,135,8|0,0:0|0:0,0:0:0:0:
208,368,98893,6,0,P|212:323|238:287,1,90,2|0,0:0|0:0,0:0:0:0:
157,248,99235,2,0,P|183:212|223:193,1,90,8|0,0:0|0:0,0:0:0:0:
168,119,99578,2,0,P|208:102|253:106,1,90,2|2,0:0|0:0,0:0:0:0:
249,16,99921,2,0,P|292:21|329:47,1,90,8|0,0:0|0:0,0:0:0:0:
388,124,100264,69,2,0:0:0:0:
500,184,100435,1,2,3:0:0:0:
500,184,100521,1,2,3:0:0:0:
500,184,100607,2,0,L|504:292,1,90,10|2,0:0|3:0,0:0:0:0:
504,380,100950,5,2,0:0:0:0:
392,320,101121,1,0,0:0:0:0:
392,320,101207,1,0,0:0:0:0:
392,320,101293,2,0,L|388:212,1,90,8|0,0:0|0:0,0:0:0:0:
372,120,101635,70,0,L|276:116,1,90,2|0,0:0|0:0,0:0:0:0:
190,212,101978,2,0,L|280:216,1,90,8|0,0:0|0:0,0:0:0:0:
192,112,102321,2,0,L|96:108,1,90,2|2,0:0|0:0,0:0:0:0:
10,204,102664,2,0,L|99:207,1,90,8|0,0:0|0:0,0:0:0:0:
190,212,103007,5,2,0:0:0:0:
152,328,103178,1,2,3:0:0:0:
152,328,103264,1,2,3:0:0:0:
152,328,103350,2,0,P|204:336|244:320,1,90,8|2,0:0|3:0,0:0:0:0:
352,264,103693,70,0,P|360:212|352:164,1,90,2|0,0:0|0:0,0:0:0:0:
280,104,104035,2,0,P|272:52|280:4,1,90,8|0,0:0|0:0,0:0:0:0:
376,8,104378,6,0,P|432:4|480:24,1,90,2|0,0:0|0:0,0:0:0:0:
416,100,104721,2,0,P|466:124|498:165,1,90,8|0,0:0|0:0,0:0:0:0:
408,200,105064,2,0,P|439:246|446:298,1,90,2|2,0:0|0:0,0:0:0:0:
352,280,105407,2,0,P|356:336|336:384,1,90,8|0,0:0|0:0,0:0:0:0:
260,320,105750,69,2,0:0:0:0:
144,264,105921,2,0,L|88:272,2,45,2|0|0,0:0|0:0|0:0,0:0:0:0:
240,200,106264,2,0,L|261:147,2,45,2|0|2,0:0|0:0|0:0,0:0:0:0:
176,348,106607,1,2,0:0:0:0:
176,348,106693,1,0,0:0:0:0:
176,348,106778,70,0,P|116:352|76:332,1,101.250003862381,0|0,0:0|0:0,0:0:0:0:
36,260,107121,6,0,L|24:160,1,90,2|0,0:0|0:0,0:0:0:0:
117,106,107464,2,0,L|128:196,1,90,2|0,0:0|0:0,0:0:0:0:
224,240,107807,2,0,P|268:244|312:224,1,90,2|0,0:0|0:0,0:0:0:0:
392,152,108150,1,2,0:0:0:0:
392,152,108493,22,0,B|416:244|416:244|392:344,1,180,6|8,1:0|0:0,0:0:0:0:
292,360,109007,1,0,0:0:0:0:
232,264,109178,2,0,P|184:256|140:264,1,90,2|2,1:0|1:0,0:0:0:0:
88,364,109521,2,0,P|136:372|180:364,1,90,8|2,0:0|1:0,0:0:0:0:
232,264,109864,6,0,B|252:188|252:188|232:72,1,180,6|8,1:0|0:0,0:0:0:0:
184,0,110378,1,0,0:0:0:0:
148,92,110550,2,0,P|196:100|240:84,1,90,2|2,1:0|1:0,0:0:0:0:
320,32,110893,2,0,P|368:24|412:40,1,90,8|2,0:0|1:0,0:0:0:0:
484,112,111235,38,0,L|472:296,1,180,2|10,0:0|0:0,0:0:0:0:
388,360,111750,1,2,0:0:0:0:
388,360,111835,1,2,0:3:0:0:
388,360,111921,2,0,B|344:368|344:368|296:356,1,90,10|2,0:0|0:0,0:0:0:0:
216,288,112264,2,0,B|172:280|172:280|124:292,1,90,10|10,0:0|0:0,0:0:0:0:
24,332,112607,22,0,P|40:228|8:140,1,180,6|8,1:0|0:0,0:0:0:0:
72,60,113121,1,0,0:0:0:0:
176,24,113293,2,0,P|180:72|172:116,1,90,2|2,1:0|1:0,0:0:0:0:
288,160,113635,2,0,P|284:112|292:68,1,90,8|2,0:0|1:0,0:0:0:0:
380,12,113978,6,0,P|436:16|500:120,1,180,6|8,1:0|0:0,0:0:0:0:
464,208,114493,1,0,0:0:0:0:
375,158,114664,2,0,P|323:150|283:162,1,90,2|2,1:0|1:0,0:0:0:0:
240,240,115007,2,0,P|232:292|244:332,1,90,8|2,0:0|1:0,0:0:0:0:
332,376,115350,38,0,P|340:324|328:284,1,90,8|0,0:0|0:0,0:0:0:0:
240,240,115693,1,8,0:0:0:0:
156,308,115864,2,0,L|56:304,1,90,8|8,0:0|0:0,0:0:0:0:
92,200,116207,1,0,0:0:0:0:
60,100,116378,2,0,L|149:96,1,90,8|8,0:0|0:0,0:0:0:0:
256,92,116721,69,12,0:0:0:0:
256,92,117064,69,6,0:0:0:0:
