osu file format v14

[General]
AudioFilename: audio.mp3
AudioLeadIn: 0
PreviewTime: 56378
Countdown: 0
SampleSet: None
StackLeniency: 0.7
Mode: 2
LetterboxInBreaks: 0
WidescreenStoryboard: 1

[Editor]
DistanceSpacing: 2.1
BeatDivisor: 16
GridSize: 32
TimelineZoom: 4.800004

[Metadata]
Title:Avalanche
TitleUnicode:Avalanche
Artist:Memme
ArtistUnicode:Memme
Creator:GIGACHAD
Version:Hitsounds
Source:Pump It Up Prime
Tags:rhythm video game electronic instrumental classic melodia drumstep antonio vivaldi the four seasons winter
BeatmapID:4566860
BeatmapSetID:2165000

[Difficulty]
HPDrainRate:4
CircleSize:4.5
OverallDifficulty:9.8
ApproachRate:9.8
SliderMultiplier:2.2
SliderTickRate:2

[Events]
//Background and Video events
0,0,"72966357_p0.jpg",0,0
//Break Periods
//Storyboard Layer 0 (Background)
//Storyboard Layer 1 (Fail)
//Storyboard Layer 2 (Pass)
//Storyboard Layer 3 (Foreground)
//Storyboard Layer 4 (Overlay)
//Storyboard Sound Samples

[TimingPoints]
150,342.857142857143,4,1,1,20,1,0
1521,-100,4,1,1,30,0,0
2035,-100,4,1,1,40,0,0
2207,-100,4,1,1,50,0,0
2378,-100,4,1,1,60,0,0
2550,-100,4,1,1,70,0,0
2721,-100,4,1,1,80,0,0
2892,342.857142857143,4,1,1,70,1,1
5634,-100,4,1,1,75,0,1
5720,-100,4,1,1,75,0,0
7006,-100,4,1,1,80,0,1
7092,-100,4,1,1,80,0,0
11120,-100,4,1,1,85,0,1
11206,-100,4,1,1,85,0,0
13520,-100,4,1,11,92,0,0
13863,-100,4,1,11,100,0,1
13949,-100,4,1,11,50,0,0
16606,-100,4,1,11,70,0,1
16692,-100,4,1,11,60,0,0
19349,-100,4,1,11,80,0,1
19434,-100,4,1,11,70,0,0
20720,-100,4,1,11,90,0,1
20806,-100,4,1,11,80,0,0
22092,-100,4,1,11,100,0,1
22177,-100,4,1,11,90,0,0
24492,-100,4,1,11,100,0,1
24577,-100,4,1,11,100,0,0
24834,-100,4,1,22,100,0,1
24920,-100,4,1,22,80,0,0
25520,-100,4,1,22,100,0,1
28606,-100,4,1,22,50,0,0
28949,-100,4,1,22,80,0,1
29034,-100,4,1,22,70,0,0
31692,-100,4,1,22,80,0,1
31777,-100,4,1,22,70,0,0
32377,-100,4,1,22,100,0,1
33749,-100,4,1,34,100,0,1
33834,-100,4,1,22,100,0,1
35463,-100,4,1,22,50,0,0
35806,-100,4,1,22,100,0,1
35892,-100,4,1,22,70,0,0
38034,-100,4,1,34,80,0,0
38120,-100,4,1,22,70,0,0
38549,-100,4,1,22,80,0,1
38634,-100,4,1,22,70,0,0
39234,-100,4,1,22,100,0,1
40606,-100,4,1,34,100,0,1
40692,-100,4,1,22,100,0,1
42320,-100,4,1,22,100,0,0
42663,-100,4,1,11,70,0,1
42749,-100,4,3,12,70,0,0
44034,-100,4,3,12,80,0,1
44120,-100,4,3,12,80,0,0
44720,-100,4,3,12,80,0,1
44806,-100,4,3,12,80,0,0
45406,-100,4,3,12,90,0,1
45492,-100,4,3,12,90,0,0
45749,-100,4,3,12,90,0,1
45834,-100,4,3,12,90,0,0
46092,-100,4,3,12,90,0,1
46177,-100,4,3,12,90,0,0
46434,-100,4,3,11,90,0,1
46520,-100,4,3,12,90,0,0
46777,-100,4,1,11,100,0,1
46863,-100,4,1,44,70,0,0
49520,-100,4,1,44,80,0,1
49606,-100,4,1,44,80,0,0
50892,-100,4,1,44,90,0,1
50977,-100,4,1,44,90,0,0
51920,-100,4,1,44,70,0,1
52006,-100,4,1,44,70,0,0
52263,-100,4,1,11,100,0,1
52349,-100,4,1,44,80,0,0
52949,-100,4,1,44,100,0,1
53034,-100,4,1,44,80,0,0
53634,-100,4,1,11,100,0,1
53720,-100,4,1,44,80,0,0
54320,-100,4,1,44,100,0,1
54406,-100,4,1,44,80,0,0
55006,-100,4,1,11,100,0,1
55092,-100,4,1,44,80,0,0
55692,-100,4,1,44,100,0,1
55777,-100,4,1,44,80,0,0
56377,-100,4,1,55,100,0,1
56463,-100,4,1,55,100,0,0
56634,-100,4,1,44,90,0,0
57063,-100,4,1,55,100,0,1
57149,-100,4,1,55,100,0,0
57234,-100,4,1,55,100,0,1
57320,-100,4,1,55,100,0,0
57406,-100,4,1,55,100,0,1
57492,-100,4,1,55,100,0,0
57577,-100,4,1,55,100,0,1
57663,-100,4,1,55,100,0,0
57749,-100,4,1,48,100,0,1
57920,-100,4,1,22,100,0,1
59120,-100,4,1,22,100,0,0
60149,-41.6666666666667,4,1,22,100,0,1
60234,-100,4,1,22,100,0,0
60492,-100,4,1,22,100,0,1
61863,-100,4,1,22,100,0,0
62549,-41.6666666666667,4,1,22,100,0,1
62634,-100,4,1,22,100,0,0
63234,-100,4,1,22,100,0,1
64606,-100,4,1,22,100,0,0
65977,-100,4,1,22,100,0,1
66063,-100,4,1,22,100,0,0
67006,-100,4,1,22,100,0,1
67092,-100,4,1,22,100,0,0
67349,-100,4,2,11,80,0,1
67434,-100,4,2,11,70,0,0
70092,-100,4,2,11,80,0,1
70177,-100,4,2,11,70,0,0
72834,-100,4,2,69,90,0,1
72920,-100,4,2,11,80,0,0
73520,-100,4,2,70,90,0,1
73606,-100,4,2,11,80,0,0
74206,-100,4,2,11,90,0,1
74292,-100,4,2,11,80,0,0
76949,-100,4,2,69,90,0,1
77034,-100,4,2,11,80,0,0
77634,-100,4,2,70,90,0,1
77720,-100,4,2,11,80,0,0
78320,-100,4,2,11,90,0,1
78406,-100,4,1,11,80,0,0
81063,-100,4,1,11,100,0,1
81149,-100,4,1,11,90,0,0
81406,-100,4,2,69,100,0,1
81492,-100,4,2,11,90,0,0
81749,-100,4,2,70,100,0,1
81834,-100,4,2,11,90,0,0
82092,-100,4,2,69,100,0,1
82177,-100,4,2,11,90,0,0
82434,-100,4,2,11,100,0,1
82520,-100,4,2,11,90,0,0
83120,-100,4,2,70,100,0,1
83206,-100,4,2,11,90,0,0
83463,-100,4,2,69,100,0,1
83549,-100,4,2,11,90,0,0
83806,-100,4,2,11,100,0,1
83892,-100,4,2,11,90,0,0
84492,-100,4,2,69,100,0,1
84577,-100,4,2,11,90,0,0
84834,-100,4,2,70,100,0,1
84920,-100,4,2,11,90,0,0
85177,-100,4,2,11,100,0,1
85263,-100,4,2,11,90,0,0
85434,-100,4,2,11,90,0,0
85520,-100,4,2,11,100,0,1
85606,-100,4,2,11,90,0,0
86206,-100,4,2,11,100,0,1
86292,-100,4,2,11,90,0,0
86549,-100,4,2,11,100,0,1
86634,-100,4,2,11,90,0,0
87577,-100,4,2,11,50,0,1
87663,-100,4,2,11,90,0,0
87920,-100,4,1,44,100,0,1
88006,-100,4,1,44,90,0,0
90663,-100,4,1,44,100,0,1
90749,-100,4,1,44,90,0,0
92034,-100,4,1,44,100,0,1
92120,-100,4,1,44,90,0,0
93063,-100,4,1,44,50,0,1
93149,-100,4,1,44,90,0,0
93406,-100,4,1,44,100,0,1
93492,-100,4,1,44,90,0,0
94092,-100,4,1,44,100,0,1
94177,-100,4,1,44,90,0,0
94777,-100,4,1,44,100,0,1
94863,-100,4,1,44,90,0,0
95463,-100,4,1,44,100,0,1
95549,-100,4,1,44,90,0,0
96149,-100,4,1,44,100,0,1
96234,-100,4,1,44,90,0,0
96834,-100,4,1,44,100,0,1
96920,-100,4,1,44,90,0,0
97520,-25,4,1,21,100,0,1
97606,-25,4,1,21,100,0,0
98549,-100,4,1,34,100,0,1
98634,-100,4,1,34,100,0,0
98892,-100,4,1,48,100,0,1
99063,-100,4,1,22,100,0,1
100263,-100,4,1,22,100,0,0
101634,-100,4,1,22,100,0,1
103006,-100,4,1,22,100,0,0
104377,-100,4,1,22,100,0,1
105749,-100,4,1,89,100,0,0
105770,-100,4,1,22,50,0,0
106092,-100,4,1,22,100,0,0
106113,-100,4,1,22,50,0,0
106263,-100,4,1,22,100,0,0
106284,-100,4,1,22,50,0,0
106434,-100,4,1,22,100,0,0
106456,-100,4,1,22,50,0,0
106520,-100,4,1,22,100,0,0
106542,-100,4,1,22,50,0,0
106606,-100,4,1,22,100,0,0
106627,-100,4,1,22,50,0,0
106692,-100,4,1,22,100,0,0
106713,-100,4,1,22,50,0,0
106777,-100,4,1,22,70,0,1
106863,-100,4,1,22,100,0,0
107120,-100,4,1,22,100,0,1
107206,-100,4,1,22,100,0,0
107463,-100,4,1,22,100,0,1
107549,-100,4,1,22,100,0,0
107806,-100,4,1,22,100,0,1
107892,-100,4,1,22,100,0,0
108149,-100,4,1,22,100,0,1
108234,-100,4,1,22,100,0,0
108492,-100,4,1,22,100,0,1
112520,-100,4,1,22,100,0,0
112606,-100,4,1,22,100,0,1
113892,-100,4,1,22,100,0,0
113977,-100,4,1,22,100,0,1
115263,-100,4,1,22,100,0,0
115349,-100,4,1,22,100,0,1
116634,-100,4,1,22,100,0,0
116720,-45.4545454545455,4,1,22,100,0,1
116806,-100,4,1,22,100,0,0
117063,-100,4,1,98,100,0,1
117149,-100,4,1,98,30,0,0
118092,-100,4,1,98,20,0,0
118606,-100,4,1,98,15,0,0
118777,-100,4,1,98,13,0,0
118949,-100,4,1,98,11,0,0
119120,-100,4,1,98,9,0,0
119292,-100,4,1,98,7,0,0
119463,-100,4,1,98,5,0,1
119549,-100,4,1,98,5,0,0

[Colours]
Combo1 : 85,85,85
Combo2 : 170,55,0
Combo3 : 128,64,0
Combo4 : 128,0,0

[HitObjects]
254,195,2892,5,4,0:0:0:0:
254,191,3149,1,0,2:0:0:0:
257,195,3234,1,8,0:0:0:0:
256,192,3577,1,2,0:2:0:0:
250,192,3834,1,0,2:0:0:0:
256,192,3920,1,8,0:0:0:0:
255,190,4263,1,2,0:2:0:0:
255,196,4520,1,0,2:0:0:0:
254,189,4606,1,8,0:0:0:0:
256,192,4949,1,2,0:2:0:0:
250,192,5206,1,0,2:0:0:0:
254,192,5292,1,8,0:0:0:0:
254,190,5634,1,2,0:2:0:0:
254,191,5892,1,0,2:0:0:0:
257,195,5977,1,8,0:0:0:0:
256,192,6320,1,2,0:2:0:0:
250,192,6577,1,0,2:0:0:0:
256,192,6663,1,8,0:0:0:0:
255,190,7006,1,2,0:2:0:0:
258,189,7349,1,8,0:0:0:0:
258,189,7692,1,2,0:2:0:0:
258,189,8034,1,8,0:0:0:0:
255,189,8377,1,2,0:2:0:0:
255,192,8720,1,8,0:0:0:0:
258,192,9063,1,2,0:2:0:0:
258,189,9406,1,8,0:0:0:0:
255,189,9749,1,2,0:2:0:0:
258,189,10092,1,8,0:0:0:0:
257,193,10434,1,2,0:2:0:0:
258,189,10777,1,8,0:0:0:0:
257,193,10949,1,2,0:2:0:0:
257,192,11120,1,2,0:2:0:0:
258,189,11463,1,8,0:0:0:0:
257,194,11806,1,2,0:2:0:0:
258,189,12149,1,8,0:0:0:0:
253,191,12492,1,2,0:2:0:0:
253,191,12834,1,2,0:2:0:0:
253,191,13006,1,2,0:2:0:0:
255,191,13177,1,2,0:2:0:0:
256,194,13520,1,8,0:0:0:0:
256,189,13692,1,4,3:0:0:0:
256,193,13863,1,4,0:0:0:0:
256,193,14206,1,8,1:0:0:0:
253,192,14549,1,4,3:0:0:0:
256,193,14892,1,8,0:0:0:0:
253,192,15234,1,4,3:0:0:0:
256,193,15577,1,8,0:0:0:0:
253,192,15920,1,4,3:0:0:0:
256,193,16263,1,8,0:0:0:0:
253,192,16606,1,4,3:0:0:0:
256,193,16949,1,8,0:0:0:0:
253,192,17292,1,4,3:0:0:0:
256,193,17635,1,8,0:0:0:0:
253,192,17977,1,4,3:0:0:0:
256,193,18320,1,8,0:0:0:0:
253,192,18663,1,4,3:0:0:0:
256,193,19006,1,8,3:1:0:0:
253,192,19349,1,4,3:1:0:0:
255,189,19520,1,4,3:0:0:0:
255,189,19606,1,4,3:0:0:0:
256,193,19692,1,8,0:0:0:0:
255,189,19863,1,4,3:0:0:0:
255,189,19949,1,4,3:0:0:0:
253,192,20035,1,4,3:0:0:0:
255,189,20206,1,4,3:0:0:0:
255,189,20292,1,4,3:0:0:0:
256,193,20378,1,8,0:0:0:0:
255,189,20549,1,4,3:0:0:0:
255,189,20635,1,4,3:0:0:0:
253,192,20720,1,4,3:1:0:0:
255,189,20892,1,4,3:0:0:0:
255,189,20978,1,4,3:0:0:0:
256,193,21063,1,8,0:0:0:0:
255,189,21234,1,4,3:0:0:0:
255,189,21320,1,4,3:0:0:0:
253,192,21406,1,4,3:0:0:0:
255,189,21577,1,4,3:0:0:0:
255,189,21663,1,4,3:0:0:0:
256,193,21749,1,8,0:0:0:0:
255,189,21920,1,4,3:0:0:0:
255,189,22006,1,4,3:0:0:0:
253,192,22092,1,4,3:1:0:0:
255,189,22263,1,4,3:0:0:0:
255,189,22349,1,4,3:0:0:0:
256,193,22435,1,8,0:0:0:0:
255,189,22606,1,4,3:0:0:0:
255,189,22692,1,4,3:0:0:0:
253,192,22778,1,4,3:0:0:0:
255,189,22949,1,4,3:0:0:0:
255,189,23035,1,4,3:0:0:0:
256,193,23121,1,12,0:0:0:0:
259,195,23292,1,4,3:0:0:0:
259,195,23377,1,4,3:0:0:0:
257,192,23463,1,8,2:2:0:0:
259,195,23549,1,4,3:0:0:0:
259,195,23634,1,4,3:0:0:0:
259,195,23720,1,4,3:0:0:0:
255,193,23806,1,8,2:2:0:0:
259,195,23892,1,4,3:0:0:0:
255,193,23977,1,4,3:0:0:0:
259,195,24063,1,4,3:0:0:0:
256,194,24149,1,8,2:2:0:0:
259,195,24234,1,4,3:0:0:0:
256,194,24320,1,8,2:2:0:0:
259,195,24406,1,4,3:0:0:0:
254,191,24492,1,12,2:2:0:0:
252,191,24834,1,4,0:0:0:0:
255,191,25520,1,8,0:0:0:0:
252,191,26034,1,4,3:0:0:0:
254,194,26206,1,4,3:0:0:0:
258,193,26720,1,4,3:0:0:0:
255,191,26892,1,8,0:0:0:0:
255,193,27577,1,4,3:0:0:0:
255,193,27663,1,4,3:0:0:0:
255,193,27749,1,4,3:0:0:0:
255,193,27834,1,4,3:0:0:0:
255,194,27920,1,8,0:0:0:0:
255,193,28006,1,4,3:0:0:0:
255,193,28092,1,4,3:0:0:0:
255,193,28177,1,4,3:0:0:0:
255,194,28263,1,8,0:0:0:0:
255,193,28435,1,4,3:0:0:0:
255,193,28520,1,4,3:0:0:0:
257,190,28606,1,8,0:0:0:0:
256,192,28949,1,4,0:0:0:0:
255,189,29292,1,8,0:0:0:0:
253,191,29463,1,4,3:0:0:0:
256,194,29806,1,8,0:0:0:0:
255,192,29977,1,4,3:0:0:0:
257,192,30149,1,12,0:0:0:0:
255,192,30492,1,4,3:0:0:0:
256,194,30663,1,8,0:0:0:0:
253,193,30834,1,8,0:0:0:0:
256,190,31177,1,4,3:0:0:0:
256,190,31263,1,4,3:0:0:0:
256,190,31349,1,8,0:0:0:0:
256,193,31692,1,4,0:0:0:0:
256,193,32377,1,8,0:0:0:0:
257,192,32892,1,4,3:0:0:0:
256,192,33063,1,4,3:0:0:0:
253,193,33749,1,4,0:0:0:0:
254,192,34434,1,4,0:0:0:0:
256,190,34948,1,4,3:0:0:0:
256,190,35034,1,4,3:0:0:0:
256,190,35120,1,8,0:0:0:0:
256,190,35292,1,4,3:0:0:0:
256,190,35378,1,4,3:0:0:0:
256,190,35464,1,8,0:0:0:0:
255,193,35806,1,4,0:0:0:0:
254,192,36149,1,8,0:0:0:0:
257,193,36320,1,4,3:0:0:0:
254,192,36663,1,8,0:0:0:0:
257,193,36834,1,4,3:0:0:0:
254,192,37006,1,12,0:0:0:0:
257,193,37349,1,4,3:0:0:0:
254,192,37520,1,8,0:0:0:0:
254,192,37692,1,12,0:0:0:0:
256,190,38034,1,4,0:0:0:0:
256,194,38549,1,4,0:0:0:0:
256,194,39234,1,8,0:0:0:0:
256,194,39749,1,4,3:0:0:0:
257,194,39920,1,4,3:0:0:0:
251,193,40434,1,4,3:0:0:0:
256,194,40606,1,4,0:0:0:0:
257,194,41292,1,4,0:0:0:0:
254,191,41977,1,8,0:0:0:0:
255,190,42663,1,4,0:0:0:0:
257,192,42834,1,0,2:0:0:0:
254,194,43006,1,2,0:0:0:0:
259,194,43177,1,0,2:0:0:0:
254,194,43349,1,2,0:0:0:0:
259,194,43520,1,0,2:0:0:0:
254,194,43692,1,2,0:0:0:0:
259,194,43863,1,0,2:0:0:0:
255,192,44034,1,2,0:0:0:0:
259,194,44206,1,0,2:0:0:0:
254,194,44377,1,2,0:0:0:0:
259,194,44549,1,0,2:0:0:0:
254,194,44720,1,2,0:0:0:0:
259,194,44892,1,0,2:0:0:0:
254,194,45063,1,2,0:0:0:0:
259,194,45234,1,0,2:0:0:0:
255,192,45406,1,2,2:0:0:0:
254,194,45749,1,2,0:0:0:0:
254,194,46092,1,2,0:0:0:0:
255,193,46434,1,2,1:0:0:0:
256,191,46777,1,4,0:0:0:0:
254,189,47120,1,4,3:0:0:0:
256,193,47463,1,4,3:0:0:0:
256,193,47806,1,4,3:0:0:0:
256,193,48149,1,4,3:0:0:0:
256,193,48492,1,4,3:0:0:0:
256,193,48834,1,4,3:0:0:0:
256,193,49177,1,4,3:0:0:0:
256,193,49520,1,4,3:0:0:0:
256,193,49863,1,4,3:0:0:0:
256,193,50206,1,4,3:0:0:0:
256,193,50549,1,4,3:0:0:0:
256,193,50892,1,4,3:0:0:0:
255,192,51234,1,4,3:0:0:0:
255,192,51577,1,4,3:0:0:0:
257,194,51749,1,4,3:0:0:0:
257,194,51834,1,4,3:0:0:0:
257,194,51920,1,8,0:0:0:0:
255,191,52263,1,4,0:0:0:0:
255,191,52434,1,4,3:0:0:0:
254,192,52606,1,4,3:0:0:0:
254,192,52777,1,4,3:0:0:0:
254,192,52949,1,4,3:0:0:0:
254,192,53120,1,4,3:0:0:0:
253,192,53292,1,4,3:0:0:0:
253,192,53463,1,4,3:0:0:0:
253,192,53634,1,4,0:0:0:0:
253,192,53806,1,4,3:0:0:0:
253,192,53977,1,4,3:0:0:0:
253,192,54149,1,4,3:0:0:0:
253,192,54320,1,4,3:0:0:0:
253,192,54491,1,4,3:0:0:0:
253,192,54663,1,4,3:0:0:0:
253,192,54834,1,4,3:0:0:0:
255,192,55006,1,4,0:0:0:0:
255,190,55092,1,4,3:0:0:0:
253,192,55177,1,4,3:0:0:0:
253,192,55263,1,4,3:0:0:0:
253,192,55349,1,4,3:0:0:0:
253,192,55434,1,4,3:0:0:0:
253,192,55520,1,4,3:0:0:0:
253,192,55606,1,4,3:0:0:0:
253,192,55692,1,4,3:0:0:0:
253,192,55777,1,4,3:0:0:0:
253,192,55863,1,4,3:0:0:0:
253,192,55949,1,4,3:0:0:0:
253,192,56034,1,4,3:0:0:0:
253,192,56120,1,4,3:0:0:0:
253,192,56206,1,4,3:0:0:0:
253,192,56292,1,4,3:0:0:0:
255,191,56377,1,4,2:0:0:0:
255,187,56634,1,8,0:0:0:0:
256,194,56720,1,8,0:0:0:0:
256,194,56806,1,8,0:0:0:0:
256,194,56892,1,8,0:0:0:0:
257,189,56977,1,8,0:0:0:0:
253,191,57063,1,4,0:0:0:0:
253,191,57234,1,4,0:0:0:0:
253,191,57406,1,4,0:0:0:0:
253,191,57577,1,4,0:0:0:0:
255,191,57749,1,4,0:0:0:0:
257,192,57920,1,2,2:0:0:0:
255,194,58092,1,2,2:0:0:0:
257,192,58263,1,2,2:0:0:0:
257,194,58434,1,8,0:0:0:0:
257,192,58606,1,2,2:0:0:0:
255,194,58777,1,2,2:0:0:0:
257,191,58949,1,4,3:0:0:0:
257,191,59120,1,4,3:0:0:0:
257,188,59634,1,4,3:0:0:0:
257,188,59720,1,4,3:0:0:0:
257,194,59806,1,8,0:0:0:0:
259,192,59977,1,4,3:0:0:0:
259,192,60034,1,4,3:0:0:0:
259,192,60092,1,4,3:0:0:0:
255,191,60149,1,4,3:0:0:0:
255,190,60492,1,4,0:0:0:0:
256,191,60663,1,2,2:0:0:0:
256,191,60834,1,2,2:0:0:0:
256,191,61006,1,2,2:0:0:0:
257,194,61177,1,8,0:0:0:0:
256,191,61349,1,2,2:0:0:0:
256,191,61520,1,2,2:0:0:0:
256,191,61692,1,2,2:0:0:0:
257,194,61863,1,4,3:0:0:0:
254,191,62549,1,8,0:0:0:0:
256,192,62892,1,4,3:0:0:0:
257,191,63063,1,4,3:0:0:0:
254,191,63234,1,4,0:0:0:0:
256,191,63406,1,2,2:0:0:0:
256,191,63577,1,2,2:0:0:0:
256,191,63749,1,2,2:0:0:0:
257,194,63920,1,8,0:0:0:0:
256,191,64092,1,2,2:0:0:0:
256,191,64263,1,2,2:0:0:0:
256,191,64435,1,2,2:0:0:0:
257,194,64606,1,4,0:0:0:0:
254,190,65292,1,8,0:0:0:0:
255,190,65634,1,4,3:0:0:0:
256,192,65977,1,4,0:0:0:0:
252,190,66149,1,2,2:0:0:0:
252,190,66320,1,0,2:0:0:0:
257,191,66492,1,4,3:0:0:0:
257,191,66577,1,4,3:0:0:0:
257,191,66663,1,8,0:0:0:0:
257,191,66749,1,4,3:0:0:0:
256,192,66834,1,8,0:0:0:0:
256,192,66920,1,8,0:0:0:0:
258,194,67006,1,12,0:0:0:0:
255,192,67349,1,4,1:0:0:0:
256,190,67692,1,8,1:0:0:0:
253,191,68034,1,4,3:0:0:0:
256,190,68377,1,8,1:0:0:0:
253,191,68720,1,4,3:0:0:0:
256,190,69063,1,8,1:0:0:0:
253,191,69406,1,4,3:0:0:0:
256,190,69749,1,8,1:0:0:0:
256,193,70092,1,6,0:0:0:0:
256,190,70434,1,8,1:0:0:0:
253,191,70777,1,4,3:0:0:0:
256,190,71120,1,8,1:0:0:0:
253,191,71463,1,4,3:0:0:0:
256,190,71806,1,8,1:0:0:0:
253,191,72149,1,4,3:0:0:0:
256,190,72492,1,8,1:0:0:0:
254,192,72834,1,4,0:0:0:0:
256,195,73177,1,4,3:0:0:0:
254,192,73520,1,4,0:0:0:0:
256,195,73863,1,4,3:0:0:0:
254,192,74206,1,6,0:0:0:0:
256,190,74549,1,8,1:0:0:0:
253,191,74892,1,4,0:0:0:0:
256,190,75235,1,8,1:0:0:0:
256,193,75577,1,4,3:0:0:0:
256,190,75920,1,8,1:0:0:0:
253,191,76263,1,4,3:0:0:0:
256,190,76606,1,8,1:0:0:0:
254,192,76949,1,4,0:0:0:0:
256,195,77292,1,8,1:0:0:0:
254,192,77635,1,4,0:0:0:0:
256,195,77977,1,8,1:0:0:0:
254,192,78320,1,4,0:0:0:0:
256,190,78663,1,8,1:0:0:0:
253,191,79006,1,4,3:0:0:0:
256,190,79349,1,8,1:0:0:0:
255,193,79692,1,4,3:0:0:0:
256,190,80034,1,8,1:0:0:0:
253,191,80377,1,4,3:0:0:0:
256,190,80720,1,8,1:0:0:0:
255,194,81063,1,4,0:0:0:0:
254,192,81406,1,4,0:0:0:0:
254,192,81749,1,4,0:0:0:0:
254,192,82092,1,6,0:0:0:0:
258,193,82263,1,4,3:0:0:0:
254,192,82434,1,4,0:0:0:0:
256,195,82777,1,8,1:0:0:0:
258,194,82949,1,4,3:0:0:0:
255,191,83120,1,4,0:0:0:0:
255,191,83463,1,4,0:0:0:0:
258,194,83634,1,4,3:0:0:0:
254,193,83806,1,4,0:0:0:0:
256,194,84149,1,8,1:0:0:0:
256,189,84320,1,4,3:0:0:0:
256,192,84492,1,4,0:0:0:0:
256,192,84834,1,4,0:0:0:0:
256,192,85177,1,4,0:0:0:0:
256,189,85349,1,4,3:0:0:0:
256,189,85434,1,4,3:0:0:0:
255,194,85520,1,4,0:0:0:0:
257,193,85863,1,4,3:0:0:0:
257,193,86034,1,4,3:0:0:0:
257,193,86120,1,4,3:0:0:0:
255,194,86206,1,4,0:0:0:0:
254,194,86549,1,4,3:0:0:0:
254,194,86720,1,4,3:0:0:0:
254,194,86892,1,4,3:0:0:0:
254,194,87063,1,4,3:0:0:0:
254,194,87234,1,4,3:0:0:0:
257,194,87320,1,4,3:0:0:0:
254,194,87406,1,4,3:0:0:0:
257,194,87492,1,4,3:0:0:0:
254,194,87577,1,4,3:0:0:0:
254,194,87748,1,4,3:0:0:0:
255,191,87920,1,4,0:0:0:0:
257,192,88263,1,4,3:0:0:0:
257,192,88606,1,4,3:0:0:0:
257,194,88949,1,4,3:0:0:0:
257,193,89292,1,4,3:0:0:0:
257,195,89634,1,4,3:0:0:0:
257,195,89977,1,4,3:0:0:0:
257,195,90320,1,4,3:0:0:0:
257,195,90663,1,4,3:0:0:0:
257,195,91006,1,4,3:0:0:0:
257,195,91349,1,4,3:0:0:0:
257,195,91692,1,4,3:0:0:0:
257,195,92034,1,4,3:0:0:0:
257,195,92377,1,4,3:0:0:0:
257,195,92720,1,4,3:0:0:0:
257,195,92892,1,4,3:0:0:0:
257,195,92977,1,4,3:0:0:0:
257,195,93063,1,8,0:0:0:0:
257,193,93406,1,4,1:0:0:0:
257,191,93577,1,4,3:0:0:0:
257,191,93749,1,4,3:0:0:0:
257,191,93920,1,4,3:0:0:0:
257,191,94092,1,4,3:0:0:0:
257,191,94263,1,4,3:0:0:0:
257,191,94434,1,4,3:0:0:0:
257,191,94606,1,4,3:0:0:0:
257,191,94777,1,4,1:0:0:0:
257,191,94949,1,4,3:0:0:0:
257,191,95120,1,4,3:0:0:0:
257,191,95292,1,4,3:0:0:0:
257,191,95463,1,4,3:0:0:0:
257,191,95634,1,4,3:0:0:0:
257,191,95806,1,4,3:0:0:0:
257,191,95977,1,4,3:0:0:0:
257,191,96149,1,4,3:0:0:0:
257,191,96234,1,4,3:0:0:0:
257,191,96320,1,4,3:0:0:0:
257,191,96406,1,4,3:0:0:0:
257,191,96492,1,4,3:0:0:0:
257,192,96577,1,4,3:0:0:0:
257,192,96663,1,4,3:0:0:0:
257,192,96749,1,4,3:0:0:0:
257,192,96834,1,4,3:0:0:0:
257,192,96920,1,4,3:0:0:0:
258,193,97006,1,4,3:0:0:0:
258,193,97092,1,4,3:0:0:0:
258,192,97177,1,4,3:0:0:0:
257,192,97263,1,4,3:0:0:0:
257,192,97349,1,4,3:0:0:0:
257,192,97434,1,4,3:0:0:0:
258,193,97520,1,4,1:0:0:0:
258,193,98549,1,4,0:0:0:0:
255,194,98892,1,4,0:0:0:0:
257,192,99063,1,2,2:0:0:0:
255,194,99235,1,8,0:0:0:0:
257,192,99406,1,2,2:0:0:0:
257,194,99577,1,2,0:0:0:0:
257,192,99749,1,4,3:0:0:0:
255,194,99920,1,8,0:0:0:0:
257,191,100092,1,4,3:0:0:0:
257,191,100263,1,4,3:0:0:0:
252,193,100434,1,4,3:0:0:0:
254,190,100606,1,8,0:0:0:0:
252,193,100777,1,4,3:0:0:0:
257,194,100949,1,2,2:0:0:0:
252,193,101120,1,4,3:0:0:0:
256,191,101292,1,8,0:0:0:0:
255,194,101463,1,4,3:0:0:0:
255,190,101635,1,4,0:0:0:0:
256,191,101806,1,2,2:0:0:0:
256,191,101977,1,8,0:0:0:0:
256,191,102149,1,2,2:0:0:0:
257,194,102320,1,2,2:0:0:0:
256,191,102492,1,4,3:0:0:0:
256,191,102663,1,8,0:0:0:0:
256,191,102835,1,2,2:0:0:0:
257,194,103006,1,4,0:0:0:0:
254,193,103177,1,4,3:0:0:0:
256,194,103349,1,8,0:0:0:0:
256,194,103520,1,4,3:0:0:0:
254,191,103692,1,2,2:0:0:0:
252,187,103777,1,2,2:0:0:0:
256,194,103863,1,4,3:0:0:0:
254,191,103949,1,2,2:0:0:0:
256,192,104035,1,8,0:0:0:0:
254,191,104120,1,2,2:0:0:0:
256,189,104206,1,4,3:0:0:0:
254,191,104292,1,2,2:0:0:0:
255,194,104377,1,4,0:0:0:0:
257,192,104548,1,2,2:0:0:0:
255,194,104720,1,8,0:0:0:0:
257,192,104891,1,2,2:0:0:0:
257,194,105062,1,2,2:0:0:0:
257,192,105234,1,4,3:0:0:0:
255,194,105405,1,8,0:0:0:0:
257,191,105577,1,4,3:0:0:0:
257,194,105749,1,4,0:0:0:0:
259,193,106092,1,8,0:0:0:0:
258,194,106263,1,8,0:0:0:0:
258,194,106434,1,8,0:0:0:0:
257,190,106606,1,4,3:0:0:0:
254,192,106777,1,4,0:0:0:0:
257,192,107120,1,4,0:0:0:0:
257,194,107206,1,4,3:0:0:0:
257,194,107292,1,4,3:0:0:0:
257,194,107377,1,4,3:0:0:0:
257,194,107463,1,8,0:0:0:0:
257,194,107549,1,4,3:0:0:0:
257,194,107635,1,4,3:0:0:0:
257,194,107720,1,4,3:0:0:0:
257,194,107806,1,8,0:0:0:0:
257,194,107892,1,4,3:0:0:0:
257,194,107978,1,4,3:0:0:0:
257,194,108063,1,4,3:0:0:0:
257,194,108149,1,8,0:0:0:0:
257,194,108234,1,4,3:0:0:0:
257,194,108320,1,4,3:0:0:0:
257,194,108405,1,4,3:0:0:0:
254,191,108492,1,4,0:0:0:0:
255,193,108663,1,2,2:0:0:0:
254,194,108834,1,8,0:0:0:0:
253,195,109006,1,4,3:0:0:0:
255,193,109177,1,2,2:0:0:0:
253,195,109349,1,4,3:0:0:0:
254,194,109521,1,8,0:0:0:0:
255,193,109692,1,2,2:0:0:0:
257,191,109863,1,4,3:0:0:0:
253,195,110034,1,4,3:0:0:0:
254,194,110206,1,8,0:0:0:0:
255,192,110377,1,4,3:0:0:0:
258,194,110549,1,2,2:0:0:0:
253,195,110720,1,4,3:0:0:0:
254,194,110892,1,8,0:0:0:0:
256,193,111063,1,4,3:0:0:0:
256,193,111234,1,4,3:0:0:0:
256,193,111406,1,4,3:0:0:0:
256,193,111492,1,4,3:0:0:0:
257,192,111577,1,8,0:0:0:0:
256,193,111749,1,4,3:0:0:0:
256,193,111835,1,4,3:0:0:0:
257,192,111920,1,8,0:0:0:0:
256,193,112092,1,4,3:0:0:0:
256,193,112178,1,4,3:0:0:0:
257,192,112263,1,8,0:0:0:0:
257,194,112434,1,8,0:0:0:0:
254,193,112606,1,4,0:0:0:0:
257,189,112777,1,2,2:0:0:0:
258,193,112949,1,8,0:0:0:0:
258,192,113120,1,4,3:0:0:0:
257,189,113292,1,2,2:0:0:0:
258,192,113463,1,4,3:0:0:0:
258,193,113634,1,8,0:0:0:0:
257,189,113806,1,2,2:0:0:0:
254,193,113977,1,4,0:0:0:0:
258,192,114149,1,4,3:0:0:0:
258,193,114320,1,8,0:0:0:0:
256,191,114492,1,4,3:0:0:0:
257,189,114663,1,2,2:0:0:0:
256,191,114834,1,4,3:0:0:0:
256,191,115006,1,8,0:0:0:0:
256,191,115177,1,4,3:0:0:0:
254,193,115349,1,12,0:0:0:0:
256,193,115520,1,4,3:0:0:0:
256,193,115606,1,4,3:0:0:0:
257,192,115691,1,8,0:0:0:0:
256,193,115863,1,4,3:0:0:0:
256,193,115949,1,4,3:0:0:0:
257,192,116034,1,8,0:0:0:0:
256,193,116206,1,4,3:0:0:0:
256,193,116292,1,4,3:0:0:0:
257,192,116377,1,8,0:0:0:0:
254,190,116549,1,4,3:0:0:0:
255,193,116720,1,4,0:0:0:0:
254,193,117063,1,4,0:0:0:0:
256,192,117149,12,0,117170,0:0:0:0:
256,192,117192,12,0,117213,0:0:0:0:
256,192,117234,12,0,117256,0:0:0:0:
256,192,117277,12,0,117298,0:0:0:0:
256,192,117320,12,0,117341,0:0:0:0:
256,192,117362,12,0,117383,0:0:0:0:
256,192,117406,12,0,117427,0:0:0:0:
256,192,117449,12,0,117470,0:0:0:0:
256,192,117491,12,0,117512,0:0:0:0:
256,192,117534,12,0,117555,0:0:0:0:
256,192,117577,12,0,117599,0:0:0:0:
256,192,117619,12,0,117642,0:0:0:0:
256,192,117663,12,0,117684,0:0:0:0:
256,192,117706,12,0,117727,0:0:0:0:
256,192,117748,12,0,117769,0:0:0:0:
256,192,117792,12,0,117813,0:0:0:0:
256,192,117835,12,0,117856,0:0:0:0:
256,192,117877,12,0,117898,0:0:0:0:
256,192,117920,12,0,117941,0:0:0:0:
256,192,117963,12,0,117984,0:0:0:0:
256,192,118005,12,0,118026,0:0:0:0:
256,192,118049,12,0,118070,0:0:0:0:
256,192,118092,12,0,118134,0:0:0:0:
256,192,118177,12,0,118219,0:0:0:0:
256,192,118263,12,0,118305,0:0:0:0:
256,192,118349,12,0,118391,0:0:0:0:
256,192,118434,12,0,118476,0:0:0:0:
256,192,118520,12,0,118562,0:0:0:0:
256,192,118606,12,0,118692,0:0:0:0:
256,192,118777,12,0,118863,0:0:0:0:
256,192,118949,12,0,119035,0:0:0:0:
256,192,119120,12,0,119206,0:0:0:0:
256,192,119292,12,0,119463,0:0:0:0:
