osu file format v14

[General]
AudioFilename: audio.mp3
AudioLeadIn: 0
PreviewTime: 56378
Countdown: 0
SampleSet: None
StackLeniency: 0.7
Mode: 2
LetterboxInBreaks: 0
WidescreenStoryboard: 0

[Editor]
DistanceSpacing: 1.2
BeatDivisor: 16
GridSize: 32
TimelineZoom: 5.600002

[Metadata]
Title:Avalanche
TitleUnicode:Avalanche
Artist:Memme
ArtistUnicode:Memme
Creator:GIGACHAD
Version:Deluge
Source:Pump It Up Prime
Tags:rhythm video game electronic instrumental classic melodia drumstep antonio vivaldi the four seasons winter
BeatmapID:4566859
BeatmapSetID:2165000

[Difficulty]
HPDrainRate:4
CircleSize:4.5
OverallDifficulty:9.8
ApproachRate:9.8
SliderMultiplier:2.2
SliderTickRate:2

[Events]
//Background and Video events
0,0,"72966357_p0.jpg",0,0
//Break Periods
//Storyboard Layer 0 (Background)
//Storyboard Layer 1 (Fail)
//Storyboard Layer 2 (Pass)
//Storyboard Layer 3 (Foreground)
//Storyboard Layer 4 (Overlay)
//Storyboard Sound Samples

[TimingPoints]
150,342.857142857143,4,1,1,20,1,0
1521,-100,4,1,1,30,0,0
2035,-100,4,1,1,40,0,0
2207,-100,4,1,1,50,0,0
2378,-100,4,1,1,60,0,0
2550,-100,4,1,1,70,0,0
2721,-100,4,1,1,80,0,0
2892,342.857142857143,4,1,1,70,1,1
2977,-100,4,1,1,70,0,0
5634,-100,4,1,1,75,0,1
5720,-100,4,1,1,75,0,0
7006,-100,4,1,1,80,0,1
7092,-100,4,1,1,80,0,0
11120,-100,4,1,1,85,0,1
11206,-100,4,1,1,85,0,0
13520,-100,4,1,11,92,0,0
13863,-100,4,1,11,100,0,1
13949,-100,4,1,11,50,0,0
16606,-100,4,1,11,70,0,1
16692,-100,4,1,11,60,0,0
19349,-100,4,1,11,80,0,1
19434,-100,4,1,11,70,0,0
20720,-100,4,1,11,90,0,1
20806,-100,4,1,11,80,0,0
22092,-100,4,1,11,100,0,1
22177,-100,4,1,11,90,0,0
24492,-100,4,1,11,100,0,1
24577,-100,4,1,11,100,0,0
24834,-100,4,1,22,100,0,1
24920,-100,4,1,22,80,0,0
25520,-100,4,1,22,100,0,1
28606,-100,4,1,22,50,0,0
28949,-100,4,1,22,80,0,1
29034,-100,4,1,22,70,0,0
31692,-100,4,1,22,80,0,1
31777,-100,4,1,22,70,0,0
32377,-100,4,1,22,100,0,1
33749,-100,4,1,34,100,0,1
33834,-100,4,1,22,100,0,1
35463,-100,4,1,22,50,0,0
35806,-100,4,1,22,100,0,1
35892,-100,4,1,22,70,0,0
38034,-100,4,1,34,80,0,0
38077,-100,4,1,34,70,0,0
38120,-100,4,1,22,70,0,0
38549,-100,4,1,22,80,0,1
38634,-100,4,1,22,70,0,0
39234,-100,4,1,22,100,0,1
40606,-100,4,1,34,100,0,1
40692,-100,4,1,22,100,0,1
42320,-100,4,1,22,100,0,0
42663,-100,4,1,11,70,0,1
42749,-100,4,3,12,70,0,0
44034,-100,4,3,12,80,0,1
44120,-100,4,3,12,80,0,0
44720,-100,4,3,12,80,0,1
44806,-100,4,3,12,80,0,0
45406,-100,4,3,12,90,0,1
45492,-100,4,3,12,90,0,0
45749,-100,4,3,12,90,0,1
45834,-100,4,3,12,90,0,0
46092,-100,4,3,12,90,0,1
46177,-100,4,3,12,90,0,0
46434,-100,4,3,11,90,0,1
46520,-100,4,3,12,90,0,0
46777,-100,4,1,11,100,0,1
46863,-100,4,1,44,70,0,0
49520,-100,4,1,44,80,0,1
49606,-100,4,1,44,80,0,0
50892,-100,4,1,44,90,0,1
50977,-100,4,1,44,90,0,0
51920,-100,4,1,44,70,0,1
52006,-100,4,1,44,70,0,0
52263,-100,4,1,11,100,0,1
52349,-100,4,1,44,80,0,0
52949,-100,4,1,44,100,0,1
53034,-100,4,1,44,80,0,0
53634,-100,4,1,11,100,0,1
53720,-100,4,1,44,80,0,0
54320,-100,4,1,44,100,0,1
54406,-100,4,1,44,80,0,0
55006,-100,4,1,11,100,0,1
55092,-100,4,1,44,80,0,0
55692,-100,4,1,44,100,0,1
55777,-100,4,1,44,80,0,0
56377,-100,4,1,55,100,0,1
56463,-100,4,1,55,100,0,0
56634,-100,4,1,44,90,0,0
57063,-100,4,1,55,100,0,1
57149,-100,4,1,55,100,0,0
57234,-100,4,1,55,100,0,1
57320,-100,4,1,55,100,0,0
57406,-100,4,1,55,100,0,1
57492,-100,4,1,55,100,0,0
57577,-100,4,1,55,100,0,1
57663,-100,4,1,55,100,0,0
57749,-100,4,1,48,100,0,1
57792,-100,4,1,48,100,0,1
57920,-100,4,1,22,100,0,1
59120,-100,4,1,22,100,0,0
60149,-41.6666666666667,4,1,22,100,0,1
60234,-100,4,1,22,100,0,0
60320,-100,4,1,22,100,0,0
60449,-100,4,1,22,100,0,0
60492,-100,4,1,22,100,0,1
61863,-100,4,1,22,100,0,0
62549,-41.6666666666667,4,1,22,100,0,1
62634,-100,4,1,22,100,0,0
62892,-100,4,1,22,100,0,0
63063,-100,4,1,22,100,0,0
63192,-100,4,1,22,100,0,0
63234,-100,4,1,22,100,0,1
64606,-100,4,1,22,100,0,0
65977,-100,4,1,22,100,0,1
66063,-100,4,1,22,100,0,0
67006,-100,4,1,22,100,0,1
67092,-100,4,1,22,100,0,0
67349,-100,4,2,11,80,0,1
67434,-100,4,2,11,70,0,0
70092,-100,4,2,11,80,0,1
70177,-100,4,2,11,70,0,0
72834,-100,4,2,69,90,0,1
72920,-100,4,2,11,80,0,0
73520,-100,4,2,70,90,0,1
73606,-100,4,2,11,80,0,0
74206,-100,4,2,11,90,0,1
74292,-100,4,2,11,80,0,0
76949,-100,4,2,69,90,0,1
77034,-100,4,2,11,80,0,0
77634,-100,4,2,70,90,0,1
77720,-100,4,2,11,80,0,0
78320,-100,4,2,11,90,0,1
78406,-100,4,1,11,80,0,0
81063,-100,4,1,11,100,0,1
81149,-100,4,1,11,90,0,0
81406,-100,4,2,69,100,0,1
81492,-100,4,2,11,90,0,0
81749,-100,4,2,70,100,0,1
81834,-100,4,2,11,90,0,0
82092,-100,4,2,69,100,0,1
82177,-100,4,2,11,90,0,0
82434,-100,4,2,11,100,0,1
82520,-100,4,2,11,90,0,0
83120,-100,4,2,70,100,0,1
83206,-100,4,2,11,90,0,0
83463,-100,4,2,69,100,0,1
83549,-100,4,2,11,90,0,0
83806,-100,4,2,11,100,0,1
83892,-100,4,2,11,90,0,0
84492,-100,4,2,69,100,0,1
84577,-100,4,2,11,90,0,0
84834,-100,4,2,70,100,0,1
84920,-100,4,2,11,90,0,0
85177,-100,4,2,11,100,0,1
85263,-100,4,2,11,90,0,0
85434,-100,4,2,11,90,0,0
85520,-100,4,2,11,100,0,1
85606,-100,4,2,11,90,0,0
86206,-100,4,2,11,100,0,1
86292,-100,4,2,11,90,0,0
86549,-100,4,2,11,100,0,1
86634,-100,4,2,11,90,0,0
87577,-100,4,2,11,50,0,1
87663,-100,4,2,11,90,0,0
87920,-100,4,1,44,100,0,1
88006,-100,4,1,44,90,0,0
90663,-100,4,1,44,100,0,1
90749,-100,4,1,44,90,0,0
92034,-100,4,1,44,100,0,1
92120,-100,4,1,44,90,0,0
93063,-100,4,1,44,50,0,1
93149,-100,4,1,44,90,0,0
93406,-100,4,1,44,100,0,1
93492,-100,4,1,44,90,0,0
94092,-100,4,1,44,100,0,1
94177,-100,4,1,44,90,0,0
94777,-100,4,1,44,100,0,1
94863,-100,4,1,44,90,0,0
95463,-100,4,1,44,100,0,1
95549,-100,4,1,44,90,0,0
96149,-100,4,1,44,100,0,1
96234,-100,4,1,44,90,0,0
96834,-100,4,1,44,100,0,1
96920,-100,4,1,44,90,0,0
97520,-25,4,1,21,100,0,1
97606,-25,4,1,21,100,0,0
98549,-100,4,1,34,100,0,1
98634,-100,4,1,34,100,0,0
98720,-100,4,1,34,100,0,0
98849,-100,4,1,34,100,0,0
98892,-100,4,1,48,100,0,1
99063,-100,4,1,22,100,0,1
100263,-100,4,1,22,100,0,0
101634,-100,4,1,22,100,0,1
103006,-100,4,1,22,100,0,0
104377,-100,4,1,22,100,0,1
105749,-100,4,1,89,100,0,0
105770,-100,4,1,22,50,0,0
106092,-100,4,1,22,100,0,0
106113,-100,4,1,22,50,0,0
106263,-100,4,1,22,100,0,0
106284,-100,4,1,22,50,0,0
106434,-100,4,1,22,100,0,0
106456,-100,4,1,22,50,0,0
106520,-100,4,1,22,100,0,0
106542,-100,4,1,22,50,0,0
106606,-100,4,1,22,100,0,0
106627,-100,4,1,22,50,0,0
106692,-100,4,1,22,100,0,0
106713,-100,4,1,22,50,0,0
106777,-100,4,1,22,70,0,1
106863,-100,4,1,22,100,0,0
107120,-100,4,1,22,100,0,1
107206,-100,4,1,22,100,0,0
107463,-100,4,1,22,100,0,1
107549,-100,4,1,22,100,0,0
107806,-100,4,1,22,100,0,1
107892,-100,4,1,22,100,0,0
108149,-100,4,1,22,100,0,1
108234,-100,4,1,22,100,0,0
108492,-100,4,1,22,100,0,1
112520,-100,4,1,22,100,0,0
112606,-100,4,1,22,100,0,1
113892,-100,4,1,22,100,0,0
113977,-100,4,1,22,100,0,1
115263,-100,4,1,22,100,0,0
115349,-100,4,1,22,100,0,1
116634,-100,4,1,22,100,0,0
116720,-45.4545454545455,4,1,22,100,0,1
116806,-100,4,1,22,100,0,0
117063,-100,4,1,98,100,0,1
117149,-100,4,1,98,30,0,0
118092,-100,4,1,98,20,0,0
118606,-100,4,1,98,15,0,0
118777,-100,4,1,98,13,0,0
118949,-100,4,1,98,11,0,0
119120,-100,4,1,98,9,0,0
119292,-100,4,1,98,7,0,0
119463,-100,4,1,98,5,0,1
119549,-100,4,1,98,5,0,0

[Colours]
Combo1 : 85,85,85
Combo2 : 170,55,0
Combo3 : 128,64,0
Combo4 : 128,0,0

[HitObjects]
256,192,492,12,0,750,0:0:0:0:
256,192,835,12,0,1092,0:0:0:0:
256,192,1178,12,0,1264,0:0:0:0:
256,192,1350,12,0,1436,0:0:0:0:
256,192,1521,12,0,1564,0:0:0:0:
256,192,1607,12,0,1650,0:0:0:0:
256,192,1692,12,0,1735,0:0:0:0:
256,192,1778,12,0,1821,0:0:0:0:
256,192,1864,12,0,1907,0:0:0:0:
256,192,1950,12,0,1993,0:0:0:0:
256,192,2035,12,0,2056,0:0:0:0:
256,192,2078,12,0,2099,0:0:0:0:
256,192,2121,12,0,2142,0:0:0:0:
256,192,2164,12,0,2185,0:0:0:0:
256,192,2206,12,0,2227,0:0:0:0:
256,192,2249,12,0,2270,0:0:0:0:
256,192,2292,12,0,2313,0:0:0:0:
256,192,2335,12,0,2356,0:0:0:0:
256,192,2378,12,0,2399,0:0:0:0:
256,192,2421,12,0,2442,0:0:0:0:
256,192,2464,12,0,2485,0:0:0:0:
256,192,2507,12,0,2528,0:0:0:0:
256,192,2549,12,0,2570,0:0:0:0:
256,192,2592,12,0,2613,0:0:0:0:
256,192,2635,12,0,2656,0:0:0:0:
256,192,2678,12,0,2721,0:0:0:0:
271,384,2892,6,0,L|293:212,1,165,4|0,0:0|2:0,0:0:0:0:
192,213,3234,1,8,0:0:0:0:
37,198,3406,1,0,0:0:0:0:
271,384,3577,6,0,L|293:212,1,165,2|0,0:2|2:0,0:0:0:0:
192,213,3919,1,8,0:0:0:0:
37,198,4091,1,0,0:0:0:0:
271,384,4263,6,0,L|293:212,1,165,2|0,0:2|2:0,0:0:0:0:
192,213,4605,1,8,0:0:0:0:
37,198,4777,1,0,0:0:0:0:
271,384,4949,6,0,L|293:212,1,165,2|0,0:2|2:0,0:0:0:0:
192,213,5291,1,8,0:0:0:0:
37,198,5463,1,0,0:0:0:0:
291,220,5634,5,2,0:2:0:0:
126,160,5806,1,0,0:0:0:0:
175,137,5891,1,0,2:0:0:0:
224,111,5977,1,8,0:0:0:0:
59,107,6149,1,0,0:0:0:0:
291,220,6320,5,2,0:2:0:0:
126,160,6492,1,0,0:0:0:0:
175,137,6577,1,0,2:0:0:0:
224,111,6663,1,8,0:0:0:0:
59,107,6835,1,0,0:0:0:0:
291,220,7006,6,0,L|300:152,1,55,2|0,0:2|0:0,0:0:0:0:
462,162,7177,6,0,L|398:157,2,55,0|0|8,0:0|0:0|0:0,0:0:0:0:
222,100,7520,6,0,L|286:95,2,55,0|0|2,0:0|0:0|0:2,0:0:0:0:
462,162,7863,6,0,L|398:157,2,55,0|0|8,0:0|0:0|0:0,0:0:0:0:
222,100,8206,6,0,L|286:95,2,55,0|0|2,0:0|0:0|0:2,0:0:0:0:
462,162,8549,6,0,L|398:157,2,55,0|0|8,0:0|0:0|0:0,0:0:0:0:
222,100,8892,6,0,L|286:95,2,55,0|0|2,0:0|0:0|0:2,0:0:0:0:
462,162,9234,6,0,L|398:157,2,55,0|0|8,0:0|0:0|0:0,0:0:0:0:
222,100,9577,6,0,L|286:95,2,55,0|0|2,0:0|0:0|0:2,0:0:0:0:
462,162,9920,6,0,L|398:157,1,55
222,100,10092,2,0,L|276:96,1,55,8|0,0:0|0:0,0:0:0:0:
462,162,10263,2,0,L|398:157,1,55
222,100,10434,6,0,L|109:91,1,110,2|0,0:2|0:0,0:0:0:0:
57,83,10692,1,0,0:0:0:0:
222,100,10777,2,0,L|335:91,1,110,8|2,0:0|0:2,0:0:0:0:
387,40,11035,1,0,0:0:0:0:
222,100,11120,6,0,L|391:86,1,165,2|0,0:2|0:0,0:0:0:0:
222,100,11463,2,0,L|213:172,1,55,8|0,0:0|0:0,0:0:0:0:
386,86,11634,2,0,L|395:158,1,55
222,100,11806,6,0,L|53:86,1,165,2|0,0:2|0:0,0:0:0:0:
222,100,12149,2,0,L|231:172,1,55,8|0,0:0|0:0,0:0:0:0:
58,86,12320,2,0,L|49:158,1,55
228,154,12492,6,0,L|282:150,1,55,2|0,0:2|0:0,0:0:0:0:
51,140,12663,2,0,L|105:136,1,55
282,149,12834,6,0,L|228:153,1,55,2|0,0:2|0:0,0:0:0:0:
461,140,13006,2,0,L|407:136,1,55,2|0,0:2|0:0,0:0:0:0:
228,154,13177,6,0,L|176:158,2,27.5,2|0|0,0:2|0:0|0:0,0:0:0:0:
345,140,13306,1,0,0:0:0:0:
461,140,13349,2,0,L|513:144,2,27.5
282,149,13520,6,0,L|228:153,1,55,8|0,0:0|0:0,0:0:0:0:
461,140,13692,1,4,3:0:0:0:
433,137,13734,1,0,0:0:0:0:
406,135,13777,1,0,0:0:0:0:
85,318,13863,6,0,P|39:260|99:198,1,165,4|0,0:0|0:0,0:0:0:0:
235,322,14206,2,0,L|245:243,1,55,8|0,1:0|0:0,0:0:0:0:
393,333,14377,2,0,L|403:254,1,55
85,318,14549,6,0,P|39:260|99:198,1,165,4|0,3:0|0:0,0:0:0:0:
252,321,14892,2,0,L|262:242,1,55,8|0,0:0|0:0,0:0:0:0:
421,333,15063,2,0,L|431:254,1,55
85,318,15234,6,0,P|39:260|99:198,1,165,4|0,3:0|0:0,0:0:0:0:
268,325,15577,2,0,L|278:246,1,55,8|0,0:0|0:0,0:0:0:0:
454,300,15748,2,0,L|464:221,1,55
85,318,15920,6,0,P|39:260|99:198,1,165,4|0,3:0|0:0,0:0:0:0:
283,241,16263,2,0,L|293:162,1,55,8|0,0:0|0:0,0:0:0:0:
489,339,16434,2,0,L|499:260,1,55
88,199,16606,5,4,3:0:0:0:
354,221,16777,2,0,L|299:217,1,55
88,199,16949,1,8,0:0:0:0:
354,221,17120,1,0,0:0:0:0:
88,199,17292,5,4,3:0:0:0:
388,161,17463,2,0,L|318:157,1,55
88,199,17635,1,8,0:0:0:0:
354,221,17806,1,0,0:0:0:0:
88,199,17977,5,4,3:0:0:0:
439,92,18148,2,0,L|369:88,1,55
88,199,18320,1,8,0:0:0:0:
354,221,18491,1,0,0:0:0:0:
126,163,18663,6,0,L|56:159,1,55,4|0,3:0|0:0,0:0:0:0:
316,185,18834,2,0,L|386:181,1,55
88,199,19006,2,0,L|18:195,1,55,8|0,3:1|0:0,0:0:0:0:
354,221,19177,2,0,L|424:217,1,55
88,199,19349,6,0,L|76:68,1,110,4|4,3:1|3:0,0:0:0:0:
256,91,19606,1,4,3:0:0:0:
88,199,19692,2,0,L|76:68,1,110,8|4,0:0|3:0,0:0:0:0:
256,91,19949,1,4,3:0:0:0:
88,199,20034,6,0,L|76:68,1,110,4|4,3:0|3:0,0:0:0:0:
256,91,20291,1,4,3:0:0:0:
88,199,20378,2,0,L|82:133,1,55,8|0,0:0|0:0,0:0:0:0:
256,91,20549,2,0,L|256:24,1,55,4|4,3:0|3:0,0:0:0:0:
424,199,20720,6,0,L|436:68,1,110,4|4,3:1|3:0,0:0:0:0:
256,91,20977,1,4,3:0:0:0:
424,199,21063,2,0,L|436:68,1,110,8|4,0:0|3:0,0:0:0:0:
256,91,21320,1,4,3:0:0:0:
424,199,21405,6,0,L|436:68,1,110,4|4,3:0|3:0,0:0:0:0:
256,91,21662,1,4,3:0:0:0:
424,199,21749,2,0,L|430:133,1,55,8|0,0:0|0:0,0:0:0:0:
256,91,21920,2,0,L|256:24,1,55,4|4,3:0|3:0,0:0:0:0:
83,180,22092,6,0,L|153:176,1,55,4|0,3:1|0:0,0:0:0:0:
277,121,22263,1,4,3:0:0:0:
416,111,22349,1,4,3:0:0:0:
69,143,22434,6,0,L|139:139,1,55,8|0,0:0|0:0,0:0:0:0:
263,84,22605,1,4,3:0:0:0:
402,74,22691,1,4,3:0:0:0:
53,92,22777,6,0,L|123:88,1,55,4|0,3:0|0:0,0:0:0:0:
247,33,22948,1,4,3:0:0:0:
386,23,23034,1,4,3:0:0:0:
45,69,23120,6,0,L|115:65,1,55,12|0,0:0|0:0,0:0:0:0:
239,10,23291,1,4,3:0:0:0:
378,0,23377,1,4,3:0:0:0:
83,180,23463,6,0,L|93:92,1,55,8|4,2:2|3:0,0:0:0:0:
238,269,23634,2,0,L|248:181,1,55,4|4,3:0|3:0,0:0:0:0:
395,269,23806,2,0,L|405:181,1,55,8|4,2:2|3:0,0:0:0:0:
83,180,23977,6,0,L|93:92,1,55,4|4,3:0|3:0,0:0:0:0:
238,269,24148,2,0,L|165:265,1,55,8|4,2:2|3:0,0:0:0:0:
334,156,24320,5,8,2:2:0:0:
362,159,24362,1,0,0:0:0:0:
389,162,24405,1,4,3:0:0:0:
416,165,24448,1,0,0:0:0:0:
89,125,24492,6,0,P|39:69|100:23,1,165,12|0,2:2|0:0,0:0:0:0:
354,30,24834,6,0,L|397:27,2,27.5,4|0|0,0:0|0:0|0:0,0:0:0:0:
223,32,24963,1,0,0:0:0:0:
94,22,25006,2,0,L|51:19,2,27.5
223,32,25134,1,0,0:0:0:0:
354,30,25177,6,0,L|381:28,2,27.5
223,32,25306,1,0,0:0:0:0:
94,22,25349,2,0,L|51:19,2,27.5
223,32,25477,1,0,0:0:0:0:
354,166,25520,6,0,L|360:106,1,55,8|0,0:0|0:0,0:0:0:0:
303,167,25692,2,0,L|309:107,1,55
253,163,25863,2,0,L|259:103,1,55
202,164,26035,2,0,L|208:104,1,55,4|0,3:0|0:0,0:0:0:0:
25,284,26206,6,0,L|31:224,1,55,4|0,3:0|0:0,0:0:0:0:
113,242,26377,2,0,L|119:182,1,55
202,279,26549,2,0,L|208:219,1,55
291,247,26720,2,0,L|297:187,1,55,4|0,3:0|0:0,0:0:0:0:
25,284,26892,6,0,L|31:224,1,55,8|0,0:0|0:0,0:0:0:0:
171,231,27063,2,0,L|182:162,1,55
325,186,27235,2,0,L|331:126,1,55
471,133,27406,2,0,L|482:64,1,55
330,131,27577,6,0,L|257:129,3,55,4|4|4|4,3:0|3:0|3:0|3:0,0:0:0:0:
123,88,27920,2,0,L|196:86,3,55,8|4|4|4,0:0|3:0|3:0|3:0,0:0:0:0:
326,214,28263,5,8,0:0:0:0:
327,186,28305,1,0,0:0:0:0:
329,159,28348,1,0,0:0:0:0:
475,190,28434,1,4,3:0:0:0:
476,162,28476,1,0,0:0:0:0:
478,135,28519,1,4,3:0:0:0:
326,214,28606,6,0,L|132:206,1,165,8|0,0:0|0:0,0:0:0:0:
326,214,28949,6,0,L|520:206,1,165,4|0,0:0|0:0,0:0:0:0:
326,214,29292,2,0,L|423:210,1,55,8|0,0:0|0:0,0:0:0:0:
215,318,29463,6,0,L|409:310,1,165,4|0,3:0|0:0,0:0:0:0:
215,318,29806,2,0,L|312:314,1,55,8|0,0:0|0:0,0:0:0:0:
105,320,29977,2,0,L|202:316,1,55,4|0,3:0|0:0,0:0:0:0:
326,214,30149,6,0,L|520:206,1,165,12|0,0:0|0:0,0:0:0:0:
326,214,30492,2,0,L|423:210,1,55,4|0,3:0|0:0,0:0:0:0:
215,318,30663,2,0,L|312:314,1,55,8|0,0:0|0:0,0:0:0:0:
105,252,30834,6,0,L|299:244,1,165,8|0,0:0|0:0,0:0:0:0:
105,320,31177,2,0,L|202:316,1,55,4|4,3:0|3:0,0:0:0:0:
380,216,31349,2,0,L|283:212,1,55,8|0,0:0|0:0,0:0:0:0:
105,320,31520,2,0,L|202:316,1,55
326,214,31692,5,4,0:0:0:0:
326,214,31734,1,0,0:0:0:0:
326,214,31777,1,0,0:0:0:0:
201,150,31820,1,0,0:0:0:0:
76,214,31863,1,0,0:0:0:0:
76,214,31905,1,0,0:0:0:0:
76,214,31948,1,0,0:0:0:0:
201,150,31991,1,0,0:0:0:0:
326,214,32034,5,0,0:0:0:0:
326,214,32076,1,0,0:0:0:0:
326,214,32119,1,0,0:0:0:0:
201,150,32162,1,0,0:0:0:0:
76,214,32205,1,0,0:0:0:0:
76,214,32249,1,0,0:0:0:0:
76,214,32292,1,0,0:0:0:0:
201,150,32334,1,0,0:0:0:0:
326,214,32377,6,0,L|394:210,7,55,8|0|0|0|0|0|4|0,0:0|0:0|0:0|0:0|0:0|0:0|3:0|0:0,0:0:0:0:
201,150,33063,6,0,L|133:146,1,55,4|0,3:0|0:0,0:0:0:0:
234,87,33234,2,0,L|166:83,1,55
268,307,33406,2,0,L|200:303,1,55
301,244,33577,2,0,L|233:240,1,55
81,137,33749,6,0,L|13:133,1,55,4|0,0:0|0:0,0:0:0:0:
172,32,33920,2,0,L|104:28,1,55
266,371,34092,2,0,L|198:367,1,55
358,177,34263,2,0,L|290:173,1,55
453,113,34434,5,4,0:0:0:0:
425,111,34476,1,0,0:0:0:0:
398,109,34519,1,0,0:0:0:0:
272,101,34563,1,0,0:0:0:0:
149,106,34606,1,0,0:0:0:0:
121,104,34648,1,0,0:0:0:0:
94,102,34691,1,0,0:0:0:0:
272,101,34777,6,0,L|342:98,2,55,0|0|4,0:0|0:0|3:0,0:0:0:0:
94,102,35034,1,4,3:0:0:0:
326,98,35120,6,0,L|396:95,2,55,8|0|4,0:0|0:0|3:0,0:0:0:0:
94,102,35377,1,4,3:0:0:0:
380,95,35463,6,0,L|450:92,2,55,8|0|0,0:0|0:0|0:0,0:0:0:0:
94,102,35720,1,0,0:0:0:0:
380,95,35806,6,0,P|446:84|487:-5,1,165,4|0,0:0|0:0,0:0:0:0:
277,232,36149,2,0,L|349:223,1,55,8|0,0:0|0:0,0:0:0:0:
125,180,36320,6,0,P|59:169|18:80,1,165,4|0,3:0|0:0,0:0:0:0:
173,310,36663,2,0,L|119:317,1,55,8|0,0:0|0:0,0:0:0:0:
276,348,36834,2,0,L|222:355,1,55,4|0,3:0|0:0,0:0:0:0:
387,180,37006,6,0,P|453:169|494:80,1,165,12|0,0:0|0:0,0:0:0:0:
339,310,37349,2,0,L|393:317,1,55,4|0,3:0|0:0,0:0:0:0:
236,348,37520,2,0,L|290:355,1,55,8|0,0:0|0:0,0:0:0:0:
125,180,37692,6,0,P|59:169|18:80,1,165,12|0,0:0|0:0,0:0:0:0:
235,131,38034,5,4,0:0:0:0:
292,122,38077,5,0,0:0:0:0:
238,140,38120,5,0,0:0:0:0:
288,112,38163,5,0,0:0:0:0:
244,148,38206,5,0,0:0:0:0:
282,104,38249,5,0,0:0:0:0:
253,153,38292,5,0,0:0:0:0:
273,99,38335,5,0,0:0:0:0:
253,153,38377,5,0,0:0:0:0:
273,99,38420,5,0,0:0:0:0:
262,155,38463,5,0,0:0:0:0:
424,199,38549,5,4,0:0:0:0:
453,194,38591,1,0,0:0:0:0:
476,174,38634,1,0,0:0:0:0:
486,145,38677,1,0,0:0:0:0:
480,116,38720,1,0,0:0:0:0:
459,94,38763,1,0,0:0:0:0:
429,86,38806,1,0,0:0:0:0:
259,249,38849,1,0,0:0:0:0:
88,199,38892,5,0,0:0:0:0:
59,194,38934,1,0,0:0:0:0:
36,174,38977,1,0,0:0:0:0:
26,145,39020,1,0,0:0:0:0:
32,116,39063,1,0,0:0:0:0:
53,94,39106,1,0,0:0:0:0:
83,86,39149,1,0,0:0:0:0:
259,249,39234,6,0,L|267:173,1,55,8|0,0:0|0:0,0:0:0:0:
209,150,39406,2,0,L|280:142,1,55
209,150,39577,2,0,L|201:74,1,55
259,52,39749,2,0,L|188:44,1,55,4|0,3:0|0:0,0:0:0:0:
387,294,39920,6,0,L|376:190,1,55,4|0,3:0|0:0,0:0:0:0:
296,184,40092,2,0,L|400:172,1,55
269,133,40263,2,0,L|259:31,1,55
349,33,40435,2,0,L|246:21,1,55,4|0,3:0|0:0,0:0:0:0:
91,317,40606,6,0,L|102:213,1,55,4|0,0:0|0:0,0:0:0:0:
273,276,40778,2,0,L|169:264,1,55
394,244,40949,2,0,L|404:142,1,55
223,86,41121,2,0,L|326:74,1,55
88,194,41292,6,0,L|83:142,7,27.5,4|0|0|0|0|0|0|0,0:0|0:0|0:0|0:0|0:0|0:0|0:0|0:0,0:0:0:0:
256,188,41634,6,0,L|257:136,7,27.5
424,194,41977,6,0,L|429:142,7,27.5,8|0|0|0|0|0|0|0,0:0|0:0|0:0|0:0|0:0|0:0|0:0|0:0,0:0:0:0:
256,188,42320,6,0,L|257:136,7,27.5
124,192,42663,5,4,0:0:0:0:
80,83,42834,1,0,2:0:0:0:
235,180,43006,5,2,0:0:0:0:
191,71,43177,1,0,2:0:0:0:
346,175,43349,5,2,0:0:0:0:
302,66,43520,1,0,2:0:0:0:
457,163,43692,5,2,0:0:0:0:
413,54,43863,1,0,2:0:0:0:
169,344,44034,5,2,0:0:0:0:
323,327,44206,1,0,2:0:0:0:
125,283,44377,5,2,0:0:0:0:
279,266,44549,1,0,2:0:0:0:
82,210,44720,5,2,0:0:0:0:
236,193,44892,1,0,2:0:0:0:
39,134,45063,5,2,0:0:0:0:
193,117,45235,1,0,2:0:0:0:
448,192,45406,6,0,L|458:76,1,110,2|0,2:0|0:0,0:0:0:0:
390,78,45663,1,0,0:0:0:0:
207,316,45749,2,0,L|147:313,1,55,2|0,0:0|0:0,0:0:0:0:
329,270,45920,6,0,L|219:264,1,110,0|2,0:0|0:0,0:0:0:0:
158,259,46177,1,0,0:0:0:0:
320,342,46263,1,0,0:0:0:0:
462,339,46349,1,0,0:0:0:0:
247,232,46434,5,2,1:0:0:0:
219,231,46477,1,0,0:0:0:0:
192,230,46519,1,0,0:0:0:0:
309,192,46563,1,0,0:0:0:0:
422,156,46606,1,0,0:0:0:0:
449,155,46648,1,0,0:0:0:0:
477,154,46691,1,0,0:0:0:0:
263,151,46777,5,4,0:0:0:0:
209,132,46862,1,0,0:0:0:0:
181,92,46948,1,0,0:0:0:0:
209,132,47034,1,0,0:0:0:0:
383,319,47120,2,0,L|338:275,1,55,4|0,3:0|0:0,0:0:0:0:
271,283,47292,2,0,L|210:286,1,55
366,225,47463,5,4,3:0:0:0:
312,223,47548,1,0,0:0:0:0:
279,181,47634,1,0,0:0:0:0:
286,129,47720,1,0,0:0:0:0:
463,151,47806,2,0,L|476:94,1,55,4|0,3:0|0:0,0:0:0:0:
410,91,47977,1,0,0:0:0:0:
259,346,48063,1,0,0:0:0:0:
105,337,48149,5,4,3:0:0:0:
163,337,48234,2,0,L|195:289,2,55
16,260,48492,2,0,L|61:215,1,55,4|0,3:0|0:0,0:0:0:0:
129,209,48664,2,0,L|190:212,1,55
37,164,48834,6,0,L|82:119,1,55,4|0,3:0|0:0,0:0:0:0:
247,115,49006,2,0,L|202:70,1,55
134,64,49178,2,0,L|73:67,1,55,4|0,3:0|0:0,0:0:0:0:
255,314,49349,2,0,L|164:317,1,55
351,291,49520,5,4,3:0:0:0:
405,290,49605,1,0,0:0:0:0:
446,258,49691,1,0,0:0:0:0:
461,204,49777,1,0,0:0:0:0:
282,182,49863,6,0,L|215:179,3,55,4|0|0|0,3:0|0:0|0:0|0:0,0:0:0:0:
49,160,50206,6,0,L|94:115,1,55,4|0,3:0|0:0,0:0:0:0:
268,110,50378,2,0,L|329:113,1,55
144,336,50549,5,4,3:0:0:0:
225,336,50634,1,0,0:0:0:0:
310,327,50720,1,0,0:0:0:0:
394,329,50806,1,0,0:0:0:0:
233,267,50892,6,0,L|227:204,1,55,4|0,3:0|0:0,0:0:0:0:
146,213,51063,6,0,L|141:146,1,55
352,250,51234,6,0,L|316:201,1,55,4|0,3:0|0:0,0:0:0:0:
155,111,51406,6,0,L|119:62,1,55
366,128,51577,6,0,L|272:118,1,55,4|0,3:0|0:0,0:0:0:0:
92,287,51749,6,0,L|20:277,1,55,4|4,3:0|3:0,0:0:0:0:
375,361,51920,6,0,L|386:193,1,165,8|0,0:0|0:0,0:0:0:0:
200,207,52263,5,4,0:0:0:0:
350,181,52434,2,0,L|354:123,1,55,4|0,3:0|0:0,0:0:0:0:
437,115,52606,1,4,3:0:0:0:
197,137,52777,2,0,L|193:75,1,55,4|0,3:0|0:0,0:0:0:0:
21,84,52949,5,4,3:0:0:0:
164,307,53120,2,0,L|173:240,1,55,4|0,3:0|0:0,0:0:0:0:
347,251,53292,1,4,3:0:0:0:
203,261,53463,2,0,L|199:201,1,55,4|0,3:0|0:0,0:0:0:0:
29,201,53634,5,4,0:0:0:0:
266,199,53806,2,0,L|273:132,1,55,4|0,3:0|0:0,0:0:0:0:
434,138,53977,1,4,3:0:0:0:
207,148,54149,2,0,L|200:81,1,55,4|0,3:0|0:0,0:0:0:0:
38,324,54320,5,4,3:0:0:0:
281,331,54492,2,0,L|287:257,1,55,4|0,3:0|0:0,0:0:0:0:
474,324,54663,1,4,3:0:0:0:
166,330,54834,2,0,L|237:321,1,55,4|0,3:0|0:0,0:0:0:0:
474,324,55006,6,0,L|467:252,1,55,4|4,0:0|3:0,0:0:0:0:
327,268,55177,2,0,L|320:196,1,55,4|4,3:0|3:0,0:0:0:0:
180,215,55349,2,0,L|173:143,1,55,4|4,3:0|3:0,0:0:0:0:
33,159,55520,2,0,L|26:87,1,55,4|4,3:0|3:0,0:0:0:0:
170,315,55692,6,0,L|177:243,1,55,4|4,3:0|3:0,0:0:0:0:
317,262,55864,2,0,L|324:190,1,55,4|4,3:0|3:0,0:0:0:0:
464,206,56035,2,0,L|471:134,1,55,4|4,3:0|3:0,0:0:0:0:
328,140,56206,2,0,L|321:68,1,55,4|4,3:0|3:0,0:0:0:0:
177,190,56377,5,4,2:0:0:0:
171,132,56462,1,0,0:0:0:0:
165,76,56548,1,0,0:0:0:0:
320,324,56634,1,8,0:0:0:0:
476,307,56720,5,8,0:0:0:0:
320,324,56806,1,8,0:0:0:0:
164,327,56892,1,8,0:0:0:0:
320,324,56977,1,8,0:0:0:0:
496,318,57063,5,4,0:0:0:0:
16,334,57234,5,4,0:0:0:0:
496,318,57406,5,4,0:0:0:0:
16,334,57577,6,0,L|16:268,1,55,4|0,0:0|0:0,0:0:0:0:
496,318,57749,6,0,L|496:268,2,27.5,4|0|0,0:0|0:0|0:0,0:0:0:0:
372,321,57877,1,0,0:0:0:0:
249,322,57920,2,0,L|249:272,2,27.5,2|0|0,2:0|0:0|0:0,0:0:0:0:
411,236,58092,5,2,2:0:0:0:
269,222,58263,1,2,2:0:0:0:
496,184,58434,6,0,L|423:176,1,55,8|0,0:0|0:0,0:0:0:0:
263,146,58606,1,2,2:0:0:0:
23,176,58777,6,0,L|70:111,1,55,2|0,2:0|0:0,0:0:0:0:
140,118,58949,1,4,3:0:0:0:
426,106,59120,5,4,3:0:0:0:
157,335,59292,6,0,L|162:313,1,13.75
232,275,59377,6,0,L|237:253,1,13.75
161,321,59463,6,0,L|166:299,1,13.75
236,261,59548,6,0,L|241:239,1,13.75
165,307,59634,6,0,L|170:285,1,13.75,4|0,3:0|0:0,0:0:0:0:
240,247,59720,6,0,L|245:225,1,13.75,4|0,3:0|0:0,0:0:0:0:
105,209,59806,2,0,L|115:146,1,55,8|0,0:0|0:0,0:0:0:0:
292,139,59977,1,4,3:0:0:0:
334,155,60034,1,4,3:0:0:0:
292,139,60092,1,4,3:0:0:0:
88,286,60149,6,0,B|81:24|81:24|286:33,1,461.999985900879,4|0,3:0|0:0,0:0:0:0:
140,355,60492,6,0,L|21:351,1,110,4|2,0:0|2:0,0:0:0:0:
263,250,60834,6,0,L|256:189,1,55,2|0,2:0|0:0,0:0:0:0:
187,192,61006,1,2,2:0:0:0:
418,184,61177,6,0,L|383:131,1,55,8|0,0:0|0:0,0:0:0:0:
197,137,61349,1,2,2:0:0:0:
453,62,61520,6,0,L|371:58,1,55,2|0,2:0|0:0,0:0:0:0:
251,53,61692,2,0,L|170:52,1,55,2|0,2:0|0:0,0:0:0:0:
37,54,61863,5,4,3:0:0:0:
466,338,62034,6,0,L|463:313,1,13.75
385,316,62120,6,0,L|382:291,1,13.75
304,287,62206,6,0,L|301:262,1,13.75
223,264,62292,6,0,L|220:239,1,13.75
144,235,62377,6,0,L|141:210,1,13.75
63,217,62463,6,0,L|60:192,1,13.75
280,234,62549,6,0,B|385:-5|385:-5|218:204|218:204|451:82|451:82|237:86,1,989.999969787599,8|0,0:0|0:0,0:0:0:0:
383,348,63234,6,0,L|498:345,1,110,4|2,0:0|2:0,0:0:0:0:
248,321,63577,6,0,L|255:260,1,55,2|0,2:0|0:0,0:0:0:0:
324,263,63749,1,2,2:0:0:0:
93,255,63920,6,0,L|128:202,1,55,8|0,0:0|0:0,0:0:0:0:
314,208,64092,1,2,2:0:0:0:
58,133,64263,6,0,L|140:129,1,55,2|0,2:0|0:0,0:0:0:0:
260,124,64435,2,0,L|341:123,1,55,2|0,2:0|0:0,0:0:0:0:
122,342,64606,5,4,0:0:0:0:
117,305,64663,1,0,0:0:0:0:
113,269,64720,1,0,0:0:0:0:
272,23,64777,6,0,L|342:21,1,55
107,211,64949,2,0,L|183:204,1,55
351,187,65120,2,0,L|265:182,1,55
463,201,65292,6,0,L|495:198,6,27.5,8|0|0|0|0|0|0,0:0|0:0|0:0|0:0|0:0|0:0|0:0,0:0:0:0:
316,137,65592,1,0,0:0:0:0:
172,140,65634,6,0,L|131:142,2,27.5,4|0|0,3:0|0:0|0:0,0:0:0:0:
316,137,65763,1,0,0:0:0:0:
460,140,65806,6,0,L|501:142,2,27.5
316,137,65935,1,0,0:0:0:0:
172,140,65977,6,0,L|254:139,1,55,4|0,0:0|0:0,0:0:0:0:
405,270,66149,2,0,L|483:270,1,55,2|0,2:0|0:0,0:0:0:0:
263,206,66320,6,0,L|345:201,1,55,0|0,2:0|0:0,0:0:0:0:
491,63,66492,2,0,L|425:60,1,55,4|4,3:0|3:0,0:0:0:0:
250,275,66663,6,0,L|183:272,1,55,8|4,0:0|3:0,0:0:0:0:
350,208,66834,1,8,0:0:0:0:
195,201,66920,1,8,0:0:0:0:
350,208,67006,6,0,P|400:145|340:98,1,165,12|0,0:0|0:0,0:0:0:0:
139,100,67349,5,4,1:0:0:0:
114,140,67434,1,0,0:0:0:0:
139,100,67520,1,0,0:0:0:0:
195,93,67606,1,0,0:0:0:0:
370,300,67692,2,0,L|333:240,1,55,8|0,1:0|0:0,0:0:0:0:
274,245,67863,2,0,L|214:244,1,55
400,177,68034,6,0,L|469:170,3,55,4|0|0|0,3:0|0:0|0:0|0:0,0:0:0:0:
263,148,68377,6,0,L|205:144,3,55,8|0|0|0,1:0|0:0|0:0|0:0,0:0:0:0:
387,145,68720,6,0,L|381:70,1,55,4|0,3:0|0:0,0:0:0:0:
302,101,68892,2,0,L|297:37,1,55
134,124,69063,6,0,L|128:49,1,55,8|0,1:0|0:0,0:0:0:0:
313,289,69235,2,0,L|308:225,1,55
127,254,69406,6,0,L|195:246,1,55,4|0,3:0|0:0,0:0:0:0:
361,177,69577,2,0,L|431:168,1,55
186,175,69749,6,0,L|254:167,1,55,8|0,1:0|0:0,0:0:0:0:
420,98,69920,2,0,L|490:89,1,55
160,234,70092,6,0,P|120:186|182:110,1,165,6|0,0:0|0:0,0:0:0:0:
256,312,70434,2,0,L|251:250,1,55,8|0,1:0|0:0,0:0:0:0:
167,355,70606,2,0,L|162:293,1,55
325,160,70777,6,0,L|280:115,1,55,4|0,3:0|0:0,0:0:0:0:
201,101,70949,2,0,L|143:98,1,55
325,160,71120,6,0,L|255:154,1,55,8|0,1:0|0:0,0:0:0:0:
94,151,71292,2,0,L|36:148,1,55
209,299,71463,6,0,L|270:294,3,55,4|0|0|0,3:0|0:0|0:0|0:0,0:0:0:0:
430,290,71806,6,0,L|369:285,3,55,8|0|0|0,1:0|0:0|0:0|0:0,0:0:0:0:
209,299,72149,6,0,L|270:294,3,55,4|0|0|0,3:0|0:0|0:0|0:0,0:0:0:0:
430,290,72492,6,0,L|369:285,3,55,8|0|0|0,1:0|0:0|0:0|0:0,0:0:0:0:
210,192,72834,5,4,0:0:0:0:
55,242,72920,1,0,0:0:0:0:
210,192,73006,1,0,0:0:0:0:
55,242,73092,1,0,0:0:0:0:
210,192,73177,5,4,3:0:0:0:
264,190,73262,1,0,0:0:0:0:
319,189,73348,1,0,0:0:0:0:
374,187,73434,1,0,0:0:0:0:
210,192,73520,5,4,0:0:0:0:
55,242,73606,1,0,0:0:0:0:
210,192,73692,1,0,0:0:0:0:
55,242,73778,1,0,0:0:0:0:
210,192,73863,5,4,3:0:0:0:
264,190,73948,1,0,0:0:0:0:
319,189,74034,1,0,0:0:0:0:
374,187,74120,1,0,0:0:0:0:
225,308,74206,6,0,P|211:243|293:155,1,165,6|0,0:0|0:0,0:0:0:0:
321,201,74549,1,8,1:0:0:0:
349,245,74634,1,0,0:0:0:0:
321,201,74720,1,0,0:0:0:0:
264,190,74806,1,0,0:0:0:0:
68,189,74892,6,0,L|64:110,1,55,4|0,0:0|0:0,0:0:0:0:
235,112,75063,2,0,L|162:106,1,55
357,116,75234,6,0,L|431:112,1,55,8|0,1:0|0:0,0:0:0:0:
236,55,75406,2,0,L|323:49,1,55
108,335,75577,6,0,L|113:267,1,55,4|0,3:0|0:0,0:0:0:0:
200,281,75749,2,0,L|205:225,1,55
388,304,75920,6,0,L|383:236,1,55,8|0,1:0|0:0,0:0:0:0:
296,250,76092,2,0,L|291:194,1,55
121,198,76263,5,4,3:0:0:0:
138,146,76348,1,0,0:0:0:0:
180,111,76434,1,0,0:0:0:0:
233,103,76520,1,0,0:0:0:0:
31,138,76606,5,8,1:0:0:0:
48,86,76691,1,0,0:0:0:0:
90,51,76777,1,0,0:0:0:0:
143,43,76863,1,0,0:0:0:0:
298,192,76949,5,4,0:0:0:0:
453,242,77035,1,0,0:0:0:0:
298,192,77121,1,0,0:0:0:0:
453,242,77207,1,0,0:0:0:0:
298,192,77292,5,8,1:0:0:0:
244,190,77377,1,0,0:0:0:0:
189,189,77463,1,0,0:0:0:0:
134,187,77549,1,0,0:0:0:0:
298,192,77635,5,4,0:0:0:0:
453,242,77721,1,0,0:0:0:0:
298,192,77807,1,0,0:0:0:0:
453,242,77893,1,0,0:0:0:0:
298,192,77978,5,8,1:0:0:0:
244,190,78063,1,0,0:0:0:0:
189,189,78149,1,0,0:0:0:0:
134,187,78235,1,0,0:0:0:0:
352,364,78320,6,0,P|330:309|232:274,1,165,4|0,0:0|0:0,0:0:0:0:
407,174,78663,2,0,L|478:167,1,55,8|0,1:0|0:0,0:0:0:0:
383,116,78834,2,0,L|442:110,1,55
268,135,79006,6,0,L|264:71,1,55,4|0,3:0|0:0,0:0:0:0:
431,38,79177,2,0,L|369:34,1,55
203,144,79349,6,0,L|199:80,1,55,8|0,1:0|0:0,0:0:0:0:
28,50,79520,2,0,L|113:43,1,55
258,313,79692,5,4,3:0:0:0:
200,308,79777,1,0,0:0:0:0:
163,272,79863,1,0,0:0:0:0:
153,219,79949,1,0,0:0:0:0:
356,268,80034,5,8,1:0:0:0:
298,263,80119,1,0,0:0:0:0:
261,227,80205,1,0,0:0:0:0:
251,174,80291,1,0,0:0:0:0:
453,192,80377,5,4,3:0:0:0:
404,170,80462,1,0,0:0:0:0:
411,118,80548,1,0,0:0:0:0:
463,96,80634,1,0,0:0:0:0:
263,144,80720,5,8,1:0:0:0:
312,122,80805,1,0,0:0:0:0:
319,68,80891,1,0,0:0:0:0:
267,46,80977,1,0,0:0:0:0:
53,338,81063,5,4,0:0:0:0:
107,335,81148,1,0,0:0:0:0:
115,276,81234,1,0,0:0:0:0:
170,272,81320,1,0,0:0:0:0:
369,340,81406,5,4,0:0:0:0:
315,337,81491,1,0,0:0:0:0:
307,278,81577,1,0,0:0:0:0:
252,274,81663,1,0,0:0:0:0:
49,197,81749,5,4,0:0:0:0:
103,194,81834,1,0,0:0:0:0:
111,135,81920,1,0,0:0:0:0:
166,131,82006,1,0,0:0:0:0:
398,278,82092,6,0,L|470:274,1,55,6|0,0:0|0:0,0:0:0:0:
246,200,82263,2,0,L|308:196,1,55,4|0,3:0|0:0,0:0:0:0:
91,200,82434,6,0,L|58:142,3,55,4|0|0|0,0:0|0:0|0:0|0:0,0:0:0:0:
239,136,82777,2,0,L|244:68,1,55,8|0,1:0|0:0,0:0:0:0:
421,138,82949,2,0,L|426:70,1,55,4|0,3:0|0:0,0:0:0:0:
246,342,83120,6,0,L|301:345,1,55,4|0,0:0|0:0,0:0:0:0:
474,277,83292,2,0,L|420:274,1,55
245,266,83463,6,0,L|305:262,1,55,4|0,0:0|0:0,0:0:0:0:
132,195,83635,2,0,L|186:192,1,55,4|0,3:0|0:0,0:0:0:0:
20,297,83806,6,0,L|15:232,3,55,4|0|0|0,0:0|0:0|0:0|0:0,0:0:0:0:
192,129,84149,2,0,L|268:119,1,55,8|0,1:0|0:0,0:0:0:0:
65,95,84320,2,0,L|137:90,1,55,4|0,3:0|0:0,0:0:0:0:
294,267,84492,6,0,L|297:212,1,55,4|0,0:0|0:0,0:0:0:0:
470,227,84663,2,0,L|472:169,1,55
296,144,84834,6,0,L|364:137,1,55,4|0,0:0|0:0,0:0:0:0:
171,337,85006,2,0,L|112:329,1,55
288,362,85177,6,0,L|293:299,1,55,4|0,0:0|0:0,0:0:0:0:
137,260,85349,1,4,3:0:0:0:
294,186,85434,1,4,3:0:0:0:
137,260,85520,6,0,L|77:257,1,55,4|0,0:0|0:0,0:0:0:0:
312,249,85692,2,0,L|375:246,1,55
116,228,85863,6,0,L|111:165,1,55,4|0,3:0|0:0,0:0:0:0:
267,126,86035,1,4,3:0:0:0:
110,52,86120,1,4,3:0:0:0:
267,126,86206,6,0,L|358:130,1,55,4|0,0:0|0:0,0:0:0:0:
117,352,86377,2,0,L|207:353,1,55
341,356,86549,5,4,3:0:0:0:
198,288,86720,1,4,3:0:0:0:
341,356,86892,1,4,3:0:0:0:
485,290,87063,1,4,3:0:0:0:
111,191,87234,6,0,L|187:188,1,55,4|4,3:0|3:0,0:0:0:0:
332,146,87406,1,4,3:0:0:0:
492,147,87492,1,4,3:0:0:0:
332,146,87577,6,0,L|319:335,1,165,4|0,3:0|0:0,0:0:0:0:
110,296,87920,5,4,0:0:0:0:
114,241,88005,1,0,0:0:0:0:
133,189,88091,1,0,0:0:0:0:
164,144,88177,1,0,0:0:0:0:
207,109,88262,1,4,3:0:0:0:
257,87,88348,1,0,0:0:0:0:
311,79,88434,1,0,0:0:0:0:
365,85,88520,1,0,0:0:0:0:
188,339,88606,6,0,L|165:275,2,55,4|0|0,3:0|0:0|0:0,0:0:0:0:
254,269,88863,1,0,0:0:0:0:
194,268,88949,1,4,3:0:0:0:
154,225,89034,1,0,0:0:0:0:
194,268,89120,1,0,0:0:0:0:
262,229,89206,1,0,0:0:0:0:
432,205,89292,6,0,L|492:199,2,55,4|0|0,3:0|0:0|0:0,0:0:0:0:
372,214,89549,1,0,0:0:0:0:
434,157,89634,2,0,L|440:75,1,55,4|0,3:0|0:0,0:0:0:0:
495,112,89806,2,0,L|501:30,1,55
313,353,89977,6,0,L|236:350,1,55,4|0,3:0|0:0,0:0:0:0:
262,287,90149,2,0,L|336:281,1,55
250,224,90320,1,4,3:0:0:0:
304,221,90405,1,0,0:0:0:0:
359,219,90491,1,0,0:0:0:0:
414,216,90577,1,0,0:0:0:0:
225,171,90663,6,0,L|246:111,1,55,4|0,3:0|0:0,0:0:0:0:
326,108,90834,2,0,L|390:103,1,55
189,70,91006,2,0,L|121:67,1,55,4|0,3:0|0:0,0:0:0:0:
317,340,91177,2,0,L|391:330,1,55
200,285,91349,5,4,3:0:0:0:
255,275,91434,1,0,0:0:0:0:
309,265,91520,1,0,0:0:0:0:
255,275,91606,1,0,0:0:0:0:
93,213,91692,2,0,L|104:144,1,55,4|0,3:0|0:0,0:0:0:0:
271,175,91863,2,0,L|217:182,1,55
389,91,92034,6,0,L|461:85,2,55,4|0|0,3:0|0:0|0:0,0:0:0:0:
304,98,92292,1,0,0:0:0:0:
127,233,92377,2,0,L|199:227,2,55,4|0|0,3:0|0:0|0:0,0:0:0:0:
42,238,92635,1,0,0:0:0:0:
201,348,92720,2,0,L|273:343,1,55,4|0,3:0|0:0,0:0:0:0:
100,351,92892,1,4,3:0:0:0:
255,344,92977,1,4,3:0:0:0:
413,338,93063,6,0,P|403:277|314:231,1,165,8|0,0:0|0:0,0:0:0:0:
136,190,93406,5,4,1:0:0:0:
280,137,93577,2,0,L|216:134,1,55,4|0,3:0|0:0,0:0:0:0:
58,129,93749,1,4,3:0:0:0:
351,89,93920,1,4,3:0:0:0:
102,345,94092,6,0,L|190:339,1,55,4|0,3:0|0:0,0:0:0:0:
323,288,94263,2,0,L|264:284,1,55,4|0,3:0|0:0,0:0:0:0:
433,194,94434,1,4,3:0:0:0:
186,211,94606,2,0,L|252:206,1,55,4|0,3:0|0:0,0:0:0:0:
73,190,94777,5,4,1:0:0:0:
322,144,94949,2,0,L|328:74,1,55,4|0,3:0|0:0,0:0:0:0:
488,87,95120,2,0,L|495:18,1,55,4|0,3:0|0:0,0:0:0:0:
320,338,95292,2,0,L|395:329,1,55,4|0,3:0|0:0,0:0:0:0:
198,310,95463,5,4,3:0:0:0:
455,270,95634,2,0,L|448:209,1,55,4|0,3:0|0:0,0:0:0:0:
266,102,95806,2,0,L|197:97,1,55,4|0,3:0|0:0,0:0:0:0:
391,361,95977,2,0,L|311:359,1,55,4|0,3:0|0:0,0:0:0:0:
86,360,96149,6,0,L|163:354,1,55,4|4,3:0|3:0,0:0:0:0:
305,296,96320,2,0,L|239:293,1,55,4|4,3:0|3:0,0:0:0:0:
419,222,96492,2,0,L|498:223,1,55,4|4,3:0|3:0,0:0:0:0:
306,188,96663,2,0,L|299:110,1,55,4|4,3:0|3:0,0:0:0:0:
135,117,96834,6,0,L|218:111,1,55,4|4,3:0|3:0,0:0:0:0:
16,66,97006,2,0,L|81:60,1,55,4|4,3:0|3:0,0:0:0:0:
243,254,97177,2,0,L|165:248,1,55,4|4,3:0|3:0,0:0:0:0:
366,209,97349,2,0,L|305:204,1,55,4|4,3:0|3:0,0:0:0:0:
482,383,97520,6,0,B|496:-55|496:-55|491:378|491:378|503:-36|503:-36|486:355|486:355|505:34|505:34|503:237|503:237|486:329|486:329|444:-8|444:-8|20:61|20:61|248:272|248:272|255:215,1,3410,4|0,1:0|0:0,0:0:0:0:
392,284,98892,5,4,0:0:0:0:
129,354,99063,1,2,2:0:0:0:
167,350,99120,1,0,0:0:0:0:
205,345,99177,1,0,0:0:0:0:
402,218,99234,5,8,0:0:0:0:
266,215,99406,2,0,L|257:146,1,55,2|0,2:0|0:0,0:0:0:0:
74,146,99577,5,2,0:0:0:0:
317,112,99749,2,0,L|241:107,1,55,4|0,3:0|0:0,0:0:0:0:
94,42,99920,5,8,0:0:0:0:
206,41,99977,1,0,0:0:0:0:
316,41,100034,1,0,0:0:0:0:
427,47,100092,2,0,L|433:109,1,55,4|0,3:0|0:0,0:0:0:0:
225,193,100263,6,0,L|163:189,1,55,4|0,3:0|0:0,0:0:0:0:
356,197,100434,2,0,L|286:188,1,55,4|0,3:0|0:0,0:0:0:0:
471,331,100606,6,0,L|464:272,1,55,8|0,0:0|0:0,0:0:0:0:
316,277,100777,1,4,3:0:0:0:
171,275,100863,1,0,0:0:0:0:
316,277,100949,6,0,L|250:274,1,55,2|0,2:0|0:0,0:0:0:0:
436,218,101120,2,0,L|382:211,1,55,4|0,3:0|0:0,0:0:0:0:
196,162,101292,6,0,L|193:110,3,27.5,8|0|0|0,0:0|0:0|0:0|0:0,0:0:0:0:
319,143,101463,6,0,L|322:91,3,27.5,4|0|0|0,3:0|0:0|0:0|0:0,0:0:0:0:
188,74,101634,5,4,0:0:0:0:
430,339,101806,2,0,L|435:274,1,55,2|0,2:0|0:0,0:0:0:0:
233,251,101977,5,8,0:0:0:0:
79,254,102149,2,0,L|131:204,1,55,2|0,2:0|0:0,0:0:0:0:
292,188,102320,5,2,2:0:0:0:
41,118,102492,2,0,L|109:115,1,55,4|0,3:0|0:0,0:0:0:0:
301,88,102663,5,8,0:0:0:0:
183,68,102720,1,0,0:0:0:0:
62,54,102777,1,0,0:0:0:0:
183,68,102834,1,2,2:0:0:0:
227,131,102891,1,0,0:0:0:0:
271,136,102948,1,0,0:0:0:0:
152,253,103006,6,0,L|95:241,1,55,4|0,0:0|0:0,0:0:0:0:
246,212,103177,2,0,L|192:198,1,55,4|0,3:0|0:0,0:0:0:0:
342,167,103349,5,8,0:0:0:0:
481,162,103434,1,0,0:0:0:0:
342,167,103520,1,4,3:0:0:0:
481,162,103605,1,0,0:0:0:0:
331,370,103692,6,0,L|310:369,1,13.75,2|0,2:0|0:0,0:0:0:0:
247,354,103777,6,0,L|229:351,1,13.75,2|0,2:0|0:0,0:0:0:0:
306,297,103863,1,4,3:0:0:0:
466,242,103949,6,0,L|445:240,1,13.75,2|0,2:0|0:0,0:0:0:0:
312,217,104034,1,8,0:0:0:0:
146,276,104120,6,0,L|169:276,1,13.75,2|0,2:0|0:0,0:0:0:0:
285,86,104206,6,0,L|308:86,1,13.75,4|0,3:0|0:0,0:0:0:0:
425,75,104292,6,0,L|448:75,1,13.75,2|0,2:0|0:0,0:0:0:0:
316,36,104377,5,4,0:0:0:0:
69,246,104549,2,0,L|33:243,2,36.6666666666667,2|0|0,2:0|0:0|0:0,0:0:0:0:
268,332,104720,5,8,0:0:0:0:
134,340,104892,2,0,L|199:331,1,55,2|0,2:0|0:0,0:0:0:0:
385,217,105063,5,2,2:0:0:0:
155,211,105234,2,0,L|146:143,1,55,4|0,3:0|0:0,0:0:0:0:
391,81,105406,6,0,L|430:80,2,27.5,8|0|0,0:0|0:0|0:0,0:0:0:0:
261,240,105535,1,0,0:0:0:0:
131,81,105577,6,0,L|92:80,2,27.5,4|0|0,3:0|0:0|0:0,0:0:0:0:
261,240,105706,1,0,0:0:0:0:
372,45,105749,5,4,0:0:0:0:
383,55,105770,1,0,0:0:0:0:
393,64,105791,1,0,0:0:0:0:
400,76,105813,1,0,0:0:0:0:
407,87,105834,1,0,0:0:0:0:
412,100,105856,1,0,0:0:0:0:
414,113,105877,1,0,0:0:0:0:
415,127,105898,1,0,0:0:0:0:
415,141,105920,1,0,0:0:0:0:
412,154,105941,1,0,0:0:0:0:
408,167,105963,1,0,0:0:0:0:
402,180,105984,1,0,0:0:0:0:
394,191,106006,1,0,0:0:0:0:
385,201,106027,1,0,0:0:0:0:
374,210,106048,1,0,0:0:0:0:
261,240,106070,1,0,0:0:0:0:
148,363,106092,5,8,0:0:0:0:
131,354,106113,1,0,0:0:0:0:
120,341,106134,1,0,0:0:0:0:
115,329,106156,1,0,0:0:0:0:
120,315,106177,1,0,0:0:0:0:
131,303,106199,1,0,0:0:0:0:
146,295,106220,1,0,0:0:0:0:
261,240,106242,1,0,0:0:0:0:
368,363,106263,5,8,0:0:0:0:
385,354,106284,1,0,0:0:0:0:
396,341,106305,1,0,0:0:0:0:
401,329,106327,1,0,0:0:0:0:
396,315,106349,1,0,0:0:0:0:
385,303,106370,1,0,0:0:0:0:
370,295,106392,1,0,0:0:0:0:
261,240,106413,1,0,0:0:0:0:
153,191,106434,6,0,L|129:191,2,13.75,8|0|0,0:0|0:0|0:0,0:0:0:0:
261,240,106499,1,0,0:0:0:0:
359,191,106520,6,0,L|383:191,2,13.75
261,240,106584,1,0,0:0:0:0:
153,191,106606,6,0,L|129:191,2,13.75,4|0|0,3:0|0:0|0:0,0:0:0:0:
261,240,106670,1,0,0:0:0:0:
359,191,106691,6,0,L|383:191,2,13.75
261,240,106756,1,0,0:0:0:0:
146,295,106777,6,0,L|145:127,1,165,4|0,0:0|0:0,0:0:0:0:
474,213,107120,6,0,L|411:207,1,55,4|4,0:0|3:0,0:0:0:0:
270,200,107292,1,4,3:0:0:0:
127,191,107377,1,4,3:0:0:0:
270,200,107463,6,0,L|205:195,1,55,8|4,0:0|3:0,0:0:0:0:
362,142,107634,1,4,3:0:0:0:
215,135,107720,1,4,3:0:0:0:
362,142,107806,6,0,L|275:138,1,55,8|4,0:0|3:0,0:0:0:0:
160,131,107977,1,4,3:0:0:0:
13,113,108063,1,4,3:0:0:0:
216,309,108149,5,8,0:0:0:0:
363,291,108235,1,4,3:0:0:0:
216,309,108320,1,4,3:0:0:0:
363,291,108406,1,4,3:0:0:0:
216,309,108492,6,0,L|75:308,1,110,4|2,0:0|2:0,0:0:0:0:
162,252,108749,1,0,0:0:0:0:
337,210,108834,2,0,L|276:206,1,55,8|0,0:0|0:0,0:0:0:0:
459,126,109006,2,0,L|391:122,1,55,4|0,3:0|0:0,0:0:0:0:
195,97,109177,1,2,2:0:0:0:
450,331,109349,2,0,L|458:267,1,55,4|0,3:0|0:0,0:0:0:0:
271,202,109520,5,8,0:0:0:0:
372,201,109562,1,0,0:0:0:0:
478,198,109606,2,0,L|501:127,2,55,0|2|0,0:0|2:0|0:0,0:0:0:0:
296,309,109863,6,0,L|437:308,1,110,4|4,3:0|3:0,0:0:0:0:
350,252,110120,1,0,0:0:0:0:
175,210,110205,2,0,L|236:206,1,55,8|0,0:0|0:0,0:0:0:0:
53,126,110377,2,0,L|121:122,1,55,4|0,3:0|0:0,0:0:0:0:
317,97,110548,1,2,2:0:0:0:
62,331,110720,2,0,L|54:267,1,55,4|0,3:0|0:0,0:0:0:0:
241,202,110891,5,8,0:0:0:0:
140,201,110933,1,0,0:0:0:0:
34,198,110977,2,0,L|11:127,2,55,0|4|0,0:0|3:0|0:0,0:0:0:0:
224,347,111234,6,0,L|229:282,1,55,4|0,3:0|0:0,0:0:0:0:
71,125,111406,2,0,L|141:122,1,55,4|4,3:0|3:0,0:0:0:0:
288,347,111577,6,0,L|283:282,1,55,8|0,0:0|0:0,0:0:0:0:
441,125,111749,2,0,L|371:122,1,55,4|4,3:0|3:0,0:0:0:0:
224,347,111920,6,0,L|229:282,1,55,8|0,0:0|0:0,0:0:0:0:
288,347,112092,2,0,L|283:282,1,55,4|4,3:0|3:0,0:0:0:0:
100,278,112263,5,8,0:0:0:0:
412,278,112434,1,8,0:0:0:0:
256,192,112520,1,0,0:0:0:0:
414,120,112606,6,0,L|420:41,1,55,4|0,0:0|0:0,0:0:0:0:
335,113,112777,2,0,L|341:34,1,55,2|0,2:0|0:0,0:0:0:0:
255,104,112949,2,0,L|261:25,1,55,8|0,0:0|0:0,0:0:0:0:
176,97,113120,2,0,L|182:18,1,55,4|0,3:0|0:0,0:0:0:0:
96,91,113292,2,0,L|102:12,1,55,2|0,2:0|0:0,0:0:0:0:
17,84,113463,2,0,L|23:5,1,55,4|0,3:0|0:0,0:0:0:0:
218,196,113634,5,8,0:0:0:0:
319,195,113676,1,0,0:0:0:0:
425,192,113720,2,0,L|448:121,2,55,0|2|0,0:0|2:0|0:0,0:0:0:0:
98,120,113977,6,0,L|92:41,1,55,4|0,0:0|0:0,0:0:0:0:
177,113,114148,2,0,L|171:34,1,55,4|0,3:0|0:0,0:0:0:0:
257,104,114320,2,0,L|251:25,1,55,8|0,0:0|0:0,0:0:0:0:
336,97,114491,2,0,L|330:18,1,55,4|0,3:0|0:0,0:0:0:0:
416,91,114663,2,0,L|410:12,1,55,2|0,2:0|0:0,0:0:0:0:
495,84,114834,2,0,L|489:5,1,55,4|0,3:0|0:0,0:0:0:0:
294,196,115006,5,8,0:0:0:0:
193,195,115048,1,0,0:0:0:0:
87,192,115092,2,0,L|64:121,2,55,0|4|0,0:0|3:0|0:0,0:0:0:0:
414,311,115349,6,0,L|419:229,1,55,12|0,0:0|0:0,0:0:0:0:
335,264,115520,1,4,3:0:0:0:
418,256,115606,1,4,3:0:0:0:
239,329,115692,6,0,L|234:247,1,55,8|0,0:0|0:0,0:0:0:0:
61,329,115863,2,0,L|55:260,1,55,4|4,3:0|3:0,0:0:0:0:
237,188,116034,6,0,L|176:182,1,55,8|0,0:0|0:0,0:0:0:0:
355,145,116206,1,4,3:0:0:0:
183,182,116292,1,4,3:0:0:0:
355,145,116377,6,0,L|416:139,1,55,8|0,0:0|0:0,0:0:0:0:
237,102,116549,1,4,3:0:0:0:
409,139,116635,1,0,0:0:0:0:
237,102,116720,6,0,B|8:104|8:104|16:224|23:240|23:240|108:296,1,453.750013847352,4|0,0:0|0:0,0:0:0:0:
334,120,117063,5,4,0:0:0:0:
256,192,117149,12,0,117170,0:0:0:0:
256,192,117192,12,0,117213,0:0:0:0:
256,192,117234,12,0,117256,0:0:0:0:
256,192,117277,12,0,117298,0:0:0:0:
256,192,117320,12,0,117341,0:0:0:0:
256,192,117362,12,0,117383,0:0:0:0:
256,192,117406,12,0,117427,0:0:0:0:
256,192,117449,12,0,117470,0:0:0:0:
256,192,117491,12,0,117512,0:0:0:0:
256,192,117534,12,0,117555,0:0:0:0:
256,192,117577,12,0,117599,0:0:0:0:
256,192,117619,12,0,117642,0:0:0:0:
256,192,117663,12,0,117684,0:0:0:0:
256,192,117706,12,0,117727,0:0:0:0:
256,192,117748,12,0,117769,0:0:0:0:
256,192,117792,12,0,117813,0:0:0:0:
256,192,117835,12,0,117856,0:0:0:0:
256,192,117877,12,0,117898,0:0:0:0:
256,192,117920,12,0,117941,0:0:0:0:
256,192,117963,12,0,117984,0:0:0:0:
256,192,118005,12,0,118026,0:0:0:0:
256,192,118049,12,0,118070,0:0:0:0:
256,192,118092,12,0,118134,0:0:0:0:
256,192,118177,12,0,118219,0:0:0:0:
256,192,118263,12,0,118305,0:0:0:0:
256,192,118349,12,0,118391,0:0:0:0:
256,192,118434,12,0,118476,0:0:0:0:
256,192,118520,12,0,118562,0:0:0:0:
256,192,118606,12,0,118692,0:0:0:0:
256,192,118777,12,0,118863,0:0:0:0:
256,192,118949,12,0,119035,0:0:0:0:
256,192,119120,12,0,119206,0:0:0:0:
256,192,119292,12,0,119463,0:0:0:0:
