osu file format v14

[General]
AudioFilename: audio.mp3
AudioLeadIn: 0
PreviewTime: 87738
Countdown: 0
SampleSet: Normal
StackLeniency: 0.7
Mode: 3
LetterboxInBreaks: 0
SpecialStyle: 0
WidescreenStoryboard: 0

[Editor]
DistanceSpacing: 1
BeatDivisor: 4
GridSize: 16
TimelineZoom: 1.6

[Metadata]
Title:Acid Burst
TitleUnicode:Acid Burst
Artist:Memme
ArtistUnicode:Memme
Creator:juankristal
Version:Chaos
Source:
Tags:LN
BeatmapID:1530202
BeatmapSetID:724670

[Difficulty]
HPDrainRate:8
CircleSize:4
OverallDifficulty:6
ApproachRate:5
SliderMultiplier:1.4
SliderTickRate:1

[Events]
//Background and Video events
0,0,"968607-anime-future-girl-manga-wings.jpg",0,0
//Break Periods
//Storyboard Layer 0 (Background)
//Storyboard Layer 1 (Fail)
//Storyboard Layer 2 (Pass)
//Storyboard Layer 3 (Foreground)
//Storyboard Sound Samples

[TimingPoints]
2739,333.333333333333,4,1,0,40,1,0
88072,-100,4,1,0,40,0,1
106572,-100,4,1,0,40,0,0

[HitObjects]
448,192,2738,128,0,3238:0:0:0:0:
192,192,2738,1,0,0:0:0:0:
192,192,2905,1,0,0:0:0:0:
320,192,3072,128,0,3155:0:0:0:0:
64,192,3238,128,0,3738:0:0:0:0:
192,192,3238,128,0,3405:0:0:0:0:
448,192,3405,1,0,0:0:0:0:
448,192,3572,1,0,0:0:0:0:
320,192,3572,128,0,3655:0:0:0:0:
320,192,3738,128,0,4072:0:0:0:0:
192,192,3738,128,0,3905:0:0:0:0:
64,192,3905,128,0,4072:0:0:0:0:
448,192,4072,128,0,4405:0:0:0:0:
192,192,4072,128,0,4238:0:0:0:0:
320,192,4238,128,0,4488:0:0:0:0:
64,192,4238,128,0,4572:0:0:0:0:
192,192,4405,128,0,4488:0:0:0:0:
448,192,4572,128,0,4738:0:0:0:0:
320,192,4572,128,0,4655:0:0:0:0:
64,192,4738,128,0,4905:0:0:0:0:
192,192,4738,1,0,0:0:0:0:
448,192,4822,1,0,0:0:0:0:
192,192,4905,128,0,5405:0:0:0:0:
320,192,5072,1,0,0:0:0:0:
320,192,5238,1,0,0:0:0:0:
64,192,5238,128,0,5405:0:0:0:0:
320,192,5405,1,0,0:0:0:0:
448,192,5405,128,0,5905:0:0:0:0:
64,192,5572,1,0,0:0:0:0:
64,192,5738,1,0,0:0:0:0:
320,192,5738,128,0,5822:0:0:0:0:
320,192,5905,128,0,6405:0:0:0:0:
192,192,5905,128,0,5988:0:0:0:0:
64,192,6072,128,0,6238:0:0:0:0:
448,192,6072,128,0,6155:0:0:0:0:
192,192,6155,1,0,0:0:0:0:
448,192,6238,128,0,6405:0:0:0:0:
192,192,6405,128,0,6572:0:0:0:0:
64,192,6405,128,0,6738:0:0:0:0:
320,192,6572,128,0,6738:0:0:0:0:
448,192,6572,1,0,0:0:0:0:
192,192,6738,128,0,7072:0:0:0:0:
448,192,6738,1,0,0:0:0:0:
448,192,6905,128,0,7405:0:0:0:0:
64,192,6905,128,0,6988:0:0:0:0:
320,192,6905,128,0,7238:0:0:0:0:
192,192,7238,128,0,7405:0:0:0:0:
64,192,7238,128,0,7322:0:0:0:0:
64,192,7405,128,0,7655:0:0:0:0:
320,192,7405,128,0,7572:0:0:0:0:
448,192,7572,128,0,7738:0:0:0:0:
192,192,7572,128,0,7738:0:0:0:0:
320,192,7738,128,0,7822:0:0:0:0:
64,192,7738,128,0,7905:0:0:0:0:
320,192,7905,128,0,8072:0:0:0:0:
192,192,7905,128,0,8072:0:0:0:0:
448,192,8072,128,0,8405:0:0:0:0:
64,192,8072,128,0,8238:0:0:0:0:
192,192,8155,128,0,8238:0:0:0:0:
320,192,8238,128,0,8405:0:0:0:0:
192,192,8322,128,0,8405:0:0:0:0:
64,192,8405,128,0,8572:0:0:0:0:
320,192,8572,128,0,8905:0:0:0:0:
192,192,8572,128,0,8738:0:0:0:0:
448,192,8655,128,0,8822:0:0:0:0:
64,192,8738,128,0,8822:0:0:0:0:
192,192,8822,128,0,8905:0:0:0:0:
448,192,8905,128,0,9072:0:0:0:0:
192,192,9072,128,0,9405:0:0:0:0:
64,192,9072,128,0,9155:0:0:0:0:
320,192,9155,128,0,9322:0:0:0:0:
448,192,9238,128,0,9322:0:0:0:0:
64,192,9322,128,0,9405:0:0:0:0:
320,192,9405,128,0,9488:0:0:0:0:
64,192,9488,128,0,9572:0:0:0:0:
448,192,9572,128,0,10072:0:0:0:0:
320,192,9572,128,0,9655:0:0:0:0:
192,192,9655,128,0,9738:0:0:0:0:
64,192,9738,128,0,9822:0:0:0:0:
320,192,9738,128,0,10072:0:0:0:0:
64,192,9905,128,0,9988:0:0:0:0:
192,192,9905,128,0,10072:0:0:0:0:
64,192,10072,1,0,0:0:0:0:
192,192,10127,1,0,0:0:0:0:
320,192,10183,1,0,0:0:0:0:
64,192,10238,128,0,10322:0:0:0:0:
448,192,10238,128,0,10405:0:0:0:0:
192,192,10405,1,0,0:0:0:0:
64,192,10405,1,0,0:0:0:0:
448,192,10488,1,0,0:0:0:0:
320,192,10572,1,0,0:0:0:0:
448,192,10738,128,0,10905:0:0:0:0:
64,192,10738,128,0,10905:0:0:0:0:
192,192,10738,128,0,10905:0:0:0:0:
192,192,10988,128,0,11155:0:0:0:0:
320,192,10988,128,0,11155:0:0:0:0:
448,192,10988,128,0,11155:0:0:0:0:
64,192,11238,128,0,11322:0:0:0:0:
192,192,11238,128,0,11322:0:0:0:0:
320,192,11238,128,0,11322:0:0:0:0:
448,192,11405,128,0,11738:0:0:0:0:
320,192,11405,128,0,11488:0:0:0:0:
192,192,11405,128,0,11488:0:0:0:0:
64,192,11488,128,0,11572:0:0:0:0:
192,192,11572,128,0,11655:0:0:0:0:
64,192,11655,128,0,11822:0:0:0:0:
320,192,11655,128,0,11738:0:0:0:0:
192,192,11822,128,0,11905:0:0:0:0:
448,192,11905,128,0,12072:0:0:0:0:
320,192,11988,128,0,12072:0:0:0:0:
64,192,12072,128,0,12738:0:0:0:0:
192,192,12072,128,0,12405:0:0:0:0:
320,192,12238,128,0,12572:0:0:0:0:
448,192,12405,128,0,12738:0:0:0:0:
192,192,12572,128,0,12905:0:0:0:0:
320,192,12738,128,0,12988:0:0:0:0:
64,192,12905,128,0,13322:0:0:0:0:
448,192,12905,128,0,13405:0:0:0:0:
192,192,12988,128,0,13322:0:0:0:0:
320,192,13072,128,0,13155:0:0:0:0:
320,192,13238,128,0,13405:0:0:0:0:
64,192,13405,128,0,14572:0:0:0:0:
192,192,13405,128,0,14238:0:0:0:0:
448,192,14238,1,0,0:0:0:0:
320,192,14294,1,0,0:0:0:0:
192,192,14350,128,0,14572:0:0:0:0:
448,192,14572,128,0,16072:0:0:0:0:
320,192,14572,128,0,16072:0:0:0:0:
64,192,15238,1,0,0:0:0:0:
64,192,15405,1,0,0:0:0:0:
64,192,15655,1,0,0:0:0:0:
64,192,15905,1,0,0:0:0:0:
192,192,15905,1,0,0:0:0:0:
64,192,16072,128,0,16322:0:0:0:0:
192,192,16072,128,0,16655:0:0:0:0:
320,192,16238,1,0,0:0:0:0:
448,192,16322,1,0,0:0:0:0:
64,192,16405,128,0,17238:0:0:0:0:
320,192,16405,128,0,16572:0:0:0:0:
448,192,16572,1,0,0:0:0:0:
320,192,16655,1,0,0:0:0:0:
192,192,16738,1,0,0:0:0:0:
448,192,16738,128,0,16850:0:0:0:0:
192,192,16905,1,0,0:0:0:0:
448,192,16905,128,0,17016:0:0:0:0:
192,192,17072,1,0,0:0:0:0:
448,192,17072,128,0,17183:0:0:0:0:
320,192,17238,128,0,18405:0:0:0:0:
192,192,17238,128,0,18738:0:0:0:0:
64,192,17572,1,0,0:0:0:0:
448,192,18072,1,0,0:0:0:0:
64,192,18155,1,0,0:0:0:0:
448,192,18238,1,0,0:0:0:0:
64,192,18322,1,0,0:0:0:0:
448,192,18405,1,0,0:0:0:0:
320,192,18572,1,0,0:0:0:0:
448,192,18738,128,0,19738:0:0:0:0:
64,192,18738,128,0,19905:0:0:0:0:
192,192,18988,1,0,0:0:0:0:
192,192,19238,1,0,0:0:0:0:
320,192,19738,128,0,19905:0:0:0:0:
448,192,19905,128,0,21072:0:0:0:0:
192,192,19905,128,0,20905:0:0:0:0:
64,192,20238,1,0,0:0:0:0:
64,192,20572,1,0,0:0:0:0:
320,192,20905,128,0,21072:0:0:0:0:
192,192,21072,128,0,21238:0:0:0:0:
64,192,21238,128,0,23405:0:0:0:0:
448,192,21238,128,0,21322:0:0:0:0:
448,192,21405,128,0,21905:0:0:0:0:
320,192,21405,128,0,21655:0:0:0:0:
192,192,21738,128,0,22488:0:0:0:0:
320,192,21738,128,0,21905:0:0:0:0:
448,192,22072,1,0,0:0:0:0:
320,192,22155,1,0,0:0:0:0:
448,192,22238,1,0,0:0:0:0:
320,192,22322,1,0,0:0:0:0:
448,192,22405,1,0,0:0:0:0:
192,192,22572,128,0,23405:0:0:0:0:
320,192,22572,128,0,23155:0:0:0:0:
448,192,22905,1,0,0:0:0:0:
320,192,23238,128,0,23322:0:0:0:0:
448,192,23238,128,0,23322:0:0:0:0:
448,192,23405,128,0,23461:0:0:0:0:
320,192,23405,128,0,23461:0:0:0:0:
192,192,23572,128,0,23683:0:0:0:0:
320,192,23655,128,0,23697:0:0:0:0:
448,192,23738,128,0,23905:0:0:0:0:
64,192,23794,128,0,23905:0:0:0:0:
192,192,23905,128,0,24072:0:0:0:0:
320,192,23961,128,0,24072:0:0:0:0:
448,192,24072,128,0,24322:0:0:0:0:
64,192,24072,128,0,25405:0:0:0:0:
320,192,24238,128,0,24488:0:0:0:0:
192,192,24238,1,0,0:0:0:0:
448,192,24405,128,0,24738:0:0:0:0:
320,192,24572,128,0,24738:0:0:0:0:
192,192,24572,1,0,0:0:0:0:
192,192,24738,1,0,0:0:0:0:
448,192,24905,128,0,24988:0:0:0:0:
192,192,24988,1,0,0:0:0:0:
320,192,25072,128,0,25155:0:0:0:0:
192,192,25155,1,0,0:0:0:0:
448,192,25238,128,0,25405:0:0:0:0:
192,192,25405,128,0,25655:0:0:0:0:
320,192,25405,128,0,25488:0:0:0:0:
448,192,25572,128,0,25905:0:0:0:0:
320,192,25572,128,0,25738:0:0:0:0:
192,192,25738,128,0,25905:0:0:0:0:
64,192,25738,128,0,25822:0:0:0:0:
320,192,25905,128,0,26238:0:0:0:0:
64,192,25905,128,0,26072:0:0:0:0:
192,192,26072,128,0,26405:0:0:0:0:
448,192,26072,128,0,26238:0:0:0:0:
64,192,26238,1,0,0:0:0:0:
448,192,26322,1,0,0:0:0:0:
320,192,26405,128,0,26488:0:0:0:0:
64,192,26488,128,0,26572:0:0:0:0:
192,192,26488,128,0,26655:0:0:0:0:
448,192,26572,128,0,26738:0:0:0:0:
320,192,26572,128,0,26655:0:0:0:0:
64,192,26738,128,0,27072:0:0:0:0:
192,192,26738,128,0,26905:0:0:0:0:
320,192,26738,128,0,26905:0:0:0:0:
320,192,27072,1,0,0:0:0:0:
448,192,27072,128,0,27155:0:0:0:0:
192,192,27155,1,0,0:0:0:0:
64,192,27155,128,0,27238:0:0:0:0:
320,192,27238,1,0,0:0:0:0:
448,192,27238,128,0,27322:0:0:0:0:
192,192,27322,1,0,0:0:0:0:
64,192,27322,128,0,27405:0:0:0:0:
320,192,27405,128,0,27488:0:0:0:0:
192,192,27488,128,0,27572:0:0:0:0:
448,192,27572,128,0,27655:0:0:0:0:
64,192,27655,128,0,27738:0:0:0:0:
320,192,27738,128,0,27822:0:0:0:0:
192,192,27822,128,0,27905:0:0:0:0:
64,192,27905,128,0,27988:0:0:0:0:
448,192,27905,128,0,28072:0:0:0:0:
320,192,28072,128,0,28322:0:0:0:0:
192,192,28072,128,0,28238:0:0:0:0:
64,192,28238,128,0,28405:0:0:0:0:
448,192,28322,128,0,28405:0:0:0:0:
192,192,28405,128,0,28655:0:0:0:0:
320,192,28405,128,0,28488:0:0:0:0:
448,192,28572,128,0,28738:0:0:0:0:
320,192,28655,128,0,28738:0:0:0:0:
64,192,28738,128,0,28988:0:0:0:0:
192,192,28738,128,0,28822:0:0:0:0:
448,192,28905,128,0,29072:0:0:0:0:
192,192,28988,128,0,29072:0:0:0:0:
320,192,29072,128,0,29155:0:0:0:0:
64,192,29072,128,0,29405:0:0:0:0:
192,192,29238,128,0,29322:0:0:0:0:
320,192,29238,128,0,29405:0:0:0:0:
448,192,29405,128,0,29655:0:0:0:0:
192,192,29405,1,0,0:0:0:0:
64,192,29572,128,0,29822:0:0:0:0:
320,192,29572,1,0,0:0:0:0:
448,192,29738,128,0,30072:0:0:0:0:
192,192,29738,1,0,0:0:0:0:
64,192,29905,128,0,30072:0:0:0:0:
192,192,29905,1,0,0:0:0:0:
320,192,30072,1,0,0:0:0:0:
192,192,30238,128,0,30322:0:0:0:0:
64,192,30322,1,0,0:0:0:0:
320,192,30405,128,0,30488:0:0:0:0:
448,192,30488,1,0,0:0:0:0:
64,192,30572,128,0,30738:0:0:0:0:
192,192,30572,128,0,30822:0:0:0:0:
448,192,30738,128,0,30988:0:0:0:0:
320,192,30738,128,0,30822:0:0:0:0:
64,192,30905,128,0,31072:0:0:0:0:
320,192,30905,128,0,30988:0:0:0:0:
192,192,31072,128,0,31322:0:0:0:0:
448,192,31072,128,0,31155:0:0:0:0:
448,192,31238,128,0,31488:0:0:0:0:
320,192,31238,128,0,31322:0:0:0:0:
64,192,31405,128,0,31488:0:0:0:0:
192,192,31405,128,0,31488:0:0:0:0:
320,192,31572,128,0,31738:0:0:0:0:
192,192,31655,128,0,31738:0:0:0:0:
64,192,31738,128,0,31905:0:0:0:0:
448,192,31738,128,0,31822:0:0:0:0:
192,192,31822,128,0,31905:0:0:0:0:
448,192,31905,128,0,32072:0:0:0:0:
320,192,31905,128,0,31988:0:0:0:0:
64,192,32072,128,0,32322:0:0:0:0:
192,192,32072,128,0,32238:0:0:0:0:
320,192,32072,128,0,32238:0:0:0:0:
448,192,32405,128,0,32488:0:0:0:0:
320,192,32405,1,0,0:0:0:0:
192,192,32488,128,0,32572:0:0:0:0:
64,192,32488,1,0,0:0:0:0:
448,192,32572,128,0,32655:0:0:0:0:
320,192,32572,1,0,0:0:0:0:
192,192,32655,128,0,32738:0:0:0:0:
64,192,32655,1,0,0:0:0:0:
320,192,32738,128,0,32822:0:0:0:0:
64,192,32822,128,0,32905:0:0:0:0:
320,192,32905,128,0,32988:0:0:0:0:
64,192,32988,128,0,33072:0:0:0:0:
448,192,33072,1,0,0:0:0:0:
192,192,33072,1,0,0:0:0:0:
320,192,33072,128,0,33238:0:0:0:0:
448,192,33238,128,0,33738:0:0:0:0:
64,192,33238,1,0,0:0:0:0:
192,192,33238,128,0,33572:0:0:0:0:
64,192,33572,128,0,33822:0:0:0:0:
320,192,33572,128,0,33738:0:0:0:0:
192,192,33905,128,0,34738:0:0:0:0:
320,192,33905,128,0,34238:0:0:0:0:
448,192,34238,1,0,0:0:0:0:
320,192,34294,1,0,0:0:0:0:
64,192,34350,1,0,0:0:0:0:
448,192,34405,128,0,34516:0:0:0:0:
448,192,34572,128,0,34738:0:0:0:0:
320,192,34738,128,0,34988:0:0:0:0:
64,192,34738,1,0,0:0:0:0:
64,192,34905,128,0,35238:0:0:0:0:
192,192,34905,1,0,0:0:0:0:
320,192,35072,128,0,35405:0:0:0:0:
448,192,35072,1,0,0:0:0:0:
448,192,35238,128,0,35405:0:0:0:0:
192,192,35238,1,0,0:0:0:0:
64,192,35405,1,0,0:0:0:0:
192,192,35572,128,0,35655:0:0:0:0:
64,192,35655,1,0,0:0:0:0:
448,192,35738,128,0,35822:0:0:0:0:
320,192,35822,1,0,0:0:0:0:
64,192,35905,128,0,36072:0:0:0:0:
192,192,35905,128,0,36072:0:0:0:0:
320,192,36072,128,0,36322:0:0:0:0:
448,192,36072,1,0,0:0:0:0:
64,192,36238,128,0,36572:0:0:0:0:
192,192,36238,1,0,0:0:0:0:
320,192,36405,128,0,36572:0:0:0:0:
448,192,36405,1,0,0:0:0:0:
448,192,36572,128,0,36905:0:0:0:0:
192,192,36572,128,0,36655:0:0:0:0:
192,192,36738,1,0,0:0:0:0:
64,192,36905,5,0,0:0:0:0:
448,192,36988,1,0,0:0:0:0:
192,192,37072,128,0,37238:0:0:0:0:
64,192,37072,128,0,37155:0:0:0:0:
320,192,37155,128,0,37238:0:0:0:0:
448,192,37238,128,0,37322:0:0:0:0:
64,192,37238,128,0,37322:0:0:0:0:
448,192,37405,128,0,37738:0:0:0:0:
320,192,37405,128,0,37655:0:0:0:0:
192,192,37405,128,0,37655:0:0:0:0:
64,192,37738,128,0,37822:0:0:0:0:
192,192,37738,1,0,0:0:0:0:
320,192,37822,128,0,37905:0:0:0:0:
448,192,37822,1,0,0:0:0:0:
64,192,37905,128,0,37988:0:0:0:0:
192,192,37905,1,0,0:0:0:0:
320,192,37988,128,0,38072:0:0:0:0:
448,192,37988,1,0,0:0:0:0:
192,192,38072,128,0,38155:0:0:0:0:
448,192,38155,128,0,38238:0:0:0:0:
192,192,38238,128,0,38322:0:0:0:0:
448,192,38322,128,0,38405:0:0:0:0:
320,192,38405,128,0,38488:0:0:0:0:
192,192,38488,128,0,38572:0:0:0:0:
448,192,38572,128,0,38738:0:0:0:0:
64,192,38572,128,0,38655:0:0:0:0:
64,192,38738,128,0,38905:0:0:0:0:
320,192,38738,128,0,38905:0:0:0:0:
448,192,38905,128,0,38988:0:0:0:0:
192,192,38988,128,0,39072:0:0:0:0:
64,192,39072,128,0,39238:0:0:0:0:
448,192,39072,128,0,39238:0:0:0:0:
192,192,39238,128,0,39322:0:0:0:0:
448,192,39322,128,0,39405:0:0:0:0:
320,192,39405,128,0,39572:0:0:0:0:
192,192,39405,128,0,39572:0:0:0:0:
64,192,39572,128,0,39655:0:0:0:0:
448,192,39655,128,0,39738:0:0:0:0:
64,192,39738,128,0,39905:0:0:0:0:
192,192,39738,128,0,39822:0:0:0:0:
192,192,39905,128,0,40072:0:0:0:0:
320,192,39905,128,0,39988:0:0:0:0:
64,192,40072,128,0,40322:0:0:0:0:
448,192,40072,1,0,0:0:0:0:
448,192,40238,128,0,40488:0:0:0:0:
192,192,40238,1,0,0:0:0:0:
64,192,40405,128,0,40738:0:0:0:0:
320,192,40405,1,0,0:0:0:0:
448,192,40572,128,0,40738:0:0:0:0:
192,192,40572,1,0,0:0:0:0:
192,192,40738,1,0,0:0:0:0:
64,192,40905,128,0,40988:0:0:0:0:
448,192,40988,1,0,0:0:0:0:
192,192,41072,128,0,41155:0:0:0:0:
320,192,41155,1,0,0:0:0:0:
448,192,41238,128,0,41405:0:0:0:0:
64,192,41405,128,0,41488:0:0:0:0:
192,192,41405,128,0,41655:0:0:0:0:
320,192,41572,128,0,41905:0:0:0:0:
448,192,41572,128,0,41655:0:0:0:0:
192,192,41738,128,0,41905:0:0:0:0:
64,192,41738,128,0,41822:0:0:0:0:
448,192,41905,128,0,42238:0:0:0:0:
64,192,41905,128,0,42072:0:0:0:0:
192,192,42072,128,0,42155:0:0:0:0:
320,192,42155,128,0,42238:0:0:0:0:
64,192,42238,128,0,42322:0:0:0:0:
448,192,42322,128,0,42405:0:0:0:0:
192,192,42405,128,0,42572:0:0:0:0:
320,192,42405,128,0,42572:0:0:0:0:
448,192,42572,128,0,43072:0:0:0:0:
64,192,42572,1,0,0:0:0:0:
320,192,42655,1,0,0:0:0:0:
192,192,42738,1,0,0:0:0:0:
64,192,42822,1,0,0:0:0:0:
320,192,42905,1,0,0:0:0:0:
192,192,42988,1,0,0:0:0:0:
320,192,43072,128,0,43405:0:0:0:0:
64,192,43072,1,0,0:0:0:0:
448,192,43155,128,0,43238:0:0:0:0:
64,192,43238,128,0,43322:0:0:0:0:
192,192,43322,128,0,43405:0:0:0:0:
64,192,43405,128,0,43488:0:0:0:0:
448,192,43405,128,0,43572:0:0:0:0:
320,192,43488,128,0,43572:0:0:0:0:
192,192,43572,128,0,43655:0:0:0:0:
64,192,43655,1,0,0:0:0:0:
320,192,43738,128,0,43822:0:0:0:0:
448,192,43738,128,0,43905:0:0:0:0:
192,192,43822,1,0,0:0:0:0:
64,192,43905,128,0,44155:0:0:0:0:
320,192,43905,128,0,44072:0:0:0:0:
448,192,43988,128,0,44072:0:0:0:0:
192,192,44072,128,0,44155:0:0:0:0:
448,192,44155,128,0,44238:0:0:0:0:
64,192,44238,128,0,44322:0:0:0:0:
192,192,44238,128,0,44322:0:0:0:0:
320,192,44322,128,0,44405:0:0:0:0:
64,192,44405,128,0,44488:0:0:0:0:
448,192,44405,128,0,44488:0:0:0:0:
320,192,44488,128,0,44572:0:0:0:0:
64,192,44572,128,0,44822:0:0:0:0:
192,192,44572,128,0,44655:0:0:0:0:
448,192,44655,128,0,44738:0:0:0:0:
192,192,44738,128,0,44822:0:0:0:0:
320,192,44822,128,0,44905:0:0:0:0:
64,192,44905,128,0,45072:0:0:0:0:
448,192,44905,128,0,45155:0:0:0:0:
320,192,44988,128,0,45155:0:0:0:0:
192,192,45072,128,0,45238:0:0:0:0:
64,192,45155,128,0,45322:0:0:0:0:
448,192,45238,128,0,45405:0:0:0:0:
320,192,45322,128,0,45405:0:0:0:0:
192,192,45405,1,0,0:0:0:0:
64,192,45405,128,0,46405:0:0:0:0:
320,192,45738,1,0,0:0:0:0:
192,192,45905,1,0,0:0:0:0:
320,192,46072,1,0,0:0:0:0:
448,192,46238,1,0,0:0:0:0:
320,192,46322,1,0,0:0:0:0:
192,192,46405,1,0,0:0:0:0:
192,192,46572,1,0,0:0:0:0:
448,192,46572,128,0,48072:0:0:0:0:
192,192,46905,1,0,0:0:0:0:
64,192,47072,1,0,0:0:0:0:
192,192,47238,1,0,0:0:0:0:
320,192,47405,1,0,0:0:0:0:
192,192,47572,1,0,0:0:0:0:
320,192,47655,1,0,0:0:0:0:
192,192,47738,1,0,0:0:0:0:
192,192,47905,1,0,0:0:0:0:
320,192,48072,128,0,48405:0:0:0:0:
64,192,48072,128,0,48322:0:0:0:0:
448,192,48238,1,0,0:0:0:0:
192,192,48405,1,0,0:0:0:0:
64,192,48405,128,0,49238:0:0:0:0:
320,192,48572,1,0,0:0:0:0:
448,192,48738,1,0,0:0:0:0:
192,192,48822,1,0,0:0:0:0:
320,192,48905,1,0,0:0:0:0:
192,192,49072,1,0,0:0:0:0:
448,192,49238,1,0,0:0:0:0:
320,192,49238,128,0,50738:0:0:0:0:
448,192,49572,1,0,0:0:0:0:
64,192,49738,1,0,0:0:0:0:
448,192,49905,1,0,0:0:0:0:
192,192,50072,1,0,0:0:0:0:
448,192,50238,1,0,0:0:0:0:
192,192,50322,1,0,0:0:0:0:
64,192,50405,1,0,0:0:0:0:
64,192,50572,1,0,0:0:0:0:
192,192,50738,1,0,0:0:0:0:
448,192,50738,128,0,51905:0:0:0:0:
192,192,51072,1,0,0:0:0:0:
320,192,51238,1,0,0:0:0:0:
192,192,51405,1,0,0:0:0:0:
320,192,51572,1,0,0:0:0:0:
64,192,51655,5,0,0:0:0:0:
192,192,51738,1,0,0:0:0:0:
192,192,51905,1,0,0:0:0:0:
64,192,51905,128,0,53238:0:0:0:0:
320,192,52238,1,0,0:0:0:0:
448,192,52322,1,0,0:0:0:0:
192,192,52405,1,0,0:0:0:0:
320,192,52572,1,0,0:0:0:0:
192,192,52655,1,0,0:0:0:0:
448,192,52738,1,0,0:0:0:0:
192,192,52822,1,0,0:0:0:0:
320,192,52905,1,0,0:0:0:0:
320,192,53072,1,0,0:0:0:0:
192,192,53238,1,0,0:0:0:0:
448,192,53238,1,0,0:0:0:0:
64,192,53405,1,0,0:0:0:0:
320,192,53405,1,0,0:0:0:0:
448,192,53572,128,0,53905:0:0:0:0:
192,192,53572,1,0,0:0:0:0:
192,192,53738,128,0,54072:0:0:0:0:
320,192,53738,1,0,0:0:0:0:
320,192,53905,128,0,54238:0:0:0:0:
64,192,53905,1,0,0:0:0:0:
64,192,54072,128,0,54405:0:0:0:0:
448,192,54072,1,0,0:0:0:0:
448,192,54238,128,0,54572:0:0:0:0:
192,192,54238,1,0,0:0:0:0:
192,192,54405,128,0,54738:0:0:0:0:
320,192,54405,1,0,0:0:0:0:
64,192,54572,128,0,54738:0:0:0:0:
320,192,54572,128,0,54738:0:0:0:0:
448,192,54905,128,0,55238:0:0:0:0:
64,192,54905,1,0,0:0:0:0:
320,192,55072,128,0,55405:0:0:0:0:
192,192,55072,1,0,0:0:0:0:
192,192,55238,128,0,55572:0:0:0:0:
64,192,55238,1,0,0:0:0:0:
64,192,55405,128,0,55738:0:0:0:0:
448,192,55405,1,0,0:0:0:0:
320,192,55488,128,0,55738:0:0:0:0:
448,192,55572,128,0,55738:0:0:0:0:
192,192,55738,128,0,55822:0:0:0:0:
192,192,55905,128,0,56072:0:0:0:0:
64,192,56072,1,0,0:0:0:0:
448,192,56072,128,0,56572:0:0:0:0:
192,192,56238,128,0,56572:0:0:0:0:
320,192,56405,128,0,56572:0:0:0:0:
64,192,56572,128,0,57238:0:0:0:0:
320,192,56738,128,0,56905:0:0:0:0:
448,192,56905,128,0,57238:0:0:0:0:
192,192,57072,128,0,57238:0:0:0:0:
320,192,57238,128,0,57322:0:0:0:0:
320,192,57405,128,0,57822:0:0:0:0:
192,192,57405,128,0,57738:0:0:0:0:
64,192,57572,128,0,57738:0:0:0:0:
448,192,57738,128,0,57905:0:0:0:0:
320,192,57905,128,0,58572:0:0:0:0:
192,192,57905,128,0,58072:0:0:0:0:
64,192,58072,128,0,58238:0:0:0:0:
448,192,58238,128,0,58572:0:0:0:0:
192,192,58322,128,0,58405:0:0:0:0:
64,192,58405,128,0,58572:0:0:0:0:
192,192,58572,128,0,58655:0:0:0:0:
192,192,58738,128,0,59238:0:0:0:0:
448,192,58738,128,0,58822:0:0:0:0:
448,192,58905,128,0,59072:0:0:0:0:
320,192,59072,128,0,59238:0:0:0:0:
448,192,59238,128,0,59905:0:0:0:0:
64,192,59238,128,0,59405:0:0:0:0:
192,192,59405,128,0,59572:0:0:0:0:
320,192,59488,128,0,59572:0:0:0:0:
64,192,59572,128,0,59738:0:0:0:0:
320,192,59738,128,0,59905:0:0:0:0:
64,192,59905,128,0,59988:0:0:0:0:
64,192,60072,128,0,60572:0:0:0:0:
192,192,60072,128,0,60405:0:0:0:0:
448,192,60238,128,0,60405:0:0:0:0:
320,192,60405,128,0,60572:0:0:0:0:
192,192,60572,128,0,61072:0:0:0:0:
448,192,60572,128,0,60738:0:0:0:0:
64,192,60738,128,0,60905:0:0:0:0:
320,192,60905,128,0,61072:0:0:0:0:
64,192,61072,128,0,61155:0:0:0:0:
448,192,61072,128,0,61155:0:0:0:0:
448,192,61238,128,0,61405:0:0:0:0:
320,192,61322,128,0,61405:0:0:0:0:
64,192,61405,128,0,61738:0:0:0:0:
192,192,61405,128,0,61655:0:0:0:0:
320,192,61572,128,0,61655:0:0:0:0:
448,192,61738,128,0,61988:0:0:0:0:
192,192,61738,128,0,61822:0:0:0:0:
320,192,61905,128,0,61988:0:0:0:0:
64,192,61905,128,0,62155:0:0:0:0:
192,192,61988,128,0,62072:0:0:0:0:
448,192,62072,128,0,62322:0:0:0:0:
320,192,62155,128,0,62238:0:0:0:0:
64,192,62238,128,0,62405:0:0:0:0:
192,192,62238,128,0,62322:0:0:0:0:
192,192,62405,128,0,62572:0:0:0:0:
448,192,62405,128,0,62738:0:0:0:0:
320,192,62572,128,0,62905:0:0:0:0:
64,192,62572,128,0,62655:0:0:0:0:
192,192,62738,128,0,62988:0:0:0:0:
64,192,62738,128,0,62822:0:0:0:0:
64,192,62905,128,0,63072:0:0:0:0:
448,192,62905,128,0,63072:0:0:0:0:
320,192,63072,128,0,63322:0:0:0:0:
192,192,63072,128,0,63155:0:0:0:0:
192,192,63238,128,0,63405:0:0:0:0:
448,192,63238,128,0,63322:0:0:0:0:
448,192,63405,128,0,63655:0:0:0:0:
64,192,63405,128,0,63488:0:0:0:0:
320,192,63572,128,0,63738:0:0:0:0:
64,192,63572,128,0,63738:0:0:0:0:
192,192,63738,128,0,63988:0:0:0:0:
448,192,63738,128,0,63822:0:0:0:0:
64,192,63905,128,0,64238:0:0:0:0:
320,192,63905,128,0,64155:0:0:0:0:
320,192,64238,128,0,64488:0:0:0:0:
192,192,64238,128,0,64322:0:0:0:0:
64,192,64322,128,0,64405:0:0:0:0:
448,192,64405,128,0,64655:0:0:0:0:
192,192,64405,128,0,64572:0:0:0:0:
320,192,64572,128,0,64822:0:0:0:0:
64,192,64572,128,0,64738:0:0:0:0:
192,192,64738,128,0,64988:0:0:0:0:
448,192,64738,128,0,64905:0:0:0:0:
64,192,64822,128,0,64905:0:0:0:0:
320,192,64905,128,0,64988:0:0:0:0:
448,192,64988,128,0,65072:0:0:0:0:
320,192,65072,128,0,65155:0:0:0:0:
64,192,65072,128,0,65238:0:0:0:0:
192,192,65155,128,0,65238:0:0:0:0:
448,192,65238,128,0,66072:0:0:0:0:
320,192,65238,128,0,65822:0:0:0:0:
192,192,65572,128,0,65905:0:0:0:0:
64,192,65905,128,0,66072:0:0:0:0:
320,192,65905,1,0,0:0:0:0:
192,192,65988,128,0,66155:0:0:0:0:
320,192,66072,128,0,66238:0:0:0:0:
448,192,66155,128,0,66322:0:0:0:0:
64,192,66238,128,0,66405:0:0:0:0:
320,192,66322,128,0,66488:0:0:0:0:
192,192,66405,128,0,66572:0:0:0:0:
448,192,66488,128,0,66655:0:0:0:0:
320,192,66572,128,0,66738:0:0:0:0:
64,192,66655,128,0,66738:0:0:0:0:
192,192,66738,128,0,66905:0:0:0:0:
448,192,66738,128,0,66822:0:0:0:0:
320,192,66905,128,0,67072:0:0:0:0:
192,192,66988,128,0,67072:0:0:0:0:
64,192,67072,1,0,0:0:0:0:
448,192,67072,1,0,0:0:0:0:
320,192,67238,128,0,67322:0:0:0:0:
448,192,67405,128,0,67572:0:0:0:0:
64,192,67405,1,0,0:0:0:0:
192,192,67572,128,0,67738:0:0:0:0:
64,192,67655,128,0,67822:0:0:0:0:
320,192,67738,1,0,0:0:0:0:
448,192,67738,1,0,0:0:0:0:
64,192,67905,128,0,67988:0:0:0:0:
448,192,68072,128,0,68238:0:0:0:0:
320,192,68072,1,0,0:0:0:0:
192,192,68238,128,0,68405:0:0:0:0:
448,192,68322,128,0,68405:0:0:0:0:
64,192,68405,1,0,0:0:0:0:
320,192,68405,1,0,0:0:0:0:
320,192,68572,128,0,68655:0:0:0:0:
192,192,68738,128,0,68905:0:0:0:0:
448,192,68738,128,0,68822:0:0:0:0:
64,192,68905,128,0,69072:0:0:0:0:
320,192,68905,128,0,68988:0:0:0:0:
448,192,69072,128,0,69238:0:0:0:0:
192,192,69072,128,0,69155:0:0:0:0:
320,192,69155,128,0,69238:0:0:0:0:
192,192,69238,128,0,69322:0:0:0:0:
320,192,69405,128,0,69572:0:0:0:0:
64,192,69405,1,0,0:0:0:0:
448,192,69572,128,0,69738:0:0:0:0:
320,192,69655,128,0,69738:0:0:0:0:
192,192,69738,1,0,0:0:0:0:
64,192,69738,1,0,0:0:0:0:
64,192,69905,128,0,69988:0:0:0:0:
192,192,70072,128,0,70238:0:0:0:0:
448,192,70072,1,0,0:0:0:0:
320,192,70238,128,0,70405:0:0:0:0:
448,192,70322,128,0,70405:0:0:0:0:
192,192,70405,1,0,0:0:0:0:
64,192,70405,1,0,0:0:0:0:
448,192,70572,128,0,70738:0:0:0:0:
192,192,70738,128,0,70905:0:0:0:0:
64,192,70738,1,0,0:0:0:0:
320,192,70905,128,0,71072:0:0:0:0:
64,192,71072,128,0,71238:0:0:0:0:
448,192,71072,1,0,0:0:0:0:
192,192,71155,128,0,71238:0:0:0:0:
448,192,71238,128,0,71322:0:0:0:0:
64,192,71405,128,0,71572:0:0:0:0:
448,192,71405,1,0,0:0:0:0:
192,192,71488,128,0,71572:0:0:0:0:
448,192,71572,128,0,71738:0:0:0:0:
320,192,71572,128,0,71655:0:0:0:0:
192,192,71655,1,0,0:0:0:0:
64,192,71738,128,0,71905:0:0:0:0:
320,192,71738,128,0,71822:0:0:0:0:
192,192,71905,128,0,72072:0:0:0:0:
320,192,72072,128,0,72238:0:0:0:0:
448,192,72072,1,0,0:0:0:0:
192,192,72238,128,0,72405:0:0:0:0:
320,192,72322,128,0,72405:0:0:0:0:
64,192,72405,1,0,0:0:0:0:
448,192,72405,1,0,0:0:0:0:
192,192,72572,128,0,72655:0:0:0:0:
320,192,72738,128,0,72905:0:0:0:0:
64,192,72738,1,0,0:0:0:0:
448,192,72905,128,0,73072:0:0:0:0:
192,192,72988,128,0,73155:0:0:0:0:
320,192,73072,1,0,0:0:0:0:
64,192,73072,1,0,0:0:0:0:
192,192,73238,128,0,73322:0:0:0:0:
448,192,73405,128,0,73572:0:0:0:0:
64,192,73405,1,0,0:0:0:0:
192,192,73572,128,0,73738:0:0:0:0:
320,192,73655,128,0,73822:0:0:0:0:
64,192,73738,128,0,73822:0:0:0:0:
448,192,73738,1,0,0:0:0:0:
192,192,73905,128,0,74072:0:0:0:0:
320,192,74072,128,0,74238:0:0:0:0:
448,192,74072,1,0,0:0:0:0:
64,192,74155,128,0,74322:0:0:0:0:
448,192,74238,128,0,74405:0:0:0:0:
192,192,74238,128,0,74322:0:0:0:0:
320,192,74322,128,0,74405:0:0:0:0:
192,192,74405,128,0,74488:0:0:0:0:
64,192,74405,128,0,74572:0:0:0:0:
448,192,74488,128,0,74572:0:0:0:0:
320,192,74572,128,0,74738:0:0:0:0:
192,192,74655,128,0,74738:0:0:0:0:
64,192,74738,128,0,74905:0:0:0:0:
448,192,74738,128,0,74905:0:0:0:0:
192,192,74905,128,0,75072:0:0:0:0:
448,192,74988,128,0,75072:0:0:0:0:
320,192,75072,128,0,75238:0:0:0:0:
64,192,75072,128,0,75155:0:0:0:0:
64,192,75238,128,0,75405:0:0:0:0:
192,192,75238,128,0,75322:0:0:0:0:
192,192,75405,128,0,75655:0:0:0:0:
320,192,75405,128,0,75572:0:0:0:0:
64,192,75488,1,0,0:0:0:0:
448,192,75572,1,0,0:0:0:0:
320,192,75655,128,0,75822:0:0:0:0:
64,192,75655,128,0,75822:0:0:0:0:
192,192,75738,1,0,0:0:0:0:
448,192,75905,128,0,76322:0:0:0:0:
320,192,75905,128,0,76238:0:0:0:0:
64,192,75905,128,0,76072:0:0:0:0:
192,192,76238,128,0,76322:0:0:0:0:
64,192,76322,128,0,76405:0:0:0:0:
320,192,76405,128,0,76655:0:0:0:0:
448,192,76405,128,0,76655:0:0:0:0:
192,192,76405,128,0,76572:0:0:0:0:
64,192,76572,128,0,76655:0:0:0:0:
192,192,76655,128,0,76738:0:0:0:0:
320,192,76738,128,0,76822:0:0:0:0:
448,192,76738,128,0,76905:0:0:0:0:
64,192,76738,128,0,76988:0:0:0:0:
192,192,76905,128,0,76988:0:0:0:0:
320,192,76988,1,0,0:0:0:0:
448,192,77072,128,0,77155:0:0:0:0:
192,192,77072,128,0,77238:0:0:0:0:
64,192,77072,1,0,0:0:0:0:
320,192,77238,128,0,77322:0:0:0:0:
448,192,77238,128,0,77405:0:0:0:0:
64,192,77405,128,0,78488:0:0:0:0:
192,192,77405,1,0,0:0:0:0:
448,192,77572,128,0,77655:0:0:0:0:
192,192,77655,1,0,0:0:0:0:
320,192,77738,128,0,77822:0:0:0:0:
448,192,77905,128,0,77988:0:0:0:0:
448,192,78072,128,0,78238:0:0:0:0:
448,192,78322,128,0,78405:0:0:0:0:
64,192,78572,128,0,80072:0:0:0:0:
192,192,78572,1,0,0:0:0:0:
320,192,78905,128,0,78988:0:0:0:0:
448,192,78988,1,0,0:0:0:0:
192,192,79072,128,0,79155:0:0:0:0:
320,192,79238,1,0,0:0:0:0:
320,192,79405,1,0,0:0:0:0:
320,192,79655,1,0,0:0:0:0:
320,192,79905,1,0,0:0:0:0:
448,192,80072,128,0,81238:0:0:0:0:
192,192,80072,1,0,0:0:0:0:
320,192,80238,1,0,0:0:0:0:
64,192,80322,128,0,80405:0:0:0:0:
192,192,80405,1,0,0:0:0:0:
192,192,80572,1,0,0:0:0:0:
320,192,80738,128,0,80822:0:0:0:0:
320,192,80988,1,0,0:0:0:0:
192,192,81238,128,0,82738:0:0:0:0:
64,192,81238,1,0,0:0:0:0:
448,192,81572,128,0,81655:0:0:0:0:
320,192,81655,1,0,0:0:0:0:
64,192,81738,128,0,81905:0:0:0:0:
320,192,81905,128,0,82072:0:0:0:0:
448,192,82072,128,0,82155:0:0:0:0:
64,192,82155,128,0,82238:0:0:0:0:
320,192,82238,128,0,82322:0:0:0:0:
64,192,82322,128,0,82405:0:0:0:0:
448,192,82405,128,0,82488:0:0:0:0:
448,192,82572,128,0,82738:0:0:0:0:
320,192,82738,128,0,83738:0:0:0:0:
64,192,82738,128,0,83238:0:0:0:0:
448,192,82905,1,0,0:0:0:0:
192,192,82988,128,0,83155:0:0:0:0:
448,192,83072,1,0,0:0:0:0:
192,192,83238,128,0,83405:0:0:0:0:
448,192,83405,1,0,0:0:0:0:
64,192,83488,128,0,83655:0:0:0:0:
192,192,83572,1,0,0:0:0:0:
192,192,83738,128,0,83905:0:0:0:0:
448,192,83738,1,0,0:0:0:0:
448,192,83905,128,0,84905:0:0:0:0:
320,192,83905,128,0,84155:0:0:0:0:
64,192,83905,1,0,0:0:0:0:
320,192,84238,128,0,84488:0:0:0:0:
64,192,84238,1,0,0:0:0:0:
64,192,84572,1,0,0:0:0:0:
320,192,84572,128,0,84905:0:0:0:0:
192,192,84905,128,0,85072:0:0:0:0:
64,192,84905,128,0,85072:0:0:0:0:
448,192,85072,128,0,85238:0:0:0:0:
320,192,85072,128,0,85155:0:0:0:0:
64,192,85238,128,0,87405:0:0:0:0:
320,192,85238,128,0,85572:0:0:0:0:
448,192,85405,1,0,0:0:0:0:
192,192,85488,1,0,0:0:0:0:
448,192,85572,128,0,85655:0:0:0:0:
192,192,85655,128,0,85738:0:0:0:0:
320,192,85738,1,0,0:0:0:0:
448,192,85905,1,0,0:0:0:0:
192,192,85988,1,0,0:0:0:0:
448,192,86072,1,0,0:0:0:0:
320,192,86238,1,0,0:0:0:0:
192,192,86322,1,0,0:0:0:0:
448,192,86405,1,0,0:0:0:0:
320,192,86405,1,0,0:0:0:0:
320,192,86572,1,0,0:0:0:0:
448,192,86572,1,0,0:0:0:0:
448,192,86905,128,0,87072:0:0:0:0:
192,192,87072,5,0,0:0:0:0:
320,192,87072,128,0,87238:0:0:0:0:
192,192,87238,1,0,0:0:0:0:
448,192,87405,128,0,87488:0:0:0:0:
320,192,87405,1,0,0:0:0:0:
192,192,87488,1,0,0:0:0:0:
64,192,87572,1,0,0:0:0:0:
448,192,87572,128,0,87738:0:0:0:0:
320,192,87655,1,0,0:0:0:0:
192,192,87738,1,0,0:0:0:0:
64,192,87738,128,0,87905:0:0:0:0:
448,192,87822,128,0,87905:0:0:0:0:
192,192,87905,128,0,87988:0:0:0:0:
320,192,87988,128,0,88072:0:0:0:0:
64,192,88072,128,0,88155:0:0:0:0:
448,192,88072,128,0,88238:0:0:0:0:
192,192,88072,1,0,0:0:0:0:
64,192,88238,128,0,88322:0:0:0:0:
192,192,88238,128,0,88322:0:0:0:0:
448,192,88322,128,0,88488:0:0:0:0:
192,192,88405,128,0,88572:0:0:0:0:
320,192,88405,128,0,88488:0:0:0:0:
64,192,88572,128,0,88655:0:0:0:0:
448,192,88572,128,0,88738:0:0:0:0:
320,192,88738,128,0,88822:0:0:0:0:
64,192,88738,128,0,88905:0:0:0:0:
192,192,88822,128,0,88905:0:0:0:0:
448,192,88905,128,0,89072:0:0:0:0:
320,192,88988,128,0,89072:0:0:0:0:
192,192,89072,128,0,89155:0:0:0:0:
64,192,89072,128,0,89322:0:0:0:0:
448,192,89238,128,0,89405:0:0:0:0:
320,192,89322,128,0,89405:0:0:0:0:
192,192,89405,128,0,89488:0:0:0:0:
64,192,89405,128,0,89572:0:0:0:0:
192,192,89572,128,0,89738:0:0:0:0:
448,192,89572,128,0,89655:0:0:0:0:
64,192,89738,128,0,89822:0:0:0:0:
448,192,89738,128,0,89822:0:0:0:0:
192,192,89822,128,0,89905:0:0:0:0:
320,192,89822,128,0,89905:0:0:0:0:
448,192,89905,128,0,90072:0:0:0:0:
64,192,89905,128,0,89988:0:0:0:0:
320,192,89988,128,0,90072:0:0:0:0:
64,192,90072,128,0,90155:0:0:0:0:
192,192,90072,128,0,90238:0:0:0:0:
320,192,90238,128,0,90322:0:0:0:0:
448,192,90238,128,0,90322:0:0:0:0:
64,192,90322,128,0,90405:0:0:0:0:
448,192,90405,128,0,90488:0:0:0:0:
192,192,90405,128,0,90488:0:0:0:0:
64,192,90488,128,0,90572:0:0:0:0:
320,192,90572,128,0,90738:0:0:0:0:
448,192,90572,128,0,90738:0:0:0:0:
192,192,90738,128,0,91072:0:0:0:0:
64,192,90738,128,0,91072:0:0:0:0:
448,192,91072,128,0,91155:0:0:0:0:
320,192,91072,128,0,91405:0:0:0:0:
192,192,91155,128,0,91238:0:0:0:0:
64,192,91238,128,0,91322:0:0:0:0:
192,192,91322,1,0,0:0:0:0:
448,192,91405,128,0,91488:0:0:0:0:
64,192,91405,128,0,91738:0:0:0:0:
192,192,91488,128,0,91572:0:0:0:0:
320,192,91572,128,0,91655:0:0:0:0:
192,192,91655,1,0,0:0:0:0:
320,192,91738,128,0,91822:0:0:0:0:
448,192,91738,128,0,92072:0:0:0:0:
64,192,91822,128,0,91905:0:0:0:0:
192,192,91905,128,0,92072:0:0:0:0:
320,192,91905,1,0,0:0:0:0:
320,192,92072,128,0,92155:0:0:0:0:
64,192,92072,128,0,92322:0:0:0:0:
448,192,92238,128,0,92572:0:0:0:0:
320,192,92322,128,0,92405:0:0:0:0:
192,192,92405,128,0,92655:0:0:0:0:
64,192,92405,128,0,92488:0:0:0:0:
320,192,92572,128,0,92905:0:0:0:0:
64,192,92655,128,0,92738:0:0:0:0:
448,192,92738,128,0,92988:0:0:0:0:
192,192,92738,128,0,92822:0:0:0:0:
192,192,92905,128,0,93155:0:0:0:0:
320,192,92988,128,0,93072:0:0:0:0:
64,192,93072,128,0,93405:0:0:0:0:
448,192,93072,128,0,93155:0:0:0:0:
192,192,93238,128,0,93405:0:0:0:0:
320,192,93238,128,0,93322:0:0:0:0:
320,192,93405,128,0,93488:0:0:0:0:
448,192,93405,128,0,93655:0:0:0:0:
64,192,93572,128,0,93655:0:0:0:0:
192,192,93572,128,0,93655:0:0:0:0:
320,192,93655,128,0,93738:0:0:0:0:
448,192,93738,128,0,93822:0:0:0:0:
64,192,93738,128,0,93822:0:0:0:0:
64,192,93905,128,0,94072:0:0:0:0:
320,192,93905,128,0,93988:0:0:0:0:
448,192,94072,128,0,94155:0:0:0:0:
320,192,94072,128,0,94238:0:0:0:0:
64,192,94155,128,0,94238:0:0:0:0:
192,192,94155,128,0,94322:0:0:0:0:
448,192,94238,128,0,94405:0:0:0:0:
320,192,94322,128,0,94405:0:0:0:0:
64,192,94405,128,0,94488:0:0:0:0:
192,192,94405,128,0,94655:0:0:0:0:
320,192,94572,128,0,94738:0:0:0:0:
448,192,94655,128,0,94738:0:0:0:0:
192,192,94738,128,0,94822:0:0:0:0:
64,192,94738,128,0,94988:0:0:0:0:
320,192,94905,128,0,95072:0:0:0:0:
448,192,94905,128,0,95072:0:0:0:0:
192,192,95072,128,0,95155:0:0:0:0:
64,192,95072,128,0,95238:0:0:0:0:
448,192,95155,128,0,95238:0:0:0:0:
320,192,95238,128,0,95405:0:0:0:0:
64,192,95322,128,0,95405:0:0:0:0:
448,192,95405,128,0,95655:0:0:0:0:
192,192,95405,128,0,95572:0:0:0:0:
64,192,95572,128,0,95655:0:0:0:0:
320,192,95655,128,0,95738:0:0:0:0:
192,192,95738,128,0,95822:0:0:0:0:
64,192,95738,128,0,95905:0:0:0:0:
320,192,95822,128,0,95988:0:0:0:0:
192,192,95905,128,0,96072:0:0:0:0:
448,192,95905,128,0,95988:0:0:0:0:
64,192,96072,128,0,96405:0:0:0:0:
448,192,96072,128,0,96322:0:0:0:0:
448,192,96405,128,0,96488:0:0:0:0:
320,192,96405,128,0,96572:0:0:0:0:
192,192,96488,128,0,96572:0:0:0:0:
64,192,96572,128,0,96738:0:0:0:0:
192,192,96655,128,0,96738:0:0:0:0:
448,192,96738,128,0,96822:0:0:0:0:
320,192,96738,128,0,96905:0:0:0:0:
64,192,96822,128,0,96988:0:0:0:0:
192,192,96905,128,0,96988:0:0:0:0:
448,192,96988,128,0,97072:0:0:0:0:
320,192,97072,128,0,97238:0:0:0:0:
64,192,97072,128,0,97155:0:0:0:0:
192,192,97155,128,0,97238:0:0:0:0:
448,192,97238,128,0,97572:0:0:0:0:
64,192,97238,128,0,97572:0:0:0:0:
320,192,97572,128,0,97822:0:0:0:0:
192,192,97572,128,0,97905:0:0:0:0:
448,192,97738,1,0,0:0:0:0:
64,192,97905,128,0,98738:0:0:0:0:
320,192,97905,128,0,98238:0:0:0:0:
448,192,98238,1,0,0:0:0:0:
320,192,98294,1,0,0:0:0:0:
192,192,98350,1,0,0:0:0:0:
448,192,98405,128,0,98516:0:0:0:0:
448,192,98572,128,0,98738:0:0:0:0:
192,192,98738,128,0,98822:0:0:0:0:
320,192,98738,128,0,98988:0:0:0:0:
64,192,98822,1,0,0:0:0:0:
192,192,98905,1,0,0:0:0:0:
448,192,98905,128,0,99072:0:0:0:0:
320,192,99072,128,0,99155:0:0:0:0:
64,192,99072,128,0,99238:0:0:0:0:
448,192,99238,128,0,99405:0:0:0:0:
192,192,99238,128,0,99322:0:0:0:0:
320,192,99405,128,0,99488:0:0:0:0:
64,192,99405,128,0,99572:0:0:0:0:
448,192,99488,128,0,99572:0:0:0:0:
320,192,99572,128,0,99738:0:0:0:0:
448,192,99655,128,0,99738:0:0:0:0:
192,192,99738,128,0,99822:0:0:0:0:
64,192,99738,128,0,99988:0:0:0:0:
320,192,99905,128,0,100072:0:0:0:0:
448,192,99988,128,0,100072:0:0:0:0:
64,192,100072,128,0,100155:0:0:0:0:
192,192,100072,128,0,100322:0:0:0:0:
320,192,100238,128,0,100405:0:0:0:0:
448,192,100238,128,0,100322:0:0:0:0:
64,192,100405,128,0,100488:0:0:0:0:
192,192,100405,128,0,100572:0:0:0:0:
448,192,100488,128,0,100572:0:0:0:0:
320,192,100488,128,0,100572:0:0:0:0:
64,192,100572,128,0,100655:0:0:0:0:
320,192,100655,128,0,100738:0:0:0:0:
64,192,100738,128,0,100822:0:0:0:0:
448,192,100738,128,0,100988:0:0:0:0:
320,192,100905,128,0,101072:0:0:0:0:
192,192,100988,128,0,101072:0:0:0:0:
448,192,101072,128,0,101155:0:0:0:0:
64,192,101072,128,0,101155:0:0:0:0:
192,192,101155,128,0,101238:0:0:0:0:
320,192,101155,128,0,101238:0:0:0:0:
448,192,101238,128,0,101405:0:0:0:0:
64,192,101238,128,0,101322:0:0:0:0:
64,192,101405,128,0,101738:0:0:0:0:
320,192,101405,128,0,101738:0:0:0:0:
448,192,101738,128,0,101822:0:0:0:0:
192,192,101738,128,0,102072:0:0:0:0:
64,192,101822,128,0,101905:0:0:0:0:
320,192,101905,128,0,101988:0:0:0:0:
64,192,101988,1,0,0:0:0:0:
448,192,102072,128,0,102155:0:0:0:0:
320,192,102072,128,0,102405:0:0:0:0:
64,192,102155,128,0,102238:0:0:0:0:
192,192,102238,128,0,102322:0:0:0:0:
64,192,102322,1,0,0:0:0:0:
192,192,102405,128,0,102488:0:0:0:0:
448,192,102405,128,0,102738:0:0:0:0:
64,192,102488,128,0,102572:0:0:0:0:
320,192,102572,128,0,102655:0:0:0:0:
64,192,102655,1,0,0:0:0:0:
192,192,102738,128,0,102822:0:0:0:0:
320,192,102738,128,0,102988:0:0:0:0:
448,192,102905,128,0,103155:0:0:0:0:
64,192,102988,128,0,103072:0:0:0:0:
192,192,103072,128,0,103322:0:0:0:0:
320,192,103072,128,0,103155:0:0:0:0:
320,192,103238,128,0,103488:0:0:0:0:
64,192,103322,128,0,103405:0:0:0:0:
192,192,103405,128,0,103488:0:0:0:0:
448,192,103405,128,0,103572:0:0:0:0:
192,192,103572,128,0,103822:0:0:0:0:
64,192,103572,1,0,0:0:0:0:
448,192,103655,128,0,103738:0:0:0:0:
64,192,103738,128,0,103822:0:0:0:0:
320,192,103738,128,0,103905:0:0:0:0:
192,192,103905,128,0,104072:0:0:0:0:
448,192,103905,128,0,103988:0:0:0:0:
64,192,104072,128,0,104238:0:0:0:0:
320,192,104072,128,0,104155:0:0:0:0:
448,192,104238,128,0,104322:0:0:0:0:
320,192,104238,128,0,104405:0:0:0:0:
192,192,104322,128,0,104572:0:0:0:0:
64,192,104322,128,0,104405:0:0:0:0:
448,192,104405,128,0,104488:0:0:0:0:
448,192,104572,128,0,104738:0:0:0:0:
64,192,104572,128,0,104655:0:0:0:0:
64,192,104738,128,0,104905:0:0:0:0:
192,192,104738,128,0,104822:0:0:0:0:
320,192,104822,128,0,104988:0:0:0:0:
448,192,104822,128,0,104905:0:0:0:0:
192,192,104905,128,0,104988:0:0:0:0:
64,192,104988,128,0,105072:0:0:0:0:
448,192,104988,128,0,105072:0:0:0:0:
192,192,105072,128,0,105238:0:0:0:0:
320,192,105072,128,0,105238:0:0:0:0:
64,192,105238,128,0,105322:0:0:0:0:
448,192,105238,128,0,105322:0:0:0:0:
320,192,105322,128,0,105405:0:0:0:0:
64,192,105405,128,0,105572:0:0:0:0:
192,192,105405,128,0,105655:0:0:0:0:
448,192,105572,128,0,105738:0:0:0:0:
320,192,105572,128,0,105822:0:0:0:0:
64,192,105738,128,0,105905:0:0:0:0:
192,192,105738,128,0,105822:0:0:0:0:
448,192,105822,128,0,105905:0:0:0:0:
320,192,105905,128,0,106072:0:0:0:0:
192,192,105905,128,0,105988:0:0:0:0:
64,192,105988,128,0,106072:0:0:0:0:
192,192,106072,128,0,106238:0:0:0:0:
448,192,106072,128,0,106322:0:0:0:0:
320,192,106238,128,0,106405:0:0:0:0:
192,192,106322,128,0,106405:0:0:0:0:
448,192,106405,128,0,106572:0:0:0:0:
64,192,106405,128,0,106488:0:0:0:0:
320,192,106488,1,0,0:0:0:0:
64,192,106572,128,0,106988:0:0:0:0:
192,192,106572,128,0,107155:0:0:0:0:
320,192,106905,128,0,107322:0:0:0:0:
64,192,107072,128,0,107655:0:0:0:0:
448,192,107072,128,0,107322:0:0:0:0:
192,192,107238,128,0,107488:0:0:0:0:
320,192,107405,128,0,107822:0:0:0:0:
448,192,107405,128,0,107822:0:0:0:0:
192,192,107572,128,0,107655:0:0:0:0:
64,192,107738,128,0,108072:0:0:0:0:
192,192,107738,128,0,108155:0:0:0:0:
320,192,107905,128,0,108238:0:0:0:0:
448,192,107905,128,0,108322:0:0:0:0:
64,192,108238,128,0,108905:0:0:0:0:
192,192,108405,128,0,108905:0:0:0:0:
320,192,108572,128,0,108738:0:0:0:0:
448,192,108572,128,0,108738:0:0:0:0:
320,192,108905,128,0,109322:0:0:0:0:
448,192,108905,128,0,109322:0:0:0:0:
64,192,109072,128,0,109322:0:0:0:0:
192,192,109072,128,0,109322:0:0:0:0:
64,192,109405,1,0,0:0:0:0:
192,192,109405,1,0,0:0:0:0:
320,192,109405,1,0,0:0:0:0:
448,192,109405,1,0,0:0:0:0:
