osu file format v14

[General]
AudioFilename: audio.mp3
AudioLeadIn: 0
PreviewTime: 4197
Countdown: 0
SampleSet: Normal
StackLeniency: 0.2
Mode: 0
LetterboxInBreaks: 0
WidescreenStoryboard: 1

[Editor]
Bookmarks: 4197,25121,49577,69740,90338,114795,135012
DistanceSpacing: 2.9
BeatDivisor: 12
GridSize: 8
TimelineZoom: 1

[Metadata]
Title:Goodbye
TitleUnicode:Goodbye
Artist:Melvv & MOONZz
ArtistUnicode:Melvv & MOONZz
Creator:X GLIB
Version:Normal
Source:
Tags:
BeatmapID:1311580
BeatmapSetID:616929

[Difficulty]
HPDrainRate:5
CircleSize:4
OverallDifficulty:7
ApproachRate:8.3
SliderMultiplier:1.4
SliderTickRate:1

[Events]
//Background and Video events
0,0,"7168990cbf7ae96e0c74a911ce5c3de0.jpg",0,0
//Break Periods
2,110429,114045
//Storyboard Layer 0 (Background)
//Storyboard Layer 1 (Fail)
//Storyboard Layer 2 (Pass)
//Storyboard Layer 3 (Foreground)
//Storyboard Sound Samples

[TimingPoints]
5230,652.173913043478,4,1,0,100,1,0

[HitObjects]
176,248,4251,5,0,0:0:0:0:
344,168,4523,2,0,L|392:232,1,70
248,128,5230,1,0,0:0:0:0:
240,272,5556,2,0,L|176:240,1,70
248,176,6534,1,0,0:0:0:0:
248,176,6860,6,0,L|280:152,1,35
368,240,7186,1,0,0:0:0:0:
368,104,7349,1,0,0:0:0:0:
248,184,7512,2,0,L|176:208,1,70
264,296,8164,2,0,L|198:322,1,70
200,232,9143,1,0,0:0:0:0:
288,320,9414,5,0,0:0:0:0:
304,176,9632,1,0,0:0:0:0:
160,272,9795,2,0,L|216:216,1,70
384,280,10447,1,0,0:0:0:0:
288,320,10814,2,0,L|232:288,1,61.25
104,200,11425,2,0,L|152:144,1,70
320,184,11914,1,0,0:0:0:0:
240,312,12077,2,0,L|200:312,1,35
104,200,12403,1,0,0:0:0:0:
208,104,12607,2,0,L|264:104,1,52.5
392,208,13056,1,0,0:0:0:0:
280,312,13219,1,0,0:0:0:0:
160,272,13382,2,0,L|128:208,1,70
200,152,14360,1,0,0:0:0:0:
344,232,14686,5,0,0:0:0:0:
176,304,15012,1,0,0:0:0:0:
112,200,15175,2,0,L|80:176,2,35
256,288,15664,2,0,P|296:312|336:312,1,81.6666666666667
184,192,16316,6,0,L|160:160,1,35
288,152,16643,1,0,0:0:0:0:
352,256,16806,1,0,0:0:0:0:
232,296,16969,2,0,L|253:324,1,35
136,176,17295,6,0,L|112:144,1,35
336,176,17621,2,0,L|384:208,1,58.3333333333333
232,296,18056,1,0,0:0:0:0:
200,144,18273,2,0,L|288:144,1,81.6666666666667
104,248,18925,1,0,0:0:0:0:
192,344,19251,2,0,L|256:304,1,70
251,306,19903,6,0,L|283:338,1,35
251,306,20229,1,0,0:0:0:0:
256,144,20393,1,0,0:0:0:0:
112,256,20556,2,0,L|152:248,1,35
344,216,20882,1,0,0:0:0:0:
344,216,21208,6,0,L|416:184,1,70
176,112,21860,2,0,L|120:160,1,70
208,304,22403,2,0,L|264:272,1,58.3333333333333
344,136,22838,1,0,0:0:0:0:
272,48,23001,1,0,0:0:0:0:
200,144,23164,2,0,L|168:160,1,35
344,136,23490,1,0,0:0:0:0:
208,304,23816,2,0,L|144:256,1,70
272,72,24469,2,0,L|336:112,1,70
280,216,25121,5,0,0:0:0:0:
416,176,25447,1,0,0:0:0:0:
320,328,25773,2,0,L|288:304,1,35
192,264,26099,1,0,0:0:0:0:
192,264,26425,2,0,L|224:192,1,70
272,332,27077,2,0,L|344:300,1,70
304,128,27729,1,0,0:0:0:0:
328,315,28056,2,0,B|296:280|296:280|304:256|304:256|296:248,1,81.6666666666667
136,200,28708,1,0,0:0:0:0:
264,120,29034,6,0,L|296:144,1,35
136,200,29360,2,0,L|168:216,1,35
328,224,29686,1,0,0:0:0:0:
200,320,29849,1,0,0:0:0:0:
160,176,30012,2,0,L|192:160,1,35
312,144,30338,6,0,L|344:176,1,35
320,280,30664,1,0,0:0:0:0:
200,320,30827,1,0,0:0:0:0:
400,144,30990,2,0,L|408:184,1,35
136,128,31316,2,0,L|184:104,1,46.6666666666667
312,160,31806,1,0,0:0:0:0:
344,256,31969,2,0,L|264:304,1,93.3333333333333
136,168,32621,2,0,L|232:120,1,105
384,264,33274,2,0,L|360:296,1,35
384,264,33599,2,0,L|368:192,1,70
320,136,34088,5,0,0:0:0:0:
176,248,34251,2,0,L|208:264,1,35
176,96,34577,2,0,L|144:80,1,35
152,232,34903,1,0,0:0:0:0:
280,192,35066,1,0,0:0:0:0:
376,96,35229,2,0,L|408:128,1,35
352,296,35556,2,0,L|384:264,1,35
192,304,35882,6,0,L|176:264,1,35
96,136,36208,1,0,0:0:0:0:
232,192,36534,2,0,L|192:168,1,46.6666666666667
320,264,36969,2,0,P|328:288|400:296,1,105
232,192,37621,2,0,B|216:168|200:168|176:176|152:168|144:112,1,128.333333333333
144,272,38490,2,0,L|104:304,1,46.6666666666667
232,192,38871,2,0,B|264:176|264:160|304:192|320:184|344:160,1,116.666666666667
128,176,39795,6,0,L|168:176,1,35
248,280,40121,1,0,0:0:0:0:
184,112,40284,1,0,0:0:0:0:
288,192,40447,2,0,L|328:192,1,35
256,72,40773,2,0,L|224:48,1,35
128,160,41099,6,0,L|176:168,1,46.6666666666667
288,216,41479,1,0,0:0:0:0:
352,88,41751,2,0,L|408:144,1,70
328,256,42295,1,0,0:0:0:0:
159,240,42458,2,0,L|208:200,1,58.3333333333333
320,152,42893,1,0,0:0:0:0:
328,256,43056,2,0,P|384:248|392:216,1,93.3333333333333
192,184,43653,2,0,L|144:136,1,58.3333333333333
344,96,44306,2,0,P|392:88|344:104,1,151.666666666667
128,256,45664,5,0,0:0:0:0:
256,336,45990,2,0,L|296:320,1,35
352,288,46316,2,0,P|392:256|376:192,1,116.666666666667
256,336,47132,1,0,0:0:0:0:
296,216,47512,1,0,0:0:0:0:
152,208,47675,2,0,B|192:184|184:176|168:128|160:120|128:136|120:152|88:208|80:272|176:264,1,268.333333333333
64,200,49577,5,0,0:0:0:0:
144,80,49740,2,0,L|184:72,1,35
216,200,50066,1,0,0:0:0:0:
368,144,50229,2,0,L|336:160,1,35
304,312,50556,1,0,0:0:0:0:
216,200,50719,1,0,0:0:0:0:
184,80,50882,2,0,L|184:40,1,35
304,136,51208,1,0,0:0:0:0:
88,136,51371,1,0,0:0:0:0:
144,328,51534,2,0,L|184:320,1,35
328,216,51860,2,0,L|326:256,1,35
240,176,52186,5,0,0:0:0:0:
192,296,52349,1,0,0:0:0:0:
80,224,52512,1,0,0:0:0:0:
128,104,52675,1,0,0:0:0:0:
320,72,52838,2,0,L|288:88,1,35
200,48,53164,1,0,0:0:0:0:
232,192,53327,1,0,0:0:0:0:
360,232,53490,2,0,L|360:192,1,35
384,80,53816,1,0,0:0:0:0:
264,160,53979,1,0,0:0:0:0:
248,296,54143,6,0,L|248:256,1,35
152,72,54469,1,0,0:0:0:0:
112,216,54632,2,0,L|112:256,1,35
264,128,54958,1,0,0:0:0:0:
264,280,55121,1,0,0:0:0:0:
392,240,55284,1,0,0:0:0:0:
392,240,55447,2,0,L|414:306,1,70
400,96,55936,1,0,0:0:0:0:
224,112,56099,1,0,0:0:0:0:
360,224,56425,2,0,L|392:240,1,35
208,336,56751,1,0,0:0:0:0:
184,168,56914,1,0,0:0:0:0:
288,240,57077,1,0,0:0:0:0:
352,160,57403,6,0,L|392:152,1,35
136,232,57729,1,0,0:0:0:0:
320,224,57893,1,0,0:0:0:0:
192,112,58056,2,0,L|160:88,1,35
376,168,58382,2,0,L|408:192,1,35
360,296,58708,1,0,0:0:0:0:
168,304,59034,2,0,L|144:272,1,35
112,160,59360,6,0,L|144:144,2,35
248,72,59849,1,0,0:0:0:0:
384,96,60012,2,0,L|416:120,1,35
192,248,60338,2,0,L|168:280,1,35
248,112,60664,2,0,L|269:140,1,35
384,96,60990,1,0,0:0:0:0:
368,240,61153,1,0,0:0:0:0:
368,240,61316,2,0,L|392:272,1,35
176,224,61643,2,0,L|144:240,1,35
256,320,61969,1,0,0:0:0:0:
368,240,62132,1,0,0:0:0:0:
288,80,62295,1,0,0:0:0:0:
376,72,62621,5,0,0:0:0:0:
240,152,62784,1,0,0:0:0:0:
408,168,62947,1,0,0:0:0:0:
248,248,63110,2,0,L|248:288,1,35
256,96,63599,1,0,0:0:0:0:
328,256,63762,1,0,0:0:0:0:
152,256,63925,2,0,L|112:240,1,35
256,168,64251,1,0,0:0:0:0:
328,256,64414,1,0,0:0:0:0:
256,96,64577,6,0,L|224:80,1,35
360,96,64903,1,0,0:0:0:0:
136,152,65066,2,0,L|104:136,1,35
128,304,65393,2,0,L|160:288,1,35
240,208,65719,1,0,0:0:0:0:
352,128,65882,2,0,L|384:104,1,35
240,208,66208,1,0,0:0:0:0:
360,256,66371,2,0,L|400:264,1,35
144,176,66860,2,0,L|104:168,1,35
320,152,67186,1,0,0:0:0:0:
232,280,67349,1,0,0:0:0:0:
112,272,67512,2,0,L|72:256,1,35
336,280,67838,5,0,0:0:0:0:
256,144,68001,1,0,0:0:0:0:
408,144,68164,1,0,0:0:0:0:
336,280,68327,1,0,0:0:0:0:
256,144,68490,1,0,0:0:0:0:
184,272,68816,1,0,0:0:0:0:
120,144,68979,1,0,0:0:0:0:
256,144,69143,1,0,0:0:0:0:
408,144,69469,1,0,0:0:0:0:
112,296,69740,6,0,L|152:264,1,46.6666666666667
232,208,70121,1,0,0:0:0:0:
376,136,70284,1,0,0:0:0:0:
232,72,70447,1,0,0:0:0:0:
294,239,70773,2,0,L|230:207,1,70
231,207,71751,1,0,0:0:0:0:
231,207,72077,6,0,L|279:151,1,70
160,280,72566,1,0,0:0:0:0:
276,153,72838,1,0,0:0:0:0:
272,320,73055,1,0,0:0:0:0:
276,153,73381,2,0,L|348:145,1,70
376,328,74360,1,0,0:0:0:0:
136,312,75012,6,0,L|168:280,1,35
216,232,75338,1,0,0:0:0:0:
104,168,75501,1,0,0:0:0:0:
280,264,75664,1,0,0:0:0:0:
344,160,76031,2,0,L|288:128,1,61.25
64,192,76643,2,0,L|127:221,1,70
376,248,77295,1,0,0:0:0:0:
376,248,77458,2,0,L|312:208,1,70
176,112,77947,1,0,0:0:0:0:
320,208,78273,2,0,L|348:187,1,35
184,288,78599,2,0,L|128:336,1,70
152,168,79251,2,0,L|216:136,1,70
240,144,79849,5,0,0:0:0:0:
240,144,80066,2,0,L|200:160,1,35
88,224,80393,1,0,0:0:0:0:
248,280,80664,1,0,0:0:0:0:
248,280,80881,2,0,P|288:312|328:304,1,93.3333333333333
184,192,81533,2,0,L|160:160,1,35
304,160,81860,1,0,0:0:0:0:
376,280,82023,1,0,0:0:0:0:
195,284,82186,2,0,L|216:312,1,35
96,168,82512,6,0,L|88:128,1,35
272,136,82838,1,0,0:0:0:0:
384,224,83001,1,0,0:0:0:0:
272,136,83273,1,0,0:0:0:0:
272,136,83490,2,0,L|352:144,1,70
104,248,84143,1,0,0:0:0:0:
192,344,84469,2,0,L|256:304,1,70
392,200,85121,5,0,0:0:0:0:
304,96,85284,2,0,L|320:64,1,35
240,224,85610,1,0,0:0:0:0:
104,176,85773,2,0,L|77:198,1,35
192,80,86099,1,0,0:0:0:0:
312,144,86425,2,0,P|336:168|344:208,1,70
280,296,87077,2,0,P|256:320|216:328,1,70
136,240,87729,2,0,L|128:200,1,35
144,88,88056,2,0,L|184:80,1,35
280,64,88382,1,0,0:0:0:0:
144,88,88708,2,0,L|112:120,1,35
128,232,89034,1,0,0:0:0:0:
240,304,89360,2,0,L|272:288,1,35
384,192,89686,2,0,P|368:152|344:136,1,70
256,288,90338,5,0,0:0:0:0:
160,120,90664,1,0,0:0:0:0:
328,112,90990,2,0,P|352:120|352:136,1,35
344,256,91316,1,0,0:0:0:0:
216,304,91643,2,0,P|168:280|160:264,2,70
344,256,92621,1,0,0:0:0:0:
176,136,92947,2,0,P|192:96|224:80,1,70
240,216,93436,1,0,0:0:0:0:
280,80,93599,2,0,P|319:96|336:248,1,210
240,216,95229,1,0,0:0:0:0:
304,72,95556,5,0,0:0:0:0:
400,176,95882,2,0,L|408:216,1,35
232,256,96208,1,0,0:0:0:0:
156,144,96534,2,0,P|180:112|212:104,1,70
208,104,97023,1,0,0:0:0:0:
208,103,97186,2,0,P|176:115|157:144,1,70
352,232,97838,2,0,P|328:264|296:272,1,70
301,272,98327,1,0,0:0:0:0:
301,272,98490,2,0,P|333:260|353:232,2,70
328,168,99795,1,0,0:0:0:0:
216,104,100447,1,0,0:0:0:0:
56,168,100773,5,0,0:0:0:0:
136,144,100936,2,0,L|208:120,1,70
368,104,101425,1,0,0:0:0:0:
400,320,101751,1,0,0:0:0:0:
288,160,102023,2,0,L|360:200,1,81.6666666666667
280,296,102729,2,0,L|216:264,1,70
216,112,103382,1,0,0:0:0:0:
312,280,103708,1,0,0:0:0:0:
368,104,103871,1,0,0:0:0:0:
216,232,104034,2,0,L|168:288,1,70
64,136,104686,6,0,L|128:96,1,70
272,144,105338,1,0,0:0:0:0:
208,232,105501,1,0,0:0:0:0:
312,296,105664,2,0,L|328:256,1,35
440,248,105990,2,0,L|424:288,1,35
232,192,106316,6,0,L|219:224,1,35
288,344,106643,1,0,0:0:0:0:
424,232,106969,1,0,0:0:0:0:
368,104,107458,1,0,0:0:0:0:
248,80,107621,2,0,L|184:112,1,70
144,184,108110,1,0,0:0:0:0:
152,264,108273,2,0,L|208:312,1,70
304,288,108762,1,0,0:0:0:0:
384,216,109088,1,0,0:0:0:0:
166,206,109414,2,0,P|206:134|288:144,1,175
192,56,114795,5,0,0:0:0:0:
296,128,114958,2,0,L|320:160,2,35
448,208,115447,1,0,0:0:0:0:
295,291,115773,1,0,0:0:0:0:
368,200,115936,1,0,0:0:0:0:
142,297,116099,2,0,L|160:328,1,35
80,176,116425,2,0,L|64:144,1,35
200,96,116751,1,0,0:0:0:0:
248,272,116914,1,0,0:0:0:0:
360,200,117077,2,0,L|288:168,1,70
344,64,117566,1,0,0:0:0:0:
184,64,117729,2,0,L|144:64,1,35
272,192,118056,2,0,L|272:232,1,35
352,328,118382,5,0,0:0:0:0:
416,192,118545,1,0,0:0:0:0:
272,192,118708,1,0,0:0:0:0:
272,192,119034,1,0,0:0:0:0:
224,328,119360,1,0,0:0:0:0:
104,216,119523,1,0,0:0:0:0:
272,192,119686,1,0,0:0:0:0:
272,192,119849,1,0,0:0:0:0:
88,264,120012,6,0,L|120:288,1,35
272,192,120338,1,0,0:0:0:0:
408,248,120664,2,0,L|448:232,1,35
288,136,120990,1,0,0:0:0:0:
264,328,121153,1,0,0:0:0:0:
320,216,121316,1,0,0:0:0:0:
120,144,121643,2,0,L|152:168,1,35
96,336,121969,1,0,0:0:0:0:
264,328,122132,2,0,L|296:304,1,35
80,192,122621,5,0,0:0:0:0:
192,312,122784,1,0,0:0:0:0:
176,96,122947,1,0,0:0:0:0:
96,280,123110,1,0,0:0:0:0:
296,160,123273,2,0,L|264:176,1,35
360,296,123600,1,0,0:0:0:0:
416,88,123763,1,0,0:0:0:0:
240,168,123926,2,0,L|240:133,1,35
160,304,124252,1,0,0:0:0:0:
80,104,124415,1,0,0:0:0:0:
272,160,124578,1,0,0:0:0:0:
104,264,124741,1,0,0:0:0:0:
176,61,124903,2,0,L|174:95,1,35
288,288,125230,5,0,0:0:0:0:
176,96,125393,1,0,0:0:0:0:
144,320,125556,1,0,0:0:0:0:
288,160,125719,1,0,0:0:0:0:
88,208,125882,2,0,L|56:224,1,35
288,160,126208,1,0,0:0:0:0:
144,320,126371,1,0,0:0:0:0:
320,256,126534,2,0,L|320:216,1,35
144,320,126860,2,0,L|160:288,1,35
216,184,127186,1,0,0:0:0:0:
216,184,127349,1,0,0:0:0:0:
216,184,127512,2,0,L|296:192,1,70
392,280,128001,2,0,L|408:320,1,35
344,160,128327,1,0,0:0:0:0:
248,304,128490,2,0,L|232:272,1,35
336,112,128816,1,0,0:0:0:0:
169,115,128979,1,0,0:0:0:0:
248,304,129143,2,0,L|248:264,1,35
248,152,129469,1,0,0:0:0:0:
248,152,129795,5,0,0:0:0:0:
288,288,129958,2,0,L|328:280,1,35
136,240,130284,1,0,0:0:0:0:
104,96,130447,2,0,L|136:72,1,35
264,144,130773,2,0,L|264:184,1,35
336,328,131099,2,0,L|360:303,1,35
176,248,131425,1,0,0:0:0:0:
392,160,131588,1,0,0:0:0:0:
232,72,131751,2,0,L|200:88,1,35
184,264,132077,2,0,L|151:251,1,35
397,110,132403,1,0,0:0:0:0:
262,282,132566,1,0,0:0:0:0:
195,86,132729,1,0,0:0:0:0:
355,63,133056,5,0,0:0:0:0:
325,273,133219,1,0,0:0:0:0:
173,141,133382,2,0,L|200:168,1,35
352,64,133708,2,0,L|392:64,1,35
258,278,134034,1,0,0:0:0:0:
190,80,134197,1,0,0:0:0:0:
384,160,134360,2,0,L|384:200,1,35
200,248,134686,2,0,L|168:224,1,35
256,320,135012,5,0,0:0:0:0:
136,160,135284,1,0,0:0:0:0:
320,128,135501,2,0,L|328:56,1,70
344,208,135990,2,0,P|320:248|296:256,1,70
168,152,136643,2,0,P|192:112|216:104,1,70
272,312,137295,2,0,L|237:312,1,35
152,144,137621,1,0,0:0:0:0:
368,144,137784,2,0,L|336:184,1,46.6666666666667
176,288,138273,5,0,0:0:0:0:
344,288,138436,1,0,0:0:0:0:
232,96,138599,2,0,L|267:96,1,35
336,192,138925,1,0,0:0:0:0:
256,313,139251,1,0,0:0:0:0:
152,128,139414,1,0,0:0:0:0:
376,128,139577,1,0,0:0:0:0:
256,192,139903,6,0,L|296:184,1,35
72,192,140229,2,0,P|85:171|100:162,1,35
224,288,140556,1,0,0:0:0:0:
384,128,140882,2,0,P|414:155|408:180,1,70
328,328,141371,1,0,0:0:0:0:
248,176,141534,2,0,B|225:160|209:152|201:192|185:184|153:160,1,105
296,264,142186,1,0,0:0:0:0:
160,336,142675,1,0,0:0:0:0:
153,160,142838,1,0,0:0:0:0:
296,264,143001,1,0,0:0:0:0:
296,264,143164,2,0,B|328:272|344:272|336:240|368:248,1,70
192,184,145121,6,0,L|272:176,1,70
352,176,145610,1,0,0:0:0:0:
352,176,145773,2,0,L|360:216,1,35
152,256,146099,2,0,B|136:272|120:256|168:216|168:216|160:200|72:176,1,175
392,160,147077,2,0,B|385:127|374:126|319:108|334:99|322:85,1,105
128,208,147729,2,0,L|192:240,1,70
272,264,148219,1,0,0:0:0:0:
384,216,148382,2,0,B|360:200|352:184|392:152|392:128|344:96,1,140
88,136,150664,5,0,0:0:0:0:
152,280,150882,2,0,L|192:240,1,46.6666666666667
272,128,151316,2,0,L|344:144,1,70
296,288,151806,1,0,0:0:0:0:
120,280,151969,2,0,L|184:224,1,81.6666666666667
296,288,152621,1,0,0:0:0:0:
392,224,152947,1,0,0:0:0:0:
392,120,153110,1,0,0:0:0:0:
296,72,153436,1,0,0:0:0:0:
192,128,153762,2,0,B|152:136|136:136|208:208|208:224|176:272,1,175
96,216,155229,5,0,0:0:0:0:
208,336,155393,2,0,L|240:272,1,70
152,168,155882,1,0,0:0:0:0:
296,144,156371,1,0,0:0:0:0:
128,152,156534,2,0,L|144:208,1,58.3333333333333
328,176,157023,1,0,0:0:0:0:
248,272,157186,2,0,L|280:336,1,70
344,96,157675,1,0,0:0:0:0:
239,273,157838,1,0,0:0:0:0:
240,96,158164,2,0,L|280:96,1,35
136,272,158490,1,0,0:0:0:0:
344,272,158653,1,0,0:0:0:0:
240,96,158816,2,0,L|312:120,1,70
80,160,159306,1,0,0:0:0:0:
168,288,159469,2,0,L|208:304,1,35
256,120,159795,1,0,0:0:0:0:
344,320,160121,5,0,0:0:0:0:
184,208,160284,1,0,0:0:0:0:
352,128,160447,1,0,0:0:0:0:
304,216,160773,5,0,0:0:0:0:
240,320,161099,1,0,0:0:0:0:
256,112,161534,1,0,0:0:0:0:
400,216,161806,1,0,0:0:0:0:
