osu file format v14

[General]
AudioFilename: audio.mp3
AudioLeadIn: 0
PreviewTime: 37121
Countdown: 0
SampleSet: Soft
StackLeniency: 0.4
Mode: 0
LetterboxInBreaks: 0
EpilepsyWarning: 1
WidescreenStoryboard: 1

[Editor]
DistanceSpacing: 0.3
BeatDivisor: 4
GridSize: 32
TimelineZoom: 1.4

[Metadata]
Title:You Won't Be Missing That Part Of Me
TitleUnicode:You Won't Be Missing That Part Of Me
Artist:Melody's Echo Chamber
ArtistUnicode:Melody's Echo Chamber
Creator:attendant
Version:Expert
Source:
Tags:pandahero omphen mirash juliana prochet english psychedelic rock dream pop neo psychedelia alternative indie melodys wont
BeatmapID:2895528
BeatmapSetID:1105597

[Difficulty]
HPDrainRate:5
CircleSize:4.5
OverallDifficulty:8.5
ApproachRate:9.2
SliderMultiplier:2.5
SliderTickRate:0.5

[Events]
//Background and Video events
0,0,"bg.jpg",0,0
Video,0,"video.mp4"
//Break Periods
//Storyboard Layer 0 (Background)
//Storyboard Layer 1 (Fail)
//Storyboard Layer 2 (Pass)
//Storyboard Layer 3 (Foreground)
//Storyboard Layer 4 (Overlay)
//Storyboard Sound Samples

[TimingPoints]
295,524.017467248908,4,2,1,75,1,0
295,-200,4,2,1,75,0,0
5535,504.201680672269,4,2,1,75,1,0
5787,-200,4,2,1,75,0,0
6291,566.037735849057,4,2,1,75,1,0
6574,533.333333333334,4,2,1,75,1,0
6574,-200,4,2,1,75,0,0
7907,521.739130434783,4,2,1,75,1,0
7907,-200,4,2,1,75,0,0
8428,525.164113785558,4,2,1,75,1,0
8690,533.333333333334,4,2,1,75,1,0
8690,-200,4,2,1,75,0,0
11356,524.017467248909,4,2,1,75,1,0
11880,-200,4,2,1,75,0,0
12011,-200,4,2,11,5,0,0
12142,-200,4,2,1,75,0,0
12404,478.087649402391,4,2,1,75,1,0
12643,540.540540540541,4,2,1,75,1,0
12845,-100,4,2,11,5,0,0
12913,527.472527472528,4,2,1,95,1,0
13374,-100,4,2,11,5,0,0
13440,-100,4,2,1,95,0,0
15483,-100,4,2,11,5,0,0
15550,-100,4,2,1,95,0,0
17593,-100,4,2,11,5,0,0
17660,-100,4,2,1,95,0,0
19703,-100,4,2,11,5,0,0
19770,-100,4,2,1,95,0,0
21088,-153.846153846154,4,2,1,95,0,0
21219,-153.846153846154,4,2,11,5,0,0
21352,517.241379310346,4,2,1,95,1,0
21804,-100,4,2,11,5,0,0
21869,-100,4,2,1,95,0,0
22386,533.333333333334,4,2,1,95,1,0
22386,-111.111111111111,4,2,1,95,0,0
23452,528.634361233482,4,2,1,95,1,0
23452,-111.111111111111,4,2,1,95,0,0
25566,517.241379310346,4,2,1,95,1,0
25566,-111.111111111111,4,2,1,95,0,0
26018,-111.111111111111,4,2,11,5,0,0
26083,-111.111111111111,4,2,1,95,0,0
26600,512.820512820514,4,2,1,95,1,0
26600,-111.111111111111,4,2,1,95,0,0
27112,533.333333333335,4,2,1,95,1,0
27378,-111.111111111111,4,2,1,95,0,0
27645,533.333333333335,4,2,1,95,1,0
27645,-111.111111111111,4,2,1,95,0,0
28045,-111.111111111111,4,2,11,5,0,0
28178,-111.111111111111,4,2,1,95,0,0
29778,512.820512820514,4,2,1,95,1,0
29778,-111.111111111111,4,2,1,95,0,0
30162,-111.111111111111,4,2,11,5,0,0
30290,545.454545454547,4,2,1,95,1,0
30290,-111.111111111111,4,2,1,95,0,0
30835,519.480519480521,4,2,1,95,1,0
30835,-111.111111111111,4,2,1,95,0,0
32327,-111.111111111111,4,2,11,5,0,0
32393,524.01746724891,4,2,1,95,1,0
32917,508.474576271186,4,2,1,95,1,0
32917,-111.111111111111,4,2,1,95,0,0
33171,538.116591928251,4,2,1,95,1,0
33171,-111.111111111111,4,2,1,95,0,0
33441,524.01746724891,4,2,1,95,1,0
33441,-111.111111111111,4,2,1,95,0,0
33965,540.540540540542,4,2,1,95,1,0
33965,-111.111111111111,4,2,1,95,0,0
34437,-111.111111111111,4,2,11,5,0,0
34505,539.325842696631,4,2,1,95,1,0
34639,-111.111111111111,4,2,1,95,0,0
35583,515.02145922747,4,2,1,95,1,0
35583,-111.111111111111,4,2,1,95,0,0
36548,-111.111111111111,4,2,11,5,0,0
36613,-111.111111111111,4,2,1,95,0,0
37256,-111.111111111111,4,2,11,5,0,0
37385,-111.111111111111,4,2,1,95,0,0
37513,-111.111111111111,4,2,11,5,0,0
37643,530.973451327435,4,2,1,95,1,0
37643,-200,4,2,1,95,0,0
38107,-200,4,2,11,5,0,0
38173,535.714285714288,4,2,1,95,1,0
38173,-76.9230769230769,4,2,1,95,0,0
38643,-76.9230769230769,4,2,11,5,0,0
38708,517.241379310347,4,2,1,95,1,0
39225,535.714285714288,4,2,1,95,1,0
39225,-90.9090909090909,4,2,1,95,0,0
39760,518.358531317496,4,2,1,95,1,0
40019,-90.9090909090909,4,2,1,95,0,0
40278,550.458715596332,4,2,1,95,1,0
40278,-90.9090909090909,4,2,1,95,0,0
40690,-90.9090909090909,4,2,11,5,0,0
40828,519.480519480521,4,2,1,95,1,0
40828,-90.9090909090909,4,2,1,95,0,0
42840,-90.9090909090909,4,2,11,5,0,0
42905,533.333333333335,4,2,1,95,1,0
43438,-90.9090909090909,4,2,1,95,0,0
43971,550.458715596332,4,2,1,95,1,0
43971,-90.9090909090909,4,2,1,95,0,0
44521,508.474576271188,4,2,1,95,1,0
44521,-90.9090909090909,4,2,1,95,0,0
44965,-90.9090909090909,4,2,11,5,0,0
45029,526.315789473686,4,2,1,95,1,0
45160,-90.9090909090909,4,2,1,95,0,0
45555,497.925311203321,4,2,1,95,1,0
45555,-90.9090909090909,4,2,1,95,0,0
46052,527.472527472527,4,2,1,95,1,0
46315,-200,4,2,1,95,0,0
46446,-200,4,2,11,5,0,0
46579,-76.9230769230769,4,2,1,95,0,0
47106,530.973451327435,4,2,1,95,1,0
47636,-90.9090909090909,4,2,1,95,0,0
48300,-76.9230769230769,4,2,1,95,0,0
48698,-90.9090909090909,4,2,1,95,0,0
50291,521.739130434784,4,2,1,95,1,0
50291,-90.9090909090909,4,2,1,95,0,0
50812,517.241379310347,4,2,1,95,1,0
50812,-90.9090909090909,4,2,1,95,0,0
51264,-90.9090909090909,4,2,11,5,0,0
51329,535.714285714288,4,2,1,95,1,0
51864,504.201680672271,4,2,1,95,1,0
51864,-90.9090909090909,4,2,1,95,0,0
52053,-90.9090909090909,4,2,11,5,0,0
52116,549.199084668194,4,2,1,95,1,0
52390,533.333333333335,4,2,1,95,1,0
52390,-90.9090909090909,4,2,1,95,0,0
53323,-90.9090909090909,4,2,11,5,0,0
53456,528.634361233482,4,2,1,95,1,0
53456,-90.9090909090909,4,2,1,95,0,0
54513,504.20168067227,4,2,1,95,1,0
55017,527.472527472529,4,2,1,95,1,0
55017,-76.9230769230769,4,2,1,95,0,0
55478,-76.9230769230769,4,2,11,5,0,0
55544,-76.9230769230769,4,2,1,95,0,0
56071,-90.9090909090909,4,2,1,95,0,0
57587,-90.9090909090909,4,2,11,5,0,0
57654,542.986425339368,4,2,1,95,1,0
58196,530.973451327435,4,2,1,95,1,0
58196,-90.9090909090909,4,2,1,95,0,0
58726,510.638297872342,4,2,1,95,1,0
59236,521.739130434784,4,2,1,95,1,0
59236,-90.9090909090909,4,2,1,95,0,0
59692,-90.9090909090909,4,2,11,5,0,0
59757,-90.9090909090909,4,2,1,95,0,0
60801,538.116591928253,4,2,1,95,1,0
60801,-90.9090909090909,4,2,1,95,0,0
61809,-90.9090909090909,4,2,11,5,0,0
61877,521.739130434784,4,2,1,95,1,0
62398,-90.9090909090909,4,2,1,95,0,0
63898,-90.9090909090909,4,2,11,5,0,0
63963,-90.9090909090909,4,2,1,95,0,0
65463,-90.9090909090909,4,2,11,5,0,0
65529,-90.9090909090909,4,2,1,95,0,0
66050,536.912751677854,4,2,1,95,1,0
66050,-133.333333333333,4,2,1,95,0,0
67123,517.241379310347,4,2,1,95,1,0
67123,-133.333333333333,4,2,1,95,0,0
67510,-133.333333333333,4,2,11,5,0,0
67640,526.315789473686,4,2,1,75,1,0
67640,-200,4,2,1,75,0,0
74482,517.241379310347,4,2,1,75,1,0
74999,-200,4,2,1,75,0,0
75516,540.540540540542,4,2,1,75,1,0
76056,528.634361233482,4,2,1,95,1,0
76056,-76.9230769230769,4,2,1,95,0,0
76518,-76.9230769230769,4,2,11,5,0,0
76584,-76.9230769230769,4,2,1,95,0,0
77113,-90.9090909090909,4,2,1,95,0,0
78170,526.315789473686,4,2,1,95,1,0
78170,-90.9090909090909,4,2,1,95,0,0
78630,-90.9090909090909,4,2,11,5,0,0
78696,-90.9090909090909,4,2,1,95,0,0
79748,502.092050209207,4,2,1,95,1,0
80124,659.340659340662,4,2,1,95,1,0
80288,526.315789473686,4,2,1,95,1,0
80288,-90.9090909090909,4,2,1,95,0,0
81537,-90.9090909090909,4,2,11,5,0,0
81603,-133.333333333333,4,2,1,95,0,0
82260,-133.333333333333,4,2,11,5,0,0
82393,535.714285714288,4,2,1,95,1,0
82393,-90.9090909090909,4,2,1,95,0,0
82794,-90.9090909090909,4,2,11,5,0,0
82928,-90.9090909090909,4,2,1,95,0,0
83464,517.241379310347,4,2,1,95,1,0
83464,-90.9090909090909,4,2,1,95,0,0
83981,515.02145922747,4,2,1,95,1,0
83981,-66.6666666666667,4,2,1,95,0,0
84045,-66.6666666666667,4,2,1,45,0,0
84496,530.973451327435,4,2,1,95,1,0
84496,-76.9230769230769,4,2,1,95,0,0
84960,-76.9230769230769,4,2,11,5,0,0
85026,-76.9230769230769,4,2,1,95,0,0
86088,521.739130434784,4,2,1,95,1,0
86088,-76.9230769230769,4,2,1,95,0,0
86609,-50,4,2,1,95,0,0
87653,-76.9230769230769,4,2,1,95,0,0
88565,-76.9230769230769,4,2,11,5,0,0
88696,-76.9230769230769,4,2,1,95,0,0
89218,545.454545454548,4,2,1,95,1,0
89218,-76.9230769230769,4,2,1,95,0,0
89763,512.820512820515,4,2,1,95,1,0
90275,524.01746724891,4,2,1,95,1,0
90537,540.540540540543,4,2,1,95,1,0
90807,528.634361233483,4,2,1,95,1,0
90807,-50,4,2,1,95,0,0
91864,-76.9230769230769,4,2,1,95,0,0
93383,-76.9230769230769,4,2,11,5,0,0
93450,-76.9230769230769,4,2,1,95,0,0
95036,517.241379310347,4,2,1,95,1,0
95036,-50,4,2,1,95,0,0
95811,545.454545454548,4,2,1,95,1,0
96083,545.454545454548,4,2,1,95,1,0
96083,-76.9230769230769,4,2,1,95,0,0
96628,487.804878048782,4,2,1,95,1,0
97115,545.454545454548,4,2,1,95,1,0
97115,-76.9230769230769,4,2,1,95,0,0
98205,487.804878048783,4,2,1,95,1,0
98205,-76.9230769230769,4,2,1,95,0,0
98448,566.03773584906,4,2,1,95,1,0
98731,510.638297872343,4,2,1,95,1,0
98731,-76.9230769230769,4,2,1,95,0,0
99241,521.739130434785,4,2,1,95,1,0
99241,-76.9230769230769,4,2,1,95,0,0
99762,530.973451327436,4,2,1,95,1,0
100292,528.634361233483,4,2,1,100,1,0
100424,-100,4,2,1,80,0,0
100556,-100,4,2,1,100,0,0
100688,-100,4,2,1,80,0,0
100820,-100,4,2,1,100,0,0
101084,540.540540540543,4,2,1,80,1,0
101219,-100,4,2,1,70,0,0
101354,530.973451327436,4,2,1,95,1,0
102415,500.000000000003,4,2,1,95,1,0
102665,524.017467248911,4,2,1,95,1,0
102927,502.092050209208,4,2,1,95,1,0
103429,530.973451327436,4,2,1,95,1,0
103429,-76.9230769230769,4,2,1,95,0,0
103959,545.454545454548,4,2,1,95,1,0
104504,517.241379310347,4,2,1,95,1,0
105538,-76.9230769230769,4,2,1,95,0,0
106055,545.454545454548,4,2,1,95,1,0
106600,521.739130434785,4,2,1,95,1,0
106600,-76.9230769230769,4,2,1,95,0,0
107643,545.454545454548,4,2,1,95,1,0
107643,-66.6666666666667,4,2,1,95,0,0
108461,515.02145922747,4,2,1,95,1,0
108718,535.714285714288,4,2,1,95,1,0
108718,-58.8235294117647,4,2,1,95,0,0
109789,525.16411378556,4,2,1,95,1,0
109789,-76.9230769230769,4,2,1,95,0,0
112414,535.714285714288,4,2,1,95,1,0
112949,487.804878048783,4,2,1,95,1,0
113192,574.16267942584,4,2,1,95,1,0
113192,-76.9230769230769,4,2,1,95,0,0
113479,515.02145922747,4,2,1,95,1,0
113479,-76.9230769230769,4,2,1,95,0,0
113994,530.973451327436,4,2,1,95,1,0
113994,-76.9230769230769,4,2,1,95,0,0
114458,-76.9230769230769,4,2,11,5,0,0
114524,517.241379310347,4,2,1,95,1,0
115041,-76.9230769230769,4,2,1,95,0,0
116075,-66.6666666666667,4,2,1,95,0,0
117110,560.747663551404,4,2,1,95,1,0
117110,-76.9230769230769,4,2,1,95,0,0
117670,530.973451327436,4,2,1,95,1,0
117670,-76.9230769230769,4,2,1,95,0,0
118200,519.480519480522,4,2,1,95,1,0
118200,-76.9230769230769,4,2,1,95,0,0
118589,-76.9230769230769,4,2,11,5,0,0
118719,-76.9230769230769,4,2,1,95,0,0
120277,526.315789473687,4,2,1,95,1,0
120277,-76.9230769230769,4,2,1,95,0,0
120803,512.820512820515,4,2,1,95,1,0
121315,545.454545454548,4,2,1,95,1,0
121315,-76.9230769230769,4,2,1,95,0,0
121860,526.315789473687,4,2,1,95,1,0
121860,-76.9230769230769,4,2,1,95,0,0
122846,-76.9230769230769,4,2,11,5,0,0
122912,533.333333333336,4,2,1,95,1,0
123445,-76.9230769230769,4,2,1,95,0,0
123978,526.315789473687,4,2,1,95,1,0
123978,-76.9230769230769,4,2,1,95,0,0
124504,-66.6666666666667,4,2,1,95,0,0
125556,-76.9230769230769,4,2,1,95,0,0
126083,521.739130434785,4,2,1,95,1,0
126083,-76.9230769230769,4,2,1,95,0,0
126604,535.714285714289,4,2,1,95,1,0
126604,-76.9230769230769,4,2,1,95,0,0
127072,-76.9230769230769,4,2,11,5,0,0
127139,-76.9230769230769,4,2,1,95,0,0
128211,511.727078891261,4,2,1,95,1,0
128466,-76.9230769230769,4,2,1,95,0,0
129746,552.995391705072,4,2,1,95,1,0
130298,535.714285714289,4,2,1,95,1,0
130298,-76.9230769230769,4,2,1,95,0,0
130833,517.241379310348,4,2,1,65,1,0
130833,-133.333333333333,4,2,1,65,0,0
131867,555.555555555559,4,2,1,65,1,0
131867,-133.333333333333,4,2,1,65,0,0
132422,519.480519480522,4,2,1,65,1,0
132941,-133.333333333333,4,2,1,65,0,0
133980,535.714285714289,4,2,1,65,1,0
133980,-133.333333333333,4,2,1,65,0,0
134515,517.241379310348,4,2,1,65,1,0
135032,-133.333333333333,4,2,1,75,0,0
135549,528.634361233483,4,2,1,75,1,0
136077,-133.333333333333,4,2,1,75,0,0
137663,519.480519480523,4,2,1,75,1,0
138182,-133.333333333333,4,2,1,75,0,0
139221,530.973451327437,4,2,1,75,1,0
139221,-133.333333333333,4,2,1,75,0,0
139751,521.739130434786,4,2,1,75,1,0
140272,533.333333333337,4,2,1,75,1,0
140272,-133.333333333333,4,2,1,75,0,0
141872,521.739130434786,4,2,1,75,1,0
142393,535.714285714289,4,2,1,75,1,0
142393,-133.333333333333,4,2,1,75,0,0
142928,526.315789473687,4,2,1,75,1,0
143980,517.241379310348,4,2,1,75,1,0
144497,508.47457627119,4,2,1,75,1,0
144497,-133.333333333333,4,2,1,75,0,0
144751,592.592592592597,4,2,1,75,1,0
145047,498.960498960502,4,2,1,75,1,0
145545,528.634361233483,4,2,1,75,1,0
146073,521.739130434786,4,2,1,75,1,0
146594,532.150776053218,4,2,1,75,1,0
146594,-133.333333333333,4,2,1,75,0,0
147126,-303.030303030303,4,2,2,35,0,0
147658,533.333333333337,4,2,1,75,1,0
147658,-133.333333333333,4,2,1,75,0,0
150858,506.329113924054,4,2,1,75,1,0
150858,-133.333333333333,4,2,1,75,0,0
151870,545.454545454549,4,2,1,75,1,0
151870,-133.333333333333,4,2,1,75,0,0
152415,530.973451327437,4,2,1,75,1,0
152415,-133.333333333333,4,2,1,75,0,0
153476,520.607375271153,4,2,1,75,1,0
153996,-133.333333333333,4,2,1,75,0,0
156599,554.27251732102,4,2,1,75,1,0
157153,530.973451327437,4,2,1,75,1,0
157153,-133.333333333333,4,2,1,75,0,0
158214,535.714285714289,4,2,1,75,1,0
158214,-133.333333333333,4,2,1,75,0,0
159285,491.803278688527,4,2,1,75,1,0
159285,-133.333333333333,4,2,1,75,0,0
159776,515.021459227471,4,2,1,75,1,0
159776,-133.333333333333,4,2,1,75,0,0
160291,547.945205479456,4,2,1,75,1,0
160291,-133.333333333333,4,2,1,75,0,0
160838,528.634361233484,4,2,1,75,1,0
161366,512.820512820516,4,2,1,75,1,0
161366,-133.333333333333,4,2,1,75,0,0
161878,535.714285714289,4,2,1,75,1,0
161878,-133.333333333333,4,2,1,75,0,0
162413,526.315789473688,4,2,1,75,1,0
162413,-133.333333333333,4,2,1,75,0,0
163465,521.739130434786,4,2,1,75,1,0
163465,-133.333333333333,4,2,1,75,0,0
165030,538.116591928255,4,2,1,75,1,0
165030,-133.333333333333,4,2,1,75,0,0
166106,526.315789473688,4,2,1,75,1,0
166106,-133.333333333333,4,2,1,75,0,0
167684,521.739130434786,4,2,1,75,1,0
167684,-133.333333333333,4,2,1,75,0,0
168727,535.71428571429,4,2,1,75,1,0
168727,-133.333333333333,4,2,1,75,0,0
169262,515.021459227471,4,2,1,75,1,0
169777,-133.333333333333,4,2,1,75,0,0
170292,526.315789473688,4,2,1,75,1,0
170292,-133.333333333333,4,2,1,75,0,0
171870,504.201680672272,4,2,1,75,1,0
171870,-133.333333333333,4,2,1,75,0,0
172374,545.454545454549,4,2,1,75,1,0
172374,-133.333333333333,4,2,1,75,0,0
172919,530.973451327437,4,2,1,75,1,0
172919,-133.333333333333,4,2,1,75,0,0
174511,526.315789473688,4,2,1,75,1,0
174511,-133.333333333333,4,2,1,75,0,0
176089,517.241379310349,4,2,1,75,1,0
176347,-133.333333333333,4,2,1,75,0,0
176606,533.333333333337,4,2,1,75,1,0
176606,-133.333333333333,4,2,1,75,0,0
177139,517.241379310349,4,2,1,75,1,0
177139,-133.333333333333,4,2,1,75,0,0
177656,535.71428571429,4,2,1,75,1,0
177923,-133.333333333333,4,2,1,75,0,0
178727,521.739130434786,4,2,1,75,1,0
178727,-133.333333333333,4,2,1,75,0,0
180813,535.71428571429,4,2,1,75,1,0
181348,517.241379310349,4,2,1,75,1,0
181348,-133.333333333333,4,2,1,75,0,0
181865,530.973451327437,4,2,1,75,1,0
182395,535.71428571429,4,2,1,75,1,0
182395,-133.333333333333,4,2,1,75,0,0
182930,528.634361233484,4,2,1,75,1,0
183458,-133.333333333333,4,2,1,75,0,0
184515,510.638297872344,4,2,1,75,1,0
184515,-133.333333333333,4,2,1,75,0,0
185025,530.973451327437,4,2,1,75,1,0
185555,519.480519480523,4,2,1,75,1,0
185555,-133.333333333333,4,2,1,75,0,0
186074,534.52115812918,4,2,1,75,1,0
186608,-133.333333333333,4,2,1,75,0,0
187143,516.129032258068,4,2,1,75,1,0
187659,521.739130434786,4,2,1,75,1,0
188180,-100,4,2,1,45,0,0
188702,-100,4,2,1,35,0,0
189224,538.116591928255,4,2,2,75,1,0
189762,526.315789473688,4,2,1,75,1,0

[Colours]
Combo1 : 244,157,159
Combo2 : 255,159,64
Combo3 : 242,225,132
Combo4 : 255,192,128

[HitObjects]
103,95,295,6,0,P|99:53|93:32,1,62.5,10|2,2:3|2:3,2:0:0:0:
216,186,819,2,0,P|188:172|158:163,1,62.5,8|2,2:0|2:3,2:0:0:0:
57,175,1212,1,0,3:2:0:0:
57,175,1277,1,0,3:2:0:0:
57,175,1343,2,0,P|32:194|12:217,2,62.5,8|8|2,2:3|2:0|2:3,2:0:0:0:
57,175,2129,1,0,3:2:0:0:
256,362,2391,5,10,2:3:0:0:
256,362,2915,2,0,P|260:320|266:299,1,62.5,8|2,2:0|2:3,2:0:0:0:
313,200,3308,1,0,3:2:0:0:
313,200,3373,1,0,3:2:0:0:
313,200,3439,2,0,P|324:236|327:267,1,62.5,8|8,2:3|2:0,2:0:0:0:
370,320,3963,1,2,2:3:0:0:
404,157,4225,1,0,3:2:0:0:
471,330,4487,6,0,L|255:361,1,218.75,10|0,2:3|3:2,2:0:0:0:
255,361,5469,1,0,3:2:0:0:
255,361,5535,1,8,2:3:0:0:
201,312,5787,2,0,L|208:242,2,62.5,8|2|0,2:0|2:3|3:2,2:0:0:0:
40,53,6574,6,0,L|256:22,1,218.75,10|0,2:3|3:2,2:0:0:0:
256,22,7574,1,0,3:2:0:0:
256,22,7640,1,8,2:3:0:0:
318,79,7907,2,0,L|311:149,2,62.5,8|2|0,2:0|2:3|3:2,2:0:0:0:
28,184,8690,6,0,B|118:137|150:239|241:201,1,218.75,10|0,2:3|3:2,2:0:0:0:
237,203,9690,1,0,3:2:0:0:
237,203,9756,1,8,2:3:0:0:
121,268,10023,2,0,P|102:300|88:338,2,62.5,8|2|0,2:0|2:3|3:2,2:0:0:0:
327,131,10823,6,0,L|352:260,1,125,10|8,2:3|2:0,2:0:0:0:
512,192,11749,1,0,3:2:0:0:
512,192,11814,1,0,3:2:0:0:
512,192,11880,2,0,P|491:196|475:202,1,31.25,8|0,3:0|2:0,2:0:0:0:
418,167,12142,5,8,2:0:0:0:
253,228,12404,5,2,2:3:0:0:
73,177,12643,6,0,P|32:199|4:247,1,93.75,4|0,3:0|2:0,2:0:0:0:
98,271,12913,6,0,B|147:142|56:182|91:61,1,218.75,4|0,3:2|2:0,2:0:0:0:
100,34,13440,1,8,2:0:0:0:
242,66,13572,1,2,2:0:0:0:
165,99,13704,1,2,2:3:0:0:
185,11,13836,1,0,3:2:0:0:
185,11,13902,1,0,3:2:0:0:
185,11,13967,2,0,P|196:49|197:91,1,62.5,8|0,3:0|2:0,2:0:0:0:
80,269,14231,2,0,P|76:211|89:141,1,125,8|2,2:0|2:3,2:0:0:0:
214,278,14627,1,2,2:0:0:0:
214,278,14759,2,0,L|151:298,1,62.5,4|2,3:0|2:0,2:0:0:0:
437,360,15022,6,0,B|380:313|380:313|233:356,1,218.75,4|0,3:2|2:0,2:0:0:0:
214,364,15550,1,8,2:0:0:0:
292,262,15682,1,2,2:0:0:0:
306,382,15814,1,2,2:3:0:0:
214,278,15945,1,0,3:2:0:0:
214,278,16011,1,0,3:2:0:0:
214,278,16077,2,0,P|182:290|151:321,1,62.5,8|0,3:0|2:0,2:0:0:0:
282,200,16341,2,0,P|287:242|296:279,1,62.5,8|0,2:0|2:0,2:0:0:0:
240,69,16605,2,0,P|238:102|229:140,2,62.5,2|2|4,2:3|2:0|3:0,2:0:0:0:
271,2,17000,1,2,2:0:0:0:
512,224,17132,6,0,B|405:177|414:281|282:260,1,218.75,4|0,3:2|2:0,2:0:0:0:
277,260,17660,1,8,2:0:0:0:
386,340,17792,1,2,2:0:0:0:
357,224,17923,1,2,2:3:0:0:
304,351,18055,1,0,3:2:0:0:
304,351,18121,1,0,3:2:0:0:
304,351,18187,2,0,L|239:371,1,62.5,8|0,3:0|2:0,2:0:0:0:
195,314,18451,2,0,L|135:295,1,62.5,8|0,2:0|2:0,2:0:0:0:
235,135,18715,2,0,P|260:193|260:275,1,125,2|4,2:3|3:0,2:0:0:0:
263,254,19110,1,2,2:0:0:0:
138,47,19242,6,0,P|248:108|358:87,1,218.75,4|0,3:2|2:0,2:0:0:0:
363,89,19770,1,8,2:0:0:0:
384,17,19902,1,2,2:0:0:0:
311,6,20033,1,2,2:3:0:0:
291,82,20165,1,0,3:2:0:0:
291,82,20231,1,0,3:2:0:0:
291,82,20297,2,0,P|280:152|279:227,2,125,8|8|2,3:0|2:0|2:3,2:0:0:0:
291,82,21088,6,0,P|287:101|284:124,1,40.625,4|0,3:0|2:0,2:0:0:0:
0,314,21352,6,0,B|99:272|109:376|208:349,1,218.75,4|0,3:2|2:0,2:0:0:0:
232,341,21869,1,8,2:0:0:0:
232,341,22127,1,2,2:3:0:0:
0,189,22300,5,2,2:3:0:0:
0,189,22386,6,0,L|54:176,1,56.2500000000001,10|0,3:0|2:0,2:0:0:0:
108,230,22652,2,0,B|164:217|164:217|211:245,2,112.5,8|2|4,2:0|2:3|3:0,2:0:0:0:
304,0,23452,6,0,B|249:36|249:36|274:215,1,225,4|8,3:2|2:0,2:0:0:0:
271,193,24244,1,2,2:3:0:0:
384,233,24377,1,0,3:2:0:0:
384,233,24443,1,0,3:2:0:0:
384,233,24509,2,0,L|329:245,1,56.2500000000001,10|0,3:0|2:0,2:0:0:0:
429,121,24773,2,0,P|436:161|443:184,1,56.2500000000001,8|0,2:0|2:0,2:0:0:0:
430,343,25037,2,0,P|437:303|444:280,1,56.2500000000001,2|2,2:3|2:0,2:0:0:0:
504,236,25302,1,4,3:0:0:0:
504,236,25434,1,2,2:0:0:0:
381,232,25566,6,0,B|286:185|288:286|172:264,1,196.874993991852,4|0,3:2|2:0,2:0:0:0:
167,265,26083,1,8,2:0:0:0:
14,206,26341,1,2,2:3:0:0:
14,206,26406,1,2,2:0:0:0:
0,193,26471,1,0,3:2:0:0:
0,193,26535,1,0,3:2:0:0:
0,193,26600,2,0,L|78:179,1,56.2500000000001,10|0,3:0|2:0,2:0:0:0:
139,11,26856,2,0,P|115:66|104:157,1,112.5,8|2,2:0|2:3,2:0:0:0:
164,306,27378,2,0,P|163:272|151:233,1,56.2500000000001,4|2,3:0|2:0,2:0:0:0:
0,193,27645,6,0,P|90:194|194:158,1,168.75,4|0,3:2|2:0,2:0:0:0:
44,321,28178,2,0,P|25:355|12:390,2,56.2500000000001,8|2|2,2:0|2:0|2:3,2:0:0:0:
240,210,28578,1,0,3:2:0:0:
240,210,28645,1,0,3:2:0:0:
240,210,28711,2,0,P|267:214|305:231,1,56.2500000000001,10|0,3:0|2:0,2:0:0:0:
315,362,28978,2,0,P|312:334|318:293,1,56.2500000000001,8|0,2:0|2:0,2:0:0:0:
492,228,29245,2,0,P|442:258|365:266,1,112.5,2|4,2:3|3:0,2:0:0:0:
389,267,29645,1,2,2:0:0:0:
405,2,29778,6,0,P|441:75|443:181,1,168.75,4|0,3:2|2:0,2:0:0:0:
315,362,30290,2,0,P|312:334|318:293,1,56.2500000000001,8|2,2:0|2:0,2:0:0:0:
460,289,30562,1,2,2:3:0:0:
485,364,30699,1,0,3:2:0:0:
485,364,30767,1,0,3:2:0:0:
485,364,30835,2,0,P|454:362|420:352,1,56.2500000000001,10|0,3:0|2:0,2:0:0:0:
275,241,31094,2,0,P|302:234|331:233,1,56.2500000000001,8|0,2:0|2:0,2:0:0:0:
74,147,31354,2,0,P|119:176|197:190,1,112.5,2|4,2:3|3:0,2:0:0:0:
175,189,31744,1,2,2:0:0:0:
486,17,31873,6,0,P|416:68|287:88,1,196.875,4|0,3:2|2:0,2:0:0:0:
281,87,32393,1,8,2:0:0:0:
281,87,32786,1,0,3:2:0:0:
281,87,32851,1,0,3:2:0:0:
281,87,32917,2,0,P|273:122|270:149,1,56.2499982833863,10|0,3:0|2:0,2:0:0:0:
194,2,33171,2,0,P|198:35|204:66,1,56.2499982833863,8|0,2:0|2:0,2:0:0:0:
102,146,33441,2,0,P|131:135|155:122,2,56.2499982833863,2|2|4,2:3|2:0|3:0,2:0:0:0:
31,151,33834,1,2,2:0:0:0:
444,259,33965,6,0,B|356:215|336:306|257:281,1,196.874993991852,4|0,3:2|2:0,2:0:0:0:
227,270,34505,1,8,2:0:0:0:
379,340,34639,2,0,P|401:367|416:391,1,56.2500000000001,2|2,2:0|2:3,2:0:0:0:
355,130,34909,1,0,3:2:0:0:
355,130,34976,1,0,3:2:0:0:
355,130,35044,2,0,P|346:166|342:197,1,56.2500000000001,10|0,3:0|2:0,2:0:0:0:
196,301,35313,2,0,P|222:285|252:273,1,56.2500000000001,8|0,2:0|2:0,2:0:0:0:
13,200,35583,2,0,P|66:221|134:226,1,112.5,2|4,2:3|3:0,2:0:0:0:
120,226,35969,1,2,2:0:0:0:
262,0,36098,6,0,P|248:73|249:219,1,196.875,4|0,3:2|2:0,2:0:0:0:
251,223,36613,1,8,2:0:0:0:
251,223,36999,1,0,3:2:0:0:
251,223,37063,1,0,3:2:0:0:
251,223,37128,6,0,P|282:231|312:249,1,56.2500000000001,10|0,3:0|2:0,2:0:0:0:
400,164,37385,2,0,P|372:171|345:175,1,56.2500000000001,8|0,2:0|2:0,2:0:0:0:
138,112,37643,6,0,P|153:60|159:5,1,109.375,2|0,3:0|2:0,2:0:0:0:
158,5,38173,2,0,P|123:142|23:247,1,284.375,4|0,3:2|2:0,2:0:0:0:
3,260,38708,1,8,2:0:0:0:
274,297,39139,5,0,3:2:0:0:
274,297,39225,6,0,P|224:274|135:261,2,137.5,10|8|6,3:0|2:0|2:0,2:0:0:0:
409,248,39889,1,2,2:0:0:0:
368,384,40019,2,0,P|357:350|352:309,1,68.75,6|2,3:2|2:0,2:0:0:0:
471,83,40278,6,0,P|501:160|478:290,1,206.25,4|0,3:2|2:0,2:0:0:0:
269,172,40828,2,0,L|356:147,1,68.75,8|2,2:0|2:0,2:0:0:0:
408,133,41087,1,2,2:3:0:0:
210,75,41217,1,2,3:0:0:0:
210,75,41282,1,0,3:2:0:0:
210,75,41347,2,0,P|199:110|194:150,1,68.75,10|0,3:0|2:0,2:0:0:0:
332,296,41607,2,0,P|307:268|275:244,1,68.75,10|0,2:0|2:0,2:0:0:0:
23,361,41866,2,0,P|61:303|119:269,1,137.5,6|6,2:0|3:2,2:0:0:0:
206,334,42256,1,2,2:0:0:0:
0,0,42386,6,0,P|61:78|196:140,1,240.625,6|0,3:2|2:0,2:0:0:0:
213,145,42905,1,10,2:0:0:0:
213,145,43305,1,0,3:2:0:0:
213,145,43371,1,0,3:2:0:0:
213,145,43438,2,0,P|177:153|138:175,1,68.75,10|0,3:0|2:0,2:0:0:0:
351,241,43705,2,0,P|333:208|302:176,1,68.75,8|0,2:0|2:0,2:0:0:0:
308,17,43971,2,0,P|297:57|293:94,3,68.75,6|2|6|2,2:0|2:0|3:2|2:0,2:0:0:0:
512,254,44521,6,0,B|412:187|388:309|277:273,1,240.625,4|0,3:2|2:0,2:0:0:0:
258,269,45029,1,8,2:0:0:0:
435,325,45160,2,0,P|459:354|474:388,1,68.75,2|2,2:0|2:3,2:0:0:0:
430,24,45423,1,0,3:2:0:0:
430,24,45489,1,0,3:2:0:0:
430,24,45555,2,0,P|410:94|402:185,2,137.5,10|8|6,3:0|2:0|2:0,2:0:0:0:
430,24,46315,6,0,P|421:50|416:72,1,31.25,6|2,3:2|2:0,2:0:0:0:
4,147,46579,6,0,B|163:75|150:240|312:183,1,325,4|8,3:2|2:0,2:0:0:0:
308,184,47504,1,0,3:2:0:0:
308,184,47570,1,0,3:2:0:0:
308,184,47636,2,0,P|292:213|280:260,1,68.75,10|0,3:0|2:0,2:0:0:0:
307,28,47902,2,0,P|322:57|334:104,1,68.75,8|0,2:0|2:0,2:0:0:0:
178,276,48167,1,6,3:0:0:0:
404,157,48300,6,0,L|482:177,2,81.25,4|4|4,3:0|3:0|3:0,2:0:0:0:
512,298,48698,6,0,B|402:377|402:377|266:342,1,275,4|8,3:2|2:0,2:0:0:0:
193,358,49495,1,2,2:3:0:0:
267,342,49628,1,0,3:2:0:0:
267,342,49694,1,0,3:2:0:0:
267,342,49760,2,0,L|345:321,1,68.75,10|0,3:0|2:0,2:0:0:0:
171,220,50026,2,0,P|180:251|185:304,1,68.75,10|0,2:0|2:0,2:0:0:0:
225,85,50291,2,0,P|215:116|211:169,2,68.75,6|2|6,2:0|2:0|3:2,2:0:0:0:
189,15,50682,1,2,2:0:0:0:
497,148,50812,6,0,P|401:217|283:212,1,240.625,4|0,3:2|2:0,2:0:0:0:
257,201,51329,1,8,2:0:0:0:
457,370,51596,1,2,2:3:0:0:
392,330,51730,1,0,3:2:0:0:
497,148,51864,2,0,P|471:178|412:214,1,103.125,10|0,3:0|2:0,2:0:0:0:
512,0,52116,5,12,3:3:0:0:
267,205,52390,6,0,P|236:194|191:186,2,68.75,6|2|6,2:0|2:0|3:2,2:0:0:0:
314,261,52790,1,2,2:0:0:0:
150,8,52923,6,0,P|144:114|100:226,1,206.25,4|0,3:2|2:0,2:0:0:0:
21,374,53456,2,0,P|11:339|9:282,2,68.75,8|2|2,2:0|2:0|2:3,2:0:0:0:
211,301,53852,1,0,3:2:0:0:
211,301,53918,1,0,3:2:0:0:
211,301,53984,2,0,P|171:292|137:276,1,68.75,10|0,3:0|2:0,2:0:0:0:
23,103,54248,2,0,P|37:139|43:184,1,68.75,8|0,2:0|2:0,2:0:0:0:
0,384,54513,1,6,2:0:0:0:
294,91,54765,5,4,3:0:0:0:
222,115,54891,1,4,3:0:0:0:
466,228,55017,6,0,B|397:179|397:179|206:241,1,284.375,4|0,3:2|2:0,2:0:0:0:
180,251,55544,1,8,2:0:0:0:
180,251,55808,1,2,2:3:0:0:
256,2,55940,1,0,3:2:0:0:
301,58,56071,2,0,L|313:135,1,68.75,10|0,3:0|2:0,2:0:0:0:
246,371,56335,1,8,3:2:0:0:
246,371,56467,1,8,3:2:0:0:
201,315,56599,2,0,L|176:158,1,137.5,6|2,2:0|3:2,2:0:0:0:
179,179,56995,1,2,3:2:0:0:
509,264,57126,6,0,P|434:238|280:287,1,240.625,4|0,3:2|2:0,2:0:0:0:
266,308,57654,1,8,2:0:0:0:
266,308,57925,1,2,2:3:0:0:
396,92,58061,1,0,3:2:0:0:
396,92,58129,1,0,3:2:0:0:
396,92,58196,2,0,P|410:125|416:168,1,68.75,10|0,3:0|2:0,2:0:0:0:
310,3,58461,2,0,P|312:40|302:91,1,68.75,10|0,2:0|2:0,2:0:0:0:
208,230,58726,1,6,2:0:0:0:
208,230,58981,5,14,3:2:0:0:
145,269,59108,1,8,3:2:0:0:
0,0,59236,6,0,P|91:27|183:144,1,240.625,6|0,3:2|2:0,2:0:0:0:
187,163,59757,1,10,2:0:0:0:
187,163,60018,1,2,2:3:0:0:
133,336,60149,1,0,3:2:0:0:
133,336,60214,1,0,3:2:0:0:
133,336,60279,2,0,P|137:297|150:254,1,68.75,10|0,3:0|2:0,2:0:0:0:
331,226,60540,1,8,3:2:0:0:
255,248,60670,1,8,3:2:0:0:
512,384,60801,2,0,P|466:356|375:335,1,137.5,6|6,2:0|3:2,2:0:0:0:
385,335,61204,1,2,2:0:0:0:
226,15,61339,6,0,P|260:113|253:256,1,240.625,4|0,3:2|2:0,2:0:0:0:
246,276,61877,1,8,2:0:0:0:
246,276,62137,1,2,2:3:0:0:
152,157,62268,1,0,3:2:0:0:
152,157,62333,1,0,3:2:0:0:
152,157,62398,2,0,L|76:177,1,68.75,10|0,3:0|2:0,2:0:0:0:
226,15,62659,2,0,P|214:51|211:93,1,68.75,8|0,2:0|2:0,2:0:0:0:
248,264,62920,2,0,P|236:228|233:186,1,68.75,6|2,2:0|2:0,2:0:0:0:
447,68,63181,5,14,3:2:0:0:
378,98,63311,1,8,3:2:0:0:
512,111,63442,6,0,B|402:58|397:160|282:135,1,240.625,4|0,3:2|2:0,2:0:0:0:
252,127,63963,1,8,2:0:0:0:
252,127,64224,1,8,2:3:0:0:
329,271,64355,1,8,2:3:0:0:
344,0,64485,6,0,P|333:33|329:99,1,68.75,2|0,3:0|2:0,2:0:0:0:
168,102,64746,1,8,3:2:0:0:
193,167,64877,1,8,3:2:0:0:
77,1,65007,2,0,P|74:101|8:243,1,240.625,6|0,2:0|2:0,2:0:0:0:
1,254,65529,5,4,3:2:0:0:
1,254,65790,1,2,2:3:0:0:
150,341,66050,2,0,P|102:316|61:310,1,93.7500000000002,8|2,2:0|2:3,2:0:0:0:
229,240,66452,5,0,3:2:0:0:
229,240,66519,1,0,3:2:0:0:
229,240,66586,2,0,P|209:252|185:263,2,46.8750000000001,10|2|2,3:0|2:0|2:3,2:0:0:0:
418,354,66989,5,0,3:2:0:0:
418,354,67056,1,0,3:2:0:0:
418,354,67123,2,0,P|365:308|298:286,1,140.625,10|0,3:0|2:0,2:0:0:0:
244,117,67640,6,0,P|231:178|229:241,1,125,4|8,3:2|2:0,2:0:0:0:
228,240,68429,1,2,2:3:0:0:
88,153,68561,1,0,3:2:0:0:
88,153,68626,1,0,3:2:0:0:
88,153,68692,2,0,P|119:147|155:132,1,62.5,10|8,2:3|2:3,2:0:0:0:
56,225,69087,1,8,2:3:0:0:
147,248,69218,2,0,P|187:273|221:313,1,93.75,0|4,3:2|3:0,2:0:0:0:
248,376,69745,5,2,3:2:0:0:
248,376,70271,1,8,2:0:0:0:
372,303,70534,1,2,2:3:0:0:
299,299,70666,1,0,3:2:0:0:
299,299,70732,1,0,3:2:0:0:
299,299,70797,2,0,P|286:260|281:229,1,62.5,8|8,2:3|2:3,2:0:0:0:
360,228,71192,1,8,2:3:0:0:
280,77,71324,2,0,P|267:116|262:147,1,62.5,2|4,3:2|3:0,2:0:0:0:
334,158,71718,1,4,3:0:0:0:
334,158,71850,6,0,P|273:166|200:208,1,125,0|8,3:2|2:0,2:0:0:0:
216,194,72640,1,2,2:3:0:0:
172,53,72771,1,0,3:2:0:0:
172,53,72837,1,0,3:2:0:0:
172,53,72903,2,0,P|181:92|184:119,1,62.5,8|8,2:3|2:3,2:0:0:0:
142,179,73429,1,4,3:0:0:0:
142,179,73561,1,4,3:0:0:0:
142,179,73692,1,4,3:0:0:0:
142,179,73955,6,0,P|126:237|120:315,1,125.2375,0|8,3:2|2:0,2:0:0:0:
0,384,74740,1,0,3:2:0:0:
0,384,74869,1,8,3:0:0:0:
0,384,74999,2,0,P|28:365|74:349,2,62.5,2|2|2,2:3|2:1|2:3,2:0:0:0:
0,52,76056,6,0,P|106:139|264:169,1,284.375,4|0,3:2|2:0,2:0:0:0:
275,167,76584,1,8,2:0:0:0:
275,167,76848,1,2,2:3:0:0:
229,28,76981,1,0,3:2:0:0:
229,28,77047,1,0,3:2:0:0:
229,28,77113,2,0,P|212:67|208:111,1,68.75,10|0,3:0|2:0,2:0:0:0:
229,306,77377,2,0,P|212:266|208:222,1,68.75,10|0,2:0|2:0,2:0:0:0:
344,135,77641,5,6,3:2:0:0:
495,216,77774,1,0,3:0:0:0:
416,63,77906,1,10,3:0:0:0:
381,254,78038,1,8,3:2:0:0:
512,122,78170,6,0,P|396:98|291:9,1,240.625,4|0,3:2|2:0,2:0:0:0:
290,2,78696,1,8,2:0:0:0:
290,2,78959,1,2,2:3:0:0:
220,240,79091,1,0,3:2:0:0:
301,113,79222,2,0,P|289:147|284:183,1,68.75,10|0,3:0|2:0,2:0:0:0:
404,329,79485,2,0,P|375:303|345:284,1,68.75,10|0,2:0|2:0,2:0:0:0:
168,375,79748,5,6,2:0:0:0:
227,329,79873,1,2,2:0:0:0:
59,68,79999,5,10,2:3:0:0:
182,138,80124,1,10,2:3:0:0:
0,185,80288,6,0,B|133:144|127:274|253:247,1,275,4|8,3:2|2:0,2:0:0:0:
254,247,81209,1,0,3:2:0:0:
254,247,81274,1,0,3:2:0:0:
254,247,81340,2,0,P|274:201|322:199,1,103.125,10|0,3:0|2:0,2:0:0:0:
234,132,81603,6,0,L|451:218,1,234.375000000001,6|0,3:0|2:0,2:0:0:0:
119,22,82393,6,0,P|148:135|142:248,1,206.25,4|0,3:2|2:0,2:0:0:0:
11,358,82928,2,0,P|2:328|0:280,2,68.75,8|2|2,2:0|2:0|2:3,2:0:0:0:
38,146,83330,1,0,3:2:0:0:
38,146,83397,1,0,3:2:0:0:
38,146,83464,2,0,P|29:175|27:223,1,68.75,10|0,3:0|2:0,2:0:0:0:
157,342,83722,2,0,L|239:326,1,68.75,10|0,2:0|2:0,2:0:0:0:
288,284,83981,6,0,L|334:292,1,46.875,2|2,2:3|2:0,2:0:0:0:
97,18,84496,6,0,P|22:136|24:276,1,284.375,4|0,3:2|2:0,2:0:0:0:
34,302,85026,1,8,2:0:0:0:
103,279,85159,1,2,2:0:0:0:
103,206,85292,1,2,2:3:0:0:
39,233,85425,1,0,3:2:0:0:
39,233,85491,1,0,3:2:0:0:
39,233,85557,1,14,3:2:0:0:
214,353,85690,5,4,2:1:0:0:
294,362,85823,1,14,2:0:0:0:
476,234,85956,5,4,2:1:0:0:
480,154,86088,1,14,2:0:0:0:
292,18,86218,5,8,2:1:0:0:
216,29,86348,1,14,2:0:0:0:
0,190,86479,5,4,2:1:0:0:
71,163,86609,2,0,B|138:138|200:179|164:191|225:246|299:222,3,250,6|6|14|12,3:2|2:0|2:0|2:1,2:0:0:0:
342,64,87522,1,2,3:0:0:0:
342,64,87588,1,0,3:2:0:0:
342,64,87653,2,0,P|364:109|366:150,1,81.25,10|0,3:0|2:0,2:0:0:0:
335,376,87914,2,0,P|357:330|359:289,1,81.25,10|0,2:0|2:0,2:0:0:0:
492,251,88174,6,0,L|255:192,1,243.75,6|0,3:0|2:0,2:0:0:0:
44,138,88696,5,4,3:2:0:0:
44,138,88957,1,2,2:3:0:0:
34,356,89218,2,0,B|-7:286|-7:286|16:209,1,162.5,8|2,2:0|2:3,2:0:0:0:
94,19,89627,1,0,3:2:0:0:
94,19,89695,1,0,3:2:0:0:
94,19,89763,5,14,3:2:0:0:
129,83,89891,1,2,2:0:0:0:
194,52,90019,1,8,2:0:0:0:
229,116,90147,1,2,2:0:0:0:
470,239,90275,5,14,2:0:0:0:
426,319,90406,1,2,2:0:0:0:
345,280,90537,1,14,2:0:0:0:
301,360,90672,1,8,2:1:0:0:
431,24,90807,6,0,B|497:75|497:75|470:239,3,250,6|6|14|12,3:2|2:0|2:0|2:1,2:0:0:0:
317,132,91732,1,0,3:2:0:0:
317,132,91798,1,0,3:2:0:0:
317,132,91864,2,0,L|415:115,1,81.25,10|0,3:0|2:0,2:0:0:0:
287,295,92128,2,0,P|273:256|266:196,1,81.25,8|0,2:0|2:0,2:0:0:0:
224,0,92392,2,0,P|210:39|198:181,1,162.5,14|14,2:0|2:0,2:0:0:0:
196,158,92789,1,8,2:1:0:0:
493,296,92921,6,0,P|368:293|213:369,1,284.375,4|0,3:2|2:0,2:0:0:0:
205,378,93450,1,8,2:0:0:0:
397,118,93582,2,0,P|383:167|379:217,2,81.25,2|2|0,2:0|2:3|3:2,2:0:0:0:
397,118,93912,1,0,3:2:0:0:
397,118,93978,5,14,3:2:0:0:
512,213,94110,1,2,2:0:0:0:
367,272,94243,1,8,2:0:0:0:
268,149,94375,5,2,2:0:0:0:
426,201,94507,1,14,2:0:0:0:
268,252,94639,1,2,2:0:0:0:
379,108,94771,5,14,2:0:0:0:
358,291,94903,1,8,2:1:0:0:
316,22,95036,6,0,P|185:16|57:67,3,250,6|6|14|12,3:2|2:0|2:0|2:1,2:0:0:0:
267,153,95947,1,0,3:2:0:0:
101,287,96083,2,0,P|117:242|122:174,1,81.25,10|0,3:0|2:0,2:0:0:0:
184,160,96355,1,4,3:0:0:0:
254,338,96492,1,4,3:0:0:0:
354,200,96628,5,6,3:0:0:0:
398,34,96749,1,4,3:0:0:0:
267,153,96871,1,4,3:0:0:0:
436,133,96993,1,4,3:0:0:0:
283,45,97115,6,0,P|235:155|234:276,1,243.75,4|0,3:2|2:0,2:0:0:0:
399,366,97660,2,0,P|352:338|298:326,1,81.25,8|2,2:0|2:0,2:0:0:0:
16,369,97933,1,2,2:3:0:0:
90,349,98069,1,0,3:2:0:0:
90,349,98137,1,0,3:2:0:0:
90,349,98205,2,0,P|125:324|156:281,1,81.25,14|2,3:2|2:0,2:0:0:0:
4,209,98448,1,8,2:0:0:0:
60,156,98589,1,2,2:0:0:0:
0,0,98731,2,0,P|65:32|123:121,1,162.5,14|14,2:0|2:0,2:0:0:0:
117,103,99113,1,8,2:1:0:0:
452,141,99241,6,0,B|304:74|292:260|147:202,1,325,4|8,3:2|2:0,2:0:0:0:
154,205,100027,1,2,2:3:0:0:
154,205,100292,5,10,3:2:0:0:
227,77,100424,1,8,3:2:0:0:
370,52,100556,1,8,3:2:0:0:
270,155,100688,1,8,3:2:0:0:
290,12,100820,1,10,3:2:0:0:
290,12,101084,5,4,3:0:0:0:
357,140,101219,1,4,3:0:0:0:
318,284,101354,1,12,3:1:0:0:
318,284,101884,1,8,2:0:0:0:
318,284,102283,1,0,3:2:0:0:
318,284,102349,1,0,3:2:0:0:
318,284,102415,1,14,3:2:0:0:
258,384,102540,5,2,2:0:0:0:
205,321,102665,1,12,2:0:0:0:
432,280,102796,5,2,2:0:0:0:
404,358,102927,1,14,2:0:0:0:
257,182,103052,5,2,2:0:0:0:
338,168,103178,1,14,2:0:0:0:
324,330,103303,5,8,2:1:0:0:
310,251,103429,2,0,P|296:163|279:42,1,162.5,4|2,3:2|2:3,2:0:0:0:
285,90,103827,1,0,2:0:0:0:
117,173,103959,5,12,2:0:0:0:
71,351,104095,1,10,2:3:0:0:
214,237,104231,1,10,2:3:0:0:
29,245,104368,1,8,2:3:0:0:
182,343,104504,1,10,3:0:0:0:
182,343,104762,5,6,3:0:0:0:
337,271,104891,1,4,3:0:0:0:
199,202,105021,1,6,3:0:0:0:
318,132,105150,1,4,3:0:0:0:
213,69,105279,1,6,2:0:0:0:
296,6,105409,1,8,2:1:0:0:
0,145,105538,6,0,B|136:81|169:261|305:206,1,325,6|10,3:2|2:0,2:0:0:0:
300,207,106464,1,0,3:2:0:0:
300,207,106532,1,0,3:2:0:0:
300,207,106600,2,0,P|262:239|237:277,1,81.25,14|2,3:2|2:0,2:0:0:0:
334,55,106860,2,0,P|342:112|354:155,2,81.25,12|2|14,2:0|2:0|2:0,2:0:0:0:
388,0,107252,1,2,2:0:0:0:
438,233,107382,1,14,2:0:0:0:
476,162,107513,1,2,2:0:0:0:
512,384,107643,6,0,P|454:326|310:274,3,187.5,4|2|8|2,3:2|2:3|2:0|2:3,2:0:0:0:
286,291,108589,1,0,3:2:0:0:
0,0,108718,6,0,P|58:58|208:112,3,212.5,10|14|6|6,3:0|2:0|2:0|2:0,2:0:0:0:
254,97,109655,1,2,2:0:0:0:
0,178,109789,6,0,B|158:118|153:287|305:239,1,325,4|8,3:2|2:0,2:0:0:0:
300,240,110576,1,2,2:3:0:0:
191,359,110708,1,0,3:2:0:0:
242,87,110839,2,0,P|258:139|264:198,1,81.25,10|0,3:0|2:0,2:0:0:0:
461,266,111101,2,0,P|407:253|353:229,1,81.25,8|0,2:0|2:0,2:0:0:0:
109,377,111364,2,0,P|174:330|252:308,1,162.5,6|6,2:0|2:0,2:0:0:0:
252,308,111758,1,2,2:0:0:0:
0,192,111889,5,4,3:2:0:0:
0,192,112152,5,8,2:0:0:0:
138,241,112283,1,8,2:3:0:0:
19,293,112414,1,8,2:0:0:0:
91,150,112547,5,8,2:3:0:0:
219,231,112681,1,10,2:0:0:0:
113,339,112815,1,8,2:3:0:0:
244,49,112949,5,10,2:0:0:0:
244,49,113192,2,0,P|226:92|222:141,1,81.25,6|4,3:0|3:0,2:0:0:0:
285,367,113479,2,0,P|267:324|263:275,1,81.25,6|8,3:0|3:1,2:0:0:0:
409,145,113736,1,6,3:0:0:0:
332,160,113865,1,4,3:0:0:0:
488,203,113994,6,0,B|409:144|409:144|198:219,1,284.375,4|0,3:2|2:0,2:0:0:0:
208,219,114524,1,8,2:0:0:0:
208,219,114911,1,0,3:2:0:0:
208,219,114976,1,0,3:2:0:0:
208,219,115041,2,0,L|314:246,1,81.25,14|0,3:2|2:0,2:0:0:0:
90,340,115299,2,0,P|115:305|151:277,1,81.25,8|0,2:0|2:0,2:0:0:0:
497,373,115558,2,0,P|436:324|329:291,1,162.5,6|6,2:0|2:0,2:0:0:0:
284,315,115946,1,8,2:1:0:0:
246,37,116075,6,0,P|207:121|211:243,3,187.5,4|2|8|2,3:2|2:3|2:0|2:3,2:0:0:0:
286,239,116980,1,0,3:2:0:0:
54,85,117110,2,0,P|88:102|150:117,1,81.25,10|0,3:0|2:0,2:0:0:0:
385,16,117390,2,0,P|355:41|300:72,1,81.25,8|0,2:0|2:0,2:0:0:0:
303,378,117670,2,0,P|288:313|279:182,1,162.5,6|6,2:0|2:0,2:0:0:0:
54,85,118068,1,2,2:0:0:0:
80,15,118200,6,0,P|74:135|10:237,1,243.75,4|0,3:2|2:0,2:0:0:0:
123,233,118719,2,0,P|163:246|206:271,1,81.25,8|2,2:0|2:0,2:0:0:0:
303,78,118979,1,10,2:3:0:0:
203,108,119109,1,10,2:3:0:0:
377,257,119238,2,0,P|337:270|241:372,2,162.5,10|8|6,3:0|2:0|2:0,2:0:0:0:
377,257,120018,1,10,2:3:0:0:
397,28,120277,6,0,P|426:122|431:193,2,162.5,4|2|8,3:2|2:3|2:0,2:0:0:0:
218,166,121059,1,2,2:3:0:0:
218,166,121187,1,10,2:3:0:0:
172,233,121315,2,0,P|134:248|104:275,1,81.25,2|0,2:3|3:0,2:0:0:0:
253,264,121519,1,0,3:0:0:0:
253,264,121587,2,0,P|292:273|326:294,1,81.25,8|0,2:0|2:0,2:0:0:0:
190,6,121860,2,0,P|209:76|217:175,1,162.5,6|10,2:0|2:3,2:0:0:0:
104,275,122254,1,10,2:3:0:0:
190,6,122386,6,0,P|216:138|197:290,1,284.375,4|0,3:2|2:0,2:0:0:0:
190,313,122912,1,8,2:0:0:0:
190,313,123178,1,10,2:3:0:0:
260,346,123312,1,10,2:3:0:0:
35,227,123445,2,0,P|80:205|126:194,1,81.25,10|0,3:0|2:0,2:0:0:0:
190,6,123712,2,0,P|203:54|206:101,1,81.25,8|0,2:0|2:0,2:0:0:0:
438,171,123978,2,0,B|368:143|353:212|282:193,1,162.5,6|10,2:0|2:3,2:0:0:0:
215,161,124372,1,10,2:3:0:0:
395,249,124504,6,0,P|466:309|514:389,3,187.5,4|2|8|10,3:2|2:3|2:0|2:3,2:0:0:0:
509,314,125425,1,10,2:3:0:0:
458,39,125556,2,0,P|395:86|299:102,1,162.5,10|8,3:0|2:0,2:0:0:0:
315,103,126083,2,0,L|228:82,1,81.25,6|2,2:0|2:0,2:0:0:0:
168,119,126343,1,6,3:2:0:0:
168,119,126474,1,10,2:3:0:0:
372,203,126604,6,0,B|231:170|231:170|130:267,1,284.375,4|0,3:2|2:0,2:0:0:0:
108,290,127139,1,8,2:0:0:0:
108,290,127407,1,10,2:3:0:0:
86,213,127541,1,10,2:3:0:0:
263,16,127675,2,0,P|260:109|220:188,2,162.803333333333,10|8|14,3:0|2:0|2:0,2:0:0:0:
154,144,128338,1,10,2:3:0:0:
270,341,128466,2,0,P|260:305|257:260,2,81.25,14|10|4,2:0|2:3|3:2,2:0:0:0:
270,341,129234,5,10,2:0:0:0:
394,327,129362,1,10,2:3:0:0:
280,263,129490,1,10,2:0:0:0:
336,380,129618,1,8,3:0:0:0:
360,249,129746,1,0,3:0:0:0:
360,249,130022,1,8,2:0:0:0:
360,249,130298,2,0,P|373:211|375:154,1,81.25,10|10,2:0|2:3,2:0:0:0:
370,0,130565,2,0,P|383:38|385:95,1,81.25,10|10,2:0|2:3,2:0:0:0:
281,121,130833,6,0,B|208:102|217:147|143:132,1,140.625,10|0,2:3|2:0,2:0:0:0:
86,182,131350,1,8,2:0:0:0:
86,182,131479,1,8,2:3:0:0:
86,182,131608,1,8,2:0:0:0:
86,182,131738,1,8,2:3:0:0:
86,182,131867,2,0,P|74:229|73:280,1,93.7500000000002,8|8,2:3|2:0,2:0:0:0:
146,339,132422,1,10,2:0:0:0:
146,339,132551,1,8,2:3:0:0:
146,339,132681,1,8,2:0:0:0:
146,339,132811,1,8,2:3:0:0:
146,339,132941,6,0,P|201:348|252:378,1,93.7500000000002,2|2,3:0|2:3,2:0:0:0:
313,332,133460,1,8,2:0:0:0:
313,332,133590,1,8,2:3:0:0:
313,332,133720,1,8,2:0:0:0:
313,332,133850,1,8,2:3:0:0:
313,332,133980,2,0,P|368:323|419:293,2,93.7500000000002,8|8|10,2:3|2:0|2:3,2:0:0:0:
52,20,135032,6,0,B|86:59|86:59|70:146,1,140.625,2|0,3:0|2:0,2:0:0:0:
129,226,135549,1,8,2:0:0:0:
129,226,135681,1,8,2:3:0:0:
129,226,135813,1,8,2:0:0:0:
129,226,135945,1,8,2:3:0:0:
129,226,136077,2,0,L|230:203,1,93.7500000000002,8|8,3:0|2:0,2:0:0:0:
280,154,136606,1,10,2:0:0:0:
280,154,136738,1,8,2:3:0:0:
280,154,136870,1,8,2:0:0:0:
280,154,137002,1,8,2:3:0:0:
280,154,137134,5,2,2:3:0:0:
322,221,137399,1,2,2:3:0:0:
401,189,137663,1,8,2:0:0:0:
401,189,137792,1,8,2:3:0:0:
401,189,137922,1,8,2:0:0:0:
401,189,138052,1,8,2:3:0:0:
401,189,138182,2,0,L|376:289,1,93.7500000000002,8|8,3:0|2:0,2:0:0:0:
431,363,138701,1,10,2:0:0:0:
431,363,138831,1,8,2:3:0:0:
431,363,138961,1,8,2:0:0:0:
431,363,139091,1,8,2:3:0:0:
431,363,139221,6,0,B|358:344|367:389|293:374,1,140.625,2|0,3:0|2:0,2:0:0:0:
232,361,139751,1,8,2:0:0:0:
232,361,139881,1,8,2:3:0:0:
232,361,140011,1,8,2:0:0:0:
232,361,140142,1,8,2:3:0:0:
232,361,140272,2,0,P|230:315|216:258,1,93.7500000000002,8|8,3:0|2:0,2:0:0:0:
287,224,140805,1,10,2:0:0:0:
287,224,140938,1,8,2:3:0:0:
287,224,141072,1,8,2:0:0:0:
287,224,141205,1,8,2:3:0:0:
287,224,141338,5,2,3:0:0:0:
243,29,141872,1,8,2:0:0:0:
243,29,142002,1,8,2:3:0:0:
243,29,142132,1,8,2:0:0:0:
243,29,142263,1,8,2:3:0:0:
243,29,142393,2,0,P|201:41|151:76,2,93.7500000000002,8|8|10,3:0|2:0|2:0,2:0:0:0:
323,76,143059,1,8,2:3:0:0:
323,76,143191,1,8,2:0:0:0:
323,76,143322,1,8,2:3:0:0:
323,76,143454,5,2,3:0:0:0:
261,292,143980,1,8,2:0:0:0:
261,292,144109,1,8,2:3:0:0:
261,292,144238,1,8,2:0:0:0:
261,292,144367,1,8,2:3:0:0:
261,292,144497,2,0,P|306:283|347:261,1,93.7500000000002,8|8,3:0|2:0,2:0:0:0:
457,193,145047,1,10,2:0:0:0:
457,193,145171,1,8,2:3:0:0:
457,193,145296,1,8,2:0:0:0:
457,193,145421,1,8,2:3:0:0:
457,193,145545,5,2,3:0:0:0:
256,352,146073,1,8,2:0:0:0:
256,352,146203,1,8,2:3:0:0:
256,352,146333,1,8,2:0:0:0:
256,352,146464,1,8,2:3:0:0:
256,352,146594,2,0,P|210:342|156:336,1,93.7500035762788,8|8,3:0|3:2,2:0:0:0:
68,125,147126,6,0,P|89:123|115:120,1,41.249999874115,2|2,0:0|0:0,0:0:0:0:
55,193,147658,6,0,P|41:153|51:47,1,140.625,4|0,3:2|2:0,2:0:0:0:
129,224,148191,2,0,P|163:223|226:240,1,93.7500000000002,14|0,2:0|2:0,2:0:0:0:
36,272,148591,1,8,2:3:0:0:
36,272,148724,1,2,2:1:0:0:
36,272,148858,2,0,P|11:290|-15:319,2,46.8750000000001,8|0|0,2:3|2:0|3:2,2:0:0:0:
220,237,149258,1,8,2:0:0:0:
220,237,149791,6,0,B|293:218|284:263|358:248,1,140.625,2|0,3:2|2:0,2:0:0:0:
243,158,150324,2,0,P|226:119|216:53,1,93.7500000000002,8|0,2:0|2:0,2:0:0:0:
177,303,150724,1,8,2:3:0:0:
177,303,150858,2,0,P|167:332|164:356,2,46.8750000000001,2|8|0,2:1|2:3|2:0,2:0:0:0:
357,248,151237,1,0,3:2:0:0:
357,248,151364,1,8,2:0:0:0:
357,248,151870,6,0,P|421:250|514:291,1,140.625,2|0,3:2|2:0,2:0:0:0:
350,167,152415,2,0,P|335:128|323:61,1,93.7500000000002,8|8,2:0|2:0,2:0:0:0:
287,309,152813,1,8,2:0:0:0:
287,309,152945,1,2,2:1:0:0:
287,309,153078,2,0,P|278:339|275:380,2,46.8750000000001,8|0|0,2:3|3:2|3:2,2:0:0:0:
431,173,153476,1,10,2:0:0:0:
436,145,153606,1,2,2:0:0:0:
441,117,153736,1,2,2:0:0:0:
446,89,153866,1,2,2:0:0:0:
350,167,153996,6,0,L|333:10,1,140.625,2|0,3:2|2:0,2:0:0:0:
334,27,154517,1,8,2:0:0:0:
267,135,154777,2,0,P|241:129|209:125,3,46.8750000000001,8|8|2|10,2:0|2:0|2:1|2:3,2:0:0:0:
169,182,155298,1,2,3:2:0:0:
169,182,155428,1,2,3:2:0:0:
169,182,155558,2,0,P|119:193|68:217,1,93.7500000000002,10|2,2:0|2:0,2:0:0:0:
149,97,155948,5,2,3:2:0:0:
149,97,156013,1,0,3:2:0:0:
149,97,156079,2,0,P|138:41|117:-8,2,93.7500000000002,4|6|8,3:2|2:0|2:0,2:0:0:0:
53,287,157014,1,8,2:3:0:0:
53,287,157153,2,0,P|42:314|35:345,2,46.8750000000001,2|8|0,2:1|2:3|2:0,2:0:0:0:
169,182,157551,1,0,3:2:0:0:
169,182,157683,1,8,2:0:0:0:
197,187,157816,1,2,2:0:0:0:
225,192,157949,1,2,2:0:0:0:
253,197,158082,1,2,2:0:0:0:
409,235,158214,6,0,L|276:267,2,93.7500000000002,6|6|8,3:2|2:0|2:0,2:0:0:0:
409,235,159151,1,8,2:3:0:0:
444,119,159285,2,0,P|439:96|428:69,1,46.8750000000001,2|8,2:1|2:3,2:0:0:0:
430,74,159653,1,0,3:2:0:0:
362,40,159776,2,0,L|313:55,1,46.8750000000001,8|0,2:0|2:0,2:0:0:0:
188,149,160033,1,2,2:0:0:0:
188,149,160162,1,2,2:0:0:0:
188,149,160291,6,0,P|205:107|212:41,2,93.7500000000002,6|6|8,3:2|2:0|2:0,2:0:0:0:
131,209,161102,1,8,2:0:0:0:
131,209,161234,1,8,2:0:0:0:
131,209,161366,2,0,P|105:214|80:224,2,46.8750000000001,2|8|0,2:1|2:3|3:2,2:0:0:0:
205,247,161750,1,0,3:2:0:0:
205,247,161878,2,0,P|251:270|293:316,1,93.7500000000002,10|2,2:0|2:0,2:0:0:0:
281,299,162279,1,2,2:0:0:0:
267,190,162413,6,0,P|271:141|298:77,2,93.7500000000002,6|6|8,3:2|2:0|2:0,2:0:0:0:
368,340,163202,1,8,2:0:0:0:
368,340,163334,1,8,2:0:0:0:
368,340,163465,2,0,P|394:335|415:334,1,46.8750000000001,2|8,2:1|2:3,2:0:0:0:
487,366,163725,1,0,3:2:0:0:
487,366,163856,1,0,3:2:0:0:
460,171,163986,2,0,P|446:220|443:282,1,93.7500000000002,10|2,2:0|2:0,2:0:0:0:
442,262,164378,1,2,2:0:0:0:
501,91,164508,6,0,B|428:72|437:117|363:102,1,140.625,6|0,3:2|2:0,2:0:0:0:
313,47,165030,2,0,L|207:27,1,93.7500000000002,8|8,2:0|2:0,2:0:0:0:
220,29,165433,1,8,2:0:0:0:
172,85,165568,2,0,L|179:142,1,46.8750000000001,2|8,2:1|2:3,2:0:0:0:
217,199,165837,1,0,3:2:0:0:
217,199,165971,1,0,3:2:0:0:
119,191,166106,2,0,P|83:230|59:270,1,93.7500000000002,10|2,2:0|2:0,2:0:0:0:
105,8,166632,6,0,P|129:54|142:99,2,93.7500000000002,6|6|8,3:2|2:0|2:0,2:0:0:0:
43,52,167421,1,8,2:0:0:0:
43,52,167553,1,8,2:0:0:0:
43,52,167684,2,0,P|38:74|35:107,1,46.8750000000001,2|8,2:1|2:3,2:0:0:0:
44,228,167944,2,0,P|39:206|36:173,1,46.8750000000001,0|0,3:2|3:2,2:0:0:0:
127,123,168205,2,0,P|183:124|258:140,1,93.7500000000002,10|2,2:0|2:0,2:0:0:0:
387,239,168597,1,2,2:0:0:0:
387,239,168727,6,0,P|331:240|256:256,1,93.7500000000002,6|6,3:2|2:0,2:0:0:0:
224,363,169262,1,8,2:0:0:0:
174,313,169519,1,8,2:0:0:0:
174,313,169648,1,8,2:0:0:0:
174,313,169777,2,0,L|182:264,3,46.8750000000001,2|8|0|0,2:1|2:3|3:2|3:2,2:0:0:0:
107,357,170292,2,0,P|49:359|-6:381,1,93.7500000000002,10|2,2:0|2:0,2:0:0:0:
161,174,170818,6,0,P|175:242|172:320,1,140.625,6|0,3:2|2:0,2:0:0:0:
256,224,171344,2,0,P|310:241|361:246,1,93.7500000000002,8|8,2:0|2:0,2:0:0:0:
430,236,171739,1,8,2:0:0:0:
430,236,171870,2,0,P|422:265|417:295,1,46.8750000000001,2|8,2:1|2:3,2:0:0:0:
450,354,172122,1,0,3:2:0:0:
450,354,172248,1,0,3:2:0:0:
474,54,172374,2,0,P|490:105|494:205,1,140.625,10|2,2:0|2:0,2:0:0:0:
345,50,172919,6,0,B|265:17|245:103|166:76,1,187.5,6|8,3:2|2:0,2:0:0:0:
167,76,173715,1,8,2:0:0:0:
167,76,173848,1,8,2:0:0:0:
278,133,173980,2,0,P|297:148|311:166,2,46.8750000000001,2|8|0,2:1|2:3|3:2,2:0:0:0:
128,145,174379,1,0,3:2:0:0:
128,145,174511,2,0,P|92:162|34:256,1,140.625,10|2,2:0|2:0,2:0:0:0:
40,321,175037,5,6,3:2:0:0:
40,321,175563,1,8,2:0:0:0:
40,321,175826,2,0,L|85:306,1,46.8750000000001,8|8,2:0|2:0,2:0:0:0:
150,347,176089,1,2,2:1:0:0:
150,347,176218,1,8,2:3:0:0:
260,321,176347,2,0,L|215:306,1,46.8750000000001,0|0,3:2|3:2,2:0:0:0:
170,108,176606,2,0,P|153:183|155:268,1,140.625,10|2,2:0|2:0,2:0:0:0:
335,368,177139,6,0,L|475:331,1,140.625,6|0,3:2|2:0,2:0:0:0:
491,257,177656,1,8,2:0:0:0:
491,257,177923,2,0,L|499:211,1,46.8750000000001,8|8,2:0|2:0,2:0:0:0:
452,155,178191,2,0,L|444:109,3,46.8750000000001,2|8|0|0,2:1|2:3|3:2|3:2,2:0:0:0:
407,215,178727,2,0,P|366:215|310:243,1,93.7500000000002,10|2,2:0|2:0,2:0:0:0:
293,140,179248,6,0,B|216:118|229:165|156:148,1,140.625,6|0,3:2|2:0,2:0:0:0:
83,134,179770,1,8,2:0:0:0:
83,134,180031,2,0,L|93:181,1,46.8750000000001,8|8,2:0|2:0,2:0:0:0:
46,238,180292,2,0,L|36:285,3,46.8750000000001,2|8|0|0,2:1|2:3|3:2|3:2,2:0:0:0:
84,343,180813,1,10,2:0:0:0:
84,343,181348,6,0,P|190:313|289:314,1,187.5,6|8,3:2|2:0,2:0:0:0:
266,311,182130,1,8,2:0:0:0:
266,311,182263,1,8,2:0:0:0:
322,361,182395,2,0,P|347:362|380:371,4,46.8750000000001,2|8|0|0|10,2:1|2:3|3:2|3:2|2:0,2:0:0:0:
477,302,183458,6,0,P|498:209|496:100,1,187.500007152558,6|8,3:2|2:0,2:0:0:0:
498,117,184251,1,8,2:0:0:0:
498,117,184383,1,8,2:0:0:0:
409,183,184515,2,0,P|413:214|419:239,4,46.8750017881394,2|8|0|0|10,2:1|2:3|3:2|3:2|2:0,2:0:0:0:
421,364,185555,6,0,P|340:345|233:365,1,187.500007152558,6|8,3:2|2:0,2:0:0:0:
239,363,186341,1,8,2:0:0:0:
239,363,186474,1,8,2:0:0:0:
183,312,186608,2,0,P|185:276|191:238,3,46.8750017881394,2|8|0|0,2:1|2:3|3:0|3:0,2:0:0:0:
83,372,187143,1,8,0:0:0:0:
256,192,187659,12,8,189224,3:1:0:0:
