osu file format v14

[General]
AudioFilename: audio.mp3
AudioLeadIn: 0
PreviewTime: 19910
Countdown: 1
SampleSet: Soft
StackLeniency: 0.7
Mode: 1
LetterboxInBreaks: 0
WidescreenStoryboard: 1

[Editor]
Bookmarks: 6613,11640,21694,31261,33856,52991,53315,64991,74883,87045,106505,118180,138613,148829,160018,180775
DistanceSpacing: 0.7
BeatDivisor: 4
GridSize: 16
TimelineZoom: 2.699999

[Metadata]
Title:Remember the Name (Fort Minor Cover)
TitleUnicode:Remember the Name (Fort Minor Cover)
Artist:Melody Fall
ArtistUnicode:Melody Fall
Creator:Remyria
Version:Oni
Source:
Tags:
BeatmapID:1782791
BeatmapSetID:771656

[Difficulty]
HPDrainRate:6
CircleSize:4
OverallDifficulty:6
ApproachRate:9
SliderMultiplier:1.28399990653992
SliderTickRate:2

[Events]
//Background and Video events
0,0,"maxresdefault.jpg",0,0
//Break Periods
//Storyboard Layer 0 (Background)
//Storyboard Layer 1 (Fail)
//Storyboard Layer 2 (Pass)
//Storyboard Layer 3 (Foreground)
//Storyboard Layer 4 (Overlay)
//Storyboard Sound Samples

[TimingPoints]
1424,324.324324324324,4,2,0,70,1,0
1424,-40,4,2,0,70,0,0
1748,-100,4,2,0,70,0,0
6613,-99.009900990099,4,2,0,70,0,0
6937,-98.0392156862745,4,2,0,70,0,0
7261,-97.0873786407767,4,2,0,70,0,0
7586,-96.1538461538461,4,2,0,70,0,0
7910,-95.2380952380952,4,2,0,70,0,0
8234,-94.3396226415094,4,2,0,70,0,0
8559,-93.4579439252336,4,2,0,70,0,0
8883,-92.5925925925926,4,2,0,70,0,0
9207,-90.1713255184851,4,2,0,70,0,0
9532,-90.9090909090909,4,2,0,70,0,0
9856,-90.0900900900901,4,2,0,70,0,0
10180,-89.2857142857143,4,2,0,70,0,0
10505,-88.4955752212389,4,2,0,70,0,0
10667,-83.3333333333333,4,2,0,70,0,0
10748,-80,4,2,0,70,0,0
10829,-76.9230769230769,4,2,0,70,0,0
10910,-74.0740740740741,4,2,0,70,0,0
10991,-71.4285714285714,4,2,0,70,0,0
11072,-68.9655172413793,4,2,0,70,0,0
11153,-66.6666666666667,4,2,0,70,0,0
11640,-40,4,2,0,70,0,0
11802,-71.4285714285714,4,2,0,70,0,0
19991,-70.9219858156028,4,2,0,70,0,0
20072,-70.4225352112676,4,2,0,70,0,0
20153,-69.9300699300699,4,2,0,70,0,0
20234,-69.9300699300699,4,2,0,70,0,0
20315,-68.9655172413793,4,2,0,70,0,0
20396,-68.4931506849315,4,2,0,70,0,0
20478,-68.0272108843537,4,2,0,70,0,0
20559,-67.5675675675676,4,2,0,70,0,0
20640,-67.1140939597315,4,2,0,70,0,0
20721,-66.6666666666667,4,2,0,70,0,0
20802,-66.2251655629139,4,2,0,70,0,0
20883,-65.7894736842105,4,2,0,70,0,0
20964,-65.359477124183,4,2,0,70,0,0
21045,-64.9350649350649,4,2,0,70,0,0
21126,-64.5161290322581,4,2,0,70,0,0
21207,-64.1025641025641,4,2,0,70,0,0
21288,-63.6942675159236,4,2,0,70,0,0
21369,-63.2911392405063,4,2,0,70,0,0
21451,-62.8930817610063,4,2,0,70,0,0
21532,-62.5,4,2,0,70,0,0
21694,-60.6060606060606,4,2,0,70,0,0
21856,-62.5,4,2,0,70,0,0
22018,-64.5161290322581,4,2,0,70,0,1
22180,-66.6666666666667,4,2,0,70,0,1
32072,-83.3333333333333,4,2,0,70,0,1
33613,-86.9565217391304,4,2,0,70,0,1
33694,-90.9090909090909,4,2,0,70,0,1
33775,-95.2380952380952,4,2,0,70,0,1
33856,-100,4,2,0,70,0,0
53315,-90.9090909090909,4,2,0,70,0,0
53640,-83.3333333333333,4,2,0,70,0,0
53964,-76.9230769230769,4,2,0,70,0,0
54288,-71.4285714285714,4,2,0,70,0,0
54613,-76.9230769230769,4,2,0,70,0,1
54937,-40,4,2,0,70,0,1
55180,-76.9230769230769,4,2,0,70,0,1
56234,-40,4,2,0,70,0,1
56478,-76.9230769230769,4,2,0,70,0,1
57532,-40,4,2,0,70,0,1
57775,-76.9230769230769,4,2,0,70,0,1
58505,-71.4285714285714,4,2,0,70,0,1
58586,-70.4225352112676,4,2,0,70,0,1
58667,-69.4444444444444,4,2,0,70,0,1
58748,-68.4931506849315,4,2,0,70,0,1
58829,-66.6666666666667,4,2,0,70,0,1
59153,-71.4285714285714,4,2,0,70,0,1
59234,-70.4225352112676,4,2,0,70,0,1
59315,-69.4444444444444,4,2,0,70,0,1
59396,-68.4931506849315,4,2,0,70,0,1
59478,-67.5675675675676,4,2,0,70,0,1
59802,-100,4,2,0,70,0,1
61099,-86.9565217391304,4,2,0,70,0,1
62396,-76.9230769230769,4,2,0,70,0,1
63694,-66.6666666666667,4,2,0,70,0,0
65153,-74.0740740740741,4,2,0,70,0,0
65315,-83.3333333333333,4,2,0,70,0,0
72775,-71.4285714285714,4,2,0,70,0,0
73180,-70.9219858156028,4,2,0,70,0,0
73261,-70.4225352112676,4,2,0,70,0,0
73342,-69.9300699300699,4,2,0,70,0,0
73423,-69.4444444444444,4,2,0,70,0,0
73505,-68.9655172413793,4,2,0,70,0,0
73586,-68.4931506849315,4,2,0,70,0,0
73667,-68.0272108843537,4,2,0,70,0,0
73748,-67.5675675675676,4,2,0,70,0,0
73829,-67.1140939597315,4,2,0,70,0,0
73910,-66.6666666666667,4,2,0,70,0,0
73991,-66.2251655629139,4,2,0,70,0,0
74072,-65.7894736842105,4,2,0,70,0,0
74153,-65.359477124183,4,2,0,70,0,0
74234,-64.9350649350649,4,2,0,70,0,0
74315,-64.5161290322581,4,2,0,70,0,0
74396,-64.1025641025641,4,2,0,70,0,0
74478,-63.6942675159236,4,2,0,70,0,0
74559,-63.2911392405063,4,2,0,70,0,0
74640,-62.8930817610063,4,2,0,70,0,0
74721,-62.5,4,2,0,70,0,0
74883,-60.6060606060606,4,2,0,70,0,0
75045,-62.5,4,2,0,70,0,0
75207,-64.5161290322581,4,2,0,70,0,1
75369,-66.6666666666667,4,2,0,70,0,1
85261,-83.3333333333333,4,2,0,70,0,1
86802,-86.9565217391304,4,2,0,70,0,1
86883,-90.9090909090909,4,2,0,70,0,1
86964,-95.2380952380952,4,2,0,70,0,1
87045,-100,4,2,0,70,0,0
106505,-90.9090909090909,4,2,0,70,0,0
106829,-83.3333333333333,4,2,0,70,0,0
107153,-76.9230769230769,4,2,0,70,0,0
107478,-71.4285714285714,4,2,0,70,0,0
107802,-76.9230769230769,4,2,0,70,0,1
108126,-40,4,2,0,70,0,1
108369,-76.9230769230769,4,2,0,70,0,1
109423,-40,4,2,0,70,0,1
109667,-76.9230769230769,4,2,0,70,0,1
110721,-40,4,2,0,70,0,1
110964,-76.9230769230769,4,2,0,70,0,1
111694,-71.4285714285714,4,2,0,70,0,1
111775,-70.4225352112676,4,2,0,70,0,1
111856,-69.4444444444444,4,2,0,70,0,1
111937,-68.4931506849315,4,2,0,70,0,1
112018,-66.6666666666667,4,2,0,70,0,1
112342,-71.4285714285714,4,2,0,70,0,1
112423,-70.4225352112676,4,2,0,70,0,1
112505,-69.4444444444444,4,2,0,70,0,1
112586,-68.4931506849315,4,2,0,70,0,1
112667,-67.5675675675676,4,2,0,70,0,1
112991,-100,4,2,0,70,0,1
114288,-86.9565217391304,4,2,0,70,0,1
115586,-76.9230769230769,4,2,0,70,0,1
116883,-66.6666666666667,4,2,0,70,0,1
118180,-66.6666666666667,4,2,0,70,0,0
123369,-100,4,2,0,70,0,0
139586,-83.3333333333333,4,2,0,70,0,1
148829,-80,4,2,0,70,0,1
148991,-76.9230769230769,4,2,0,70,0,1
149153,-74.0740740740741,4,2,0,70,0,1
149315,-71.4285714285714,4,2,0,70,0,1
158396,-68.9655172413793,4,2,0,70,0,1
158559,-66.6666666666667,4,2,0,70,0,1
158721,-64.5161290322581,4,2,0,70,0,1
158883,-62.5,4,2,0,70,0,0
160018,-83.3333333333333,4,2,0,70,0,0
170396,-71.4285714285714,4,2,0,70,0,1
179802,-74.0740740740741,4,2,0,70,0,1
179964,-76.9230769230769,4,2,0,70,0,1
180126,-80,4,2,0,70,0,1
180288,-83.3333333333333,4,2,0,70,0,1
180775,-100,4,2,0,70,0,0

[HitObjects]
32,32,1424,5,12,0:0:0:0:
32,96,1748,1,0,0:0:0:0:
96,96,1910,1,0,0:0:0:0:
160,96,2072,1,2,0:0:0:0:
224,96,2234,1,2,0:0:0:0:
288,96,2396,1,2,0:0:0:0:
352,96,2559,1,0,0:0:0:0:
32,160,2883,1,0,0:0:0:0:
96,160,3045,1,0,0:0:0:0:
160,160,3207,1,2,0:0:0:0:
224,160,3369,1,2,0:0:0:0:
288,160,3532,1,0,0:0:0:0:
352,160,3694,1,0,0:0:0:0:
416,160,3856,1,2,0:0:0:0:
32,224,4180,1,2,0:0:0:0:
96,224,4342,1,0,0:0:0:0:
160,224,4505,1,0,0:0:0:0:
224,224,4667,1,2,0:0:0:0:
288,224,4829,1,0,0:0:0:0:
352,224,4991,1,0,0:0:0:0:
416,224,5153,1,2,0:0:0:0:
32,288,5478,1,0,0:0:0:0:
96,288,5640,1,0,0:0:0:0:
160,288,5802,1,0,0:0:0:0:
224,288,5964,1,2,0:0:0:0:
288,288,6126,1,2,0:0:0:0:
352,288,6288,1,2,0:0:0:0:
416,288,6451,1,2,0:0:0:0:
480,288,6613,1,4,0:0:0:0:
480,160,6937,1,4,0:0:0:0:
480,32,7261,1,4,0:0:0:0:
352,32,7586,1,4,0:0:0:0:
224,32,7910,1,4,0:0:0:0:
96,32,8234,1,4,0:0:0:0:
96,160,8559,1,4,0:0:0:0:
96,288,8883,1,4,0:0:0:0:
224,288,9207,1,12,0:0:0:0:
352,288,9532,1,12,0:0:0:0:
480,288,9856,1,12,0:0:0:0:
480,160,10180,1,12,0:0:0:0:
480,32,10505,1,12,0:0:0:0:
416,32,10667,1,0,0:0:0:0:
384,32,10748,1,0,0:0:0:0:
352,32,10829,1,0,0:0:0:0:
320,32,10910,1,0,0:0:0:0:
288,32,10991,1,0,0:0:0:0:
256,32,11072,1,0,0:0:0:0:
224,32,11153,1,12,0:0:0:0:
32,32,11640,1,6,0:0:0:0:
32,96,11964,1,0,0:0:0:0:
96,96,12126,1,2,0:0:0:0:
160,96,12288,1,2,0:0:0:0:
224,96,12451,1,2,0:0:0:0:
288,96,12613,1,0,0:0:0:0:
352,96,12775,1,0,0:0:0:0:
416,96,12937,1,12,0:0:0:0:
480,160,13261,1,2,0:0:0:0:
480,192,13342,1,0,0:0:0:0:
480,224,13423,1,0,0:0:0:0:
416,224,13586,1,0,0:0:0:0:
352,224,13748,1,2,0:0:0:0:
288,224,13910,1,0,0:0:0:0:
224,224,14072,1,0,0:0:0:0:
160,224,14234,1,12,0:0:0:0:
32,224,14559,1,0,0:0:0:0:
32,160,14721,1,0,0:0:0:0:
32,96,14883,1,0,0:0:0:0:
32,32,15045,1,2,0:0:0:0:
96,32,15207,1,2,0:0:0:0:
160,32,15369,1,0,0:0:0:0:
224,32,15532,1,12,0:0:0:0:
352,32,15856,1,4,0:0:0:0:
480,32,16180,1,12,0:0:0:0:
480,160,16505,1,0,0:0:0:0:
416,160,16667,1,2,0:0:0:0:
352,160,16829,1,4,0:0:0:0:
32,224,17153,1,0,0:0:0:0:
96,224,17315,1,2,0:0:0:0:
160,224,17478,1,2,0:0:0:0:
224,224,17640,1,2,0:0:0:0:
288,224,17802,1,0,0:0:0:0:
352,224,17964,1,0,0:0:0:0:
416,224,18126,1,12,0:0:0:0:
480,288,18451,1,0,0:0:0:0:
480,320,18532,1,0,0:0:0:0:
480,352,18613,1,2,0:0:0:0:
416,352,18775,1,2,0:0:0:0:
352,352,18937,1,2,0:0:0:0:
288,352,19099,1,0,0:0:0:0:
224,352,19261,1,0,0:0:0:0:
160,352,19423,1,12,0:0:0:0:
32,352,19748,1,4,0:0:0:0:
32,288,19910,1,0,0:0:0:0:
32,256,19991,1,2,0:0:0:0:
32,224,20072,1,2,0:0:0:0:
32,192,20153,1,2,0:0:0:0:
32,160,20234,1,0,0:0:0:0:
32,128,20315,1,2,0:0:0:0:
32,96,20396,1,2,0:0:0:0:
32,64,20478,1,2,0:0:0:0:
32,32,20559,1,0,0:0:0:0:
64,32,20640,1,2,0:0:0:0:
96,32,20721,1,2,0:0:0:0:
128,32,20802,1,2,0:0:0:0:
160,32,20883,1,0,0:0:0:0:
192,32,20964,1,2,0:0:0:0:
224,32,21045,1,0,0:0:0:0:
256,32,21126,1,2,0:0:0:0:
288,32,21207,1,0,0:0:0:0:
320,32,21288,1,2,0:0:0:0:
352,32,21369,1,0,0:0:0:0:
384,32,21451,1,2,0:0:0:0:
416,32,21532,1,0,0:0:0:0:
480,32,21694,1,6,0:0:0:0:
480,96,21856,1,6,0:0:0:0:
480,160,22018,1,6,0:0:0:0:
480,224,22180,1,0,0:0:0:0:
480,288,22342,1,0,0:0:0:0:
480,320,22423,1,0,0:0:0:0:
480,352,22505,1,2,0:0:0:0:
416,352,22667,1,0,0:0:0:0:
352,352,22829,1,2,0:0:0:0:
320,352,22910,1,2,0:0:0:0:
288,352,22991,1,2,0:0:0:0:
256,352,23072,1,2,0:0:0:0:
224,352,23153,1,0,0:0:0:0:
160,352,23315,1,6,0:0:0:0:
96,352,23478,1,0,0:0:0:0:
32,352,23640,1,0,0:0:0:0:
32,320,23721,1,0,0:0:0:0:
32,288,23802,1,2,0:0:0:0:
32,224,23964,1,0,0:0:0:0:
32,160,24126,1,2,0:0:0:0:
32,96,24288,1,0,0:0:0:0:
32,64,24369,1,0,0:0:0:0:
32,32,24451,1,2,0:0:0:0:
96,32,24613,1,6,0:0:0:0:
160,32,24775,1,0,0:0:0:0:
224,32,24937,1,0,0:0:0:0:
256,32,25018,1,0,0:0:0:0:
288,32,25099,1,2,0:0:0:0:
352,32,25261,1,0,0:0:0:0:
416,32,25423,1,2,0:0:0:0:
448,32,25505,1,0,0:0:0:0:
480,32,25586,1,0,0:0:0:0:
480,64,25667,1,0,0:0:0:0:
480,96,25748,1,2,0:0:0:0:
480,160,25910,1,0,0:0:0:0:
480,224,26072,1,2,0:0:0:0:
480,256,26153,1,2,0:0:0:0:
480,288,26234,1,2,0:0:0:0:
480,352,26396,1,0,0:0:0:0:
416,352,26559,1,2,0:0:0:0:
352,352,26721,1,0,0:0:0:0:
320,352,26802,1,0,0:0:0:0:
288,352,26883,1,2,0:0:0:0:
224,352,27045,1,0,0:0:0:0:
160,352,27207,1,6,0:0:0:0:
96,352,27369,1,0,0:0:0:0:
32,352,27532,1,0,0:0:0:0:
32,320,27613,1,0,0:0:0:0:
32,288,27694,1,2,0:0:0:0:
32,224,27856,1,2,0:0:0:0:
32,160,28018,1,2,0:0:0:0:
32,96,28180,1,0,0:0:0:0:
32,64,28261,1,0,0:0:0:0:
32,32,28342,1,0,0:0:0:0:
64,32,28423,1,0,0:0:0:0:
96,32,28505,1,6,0:0:0:0:
160,32,28667,1,0,0:0:0:0:
224,32,28829,1,0,0:0:0:0:
256,32,28910,1,0,0:0:0:0:
288,32,28991,1,2,0:0:0:0:
352,32,29153,1,0,0:0:0:0:
416,32,29315,1,2,0:0:0:0:
448,32,29396,1,0,0:0:0:0:
480,32,29478,1,0,0:0:0:0:
480,64,29559,1,0,0:0:0:0:
480,96,29640,1,0,0:0:0:0:
480,128,29721,1,0,0:0:0:0:
480,160,29802,1,6,0:0:0:0:
480,224,29964,1,0,0:0:0:0:
480,288,30126,1,0,0:0:0:0:
480,320,30207,1,0,0:0:0:0:
480,352,30288,1,2,0:0:0:0:
416,352,30451,1,0,0:0:0:0:
352,352,30613,1,2,0:0:0:0:
288,352,30775,1,0,0:0:0:0:
256,352,30856,1,0,0:0:0:0:
224,352,30937,1,0,0:0:0:0:
160,352,31099,1,2,0:0:0:0:
96,352,31261,1,2,0:0:0:0:
64,352,31342,1,2,0:0:0:0:
32,352,31423,1,0,0:0:0:0:
32,288,31586,1,0,0:0:0:0:
96,288,31748,1,2,0:0:0:0:
32,224,32072,1,0,0:0:0:0:
64,224,32153,1,0,0:0:0:0:
96,224,32234,1,0,0:0:0:0:
32,160,32397,1,0,0:0:0:0:
64,160,32478,1,0,0:0:0:0:
96,160,32559,1,6,0:0:0:0:
96,160,32883,1,6,0:0:0:0:
96,160,33207,1,6,0:0:0:0:
32,32,33532,1,0,0:0:0:0:
64,32,33613,1,2,0:0:0:0:
96,32,33694,1,2,0:0:0:0:
128,32,33775,1,2,0:0:0:0:
160,32,33856,1,4,0:0:0:0:
288,32,34180,1,0,0:0:0:0:
352,32,34342,1,0,0:0:0:0:
416,32,34505,1,2,0:0:0:0:
480,32,34667,1,2,0:0:0:0:
480,96,34829,1,0,0:0:0:0:
480,160,34991,1,2,0:0:0:0:
480,224,35153,1,0,0:0:0:0:
480,352,35478,1,0,0:0:0:0:
416,352,35640,1,2,0:0:0:0:
352,352,35802,1,2,0:0:0:0:
288,352,35964,1,2,0:0:0:0:
224,352,36126,1,0,0:0:0:0:
160,352,36288,1,2,0:0:0:0:
96,352,36451,1,4,0:0:0:0:
32,288,36775,1,0,0:0:0:0:
32,224,36937,1,0,0:0:0:0:
32,160,37099,1,2,0:0:0:0:
32,96,37261,1,2,0:0:0:0:
32,32,37423,1,0,0:0:0:0:
96,32,37586,1,2,0:0:0:0:
160,32,37748,1,4,0:0:0:0:
288,32,38072,1,2,0:0:0:0:
352,32,38234,1,2,0:0:0:0:
416,32,38396,1,2,0:0:0:0:
480,32,38559,1,0,0:0:0:0:
480,96,38721,1,0,0:0:0:0:
480,160,38883,1,2,0:0:0:0:
480,224,39045,1,0,0:0:0:0:
480,352,39369,1,0,0:0:0:0:
416,352,39532,1,0,0:0:0:0:
352,352,39694,1,2,0:0:0:0:
288,352,39856,1,2,0:0:0:0:
224,352,40018,1,0,0:0:0:0:
160,352,40180,1,2,0:0:0:0:
96,352,40342,1,0,0:0:0:0:
32,288,40667,1,0,0:0:0:0:
32,224,40829,1,2,0:0:0:0:
32,160,40991,1,2,0:0:0:0:
32,96,41153,1,2,0:0:0:0:
32,32,41315,1,0,0:0:0:0:
96,32,41478,1,2,0:0:0:0:
160,32,41640,1,4,0:0:0:0:
288,32,41964,1,0,0:0:0:0:
352,32,42126,1,0,0:0:0:0:
416,32,42288,1,2,0:0:0:0:
480,32,42451,1,0,0:0:0:0:
480,96,42613,1,0,0:0:0:0:
480,160,42775,1,2,0:0:0:0:
480,224,42937,1,4,0:0:0:0:
480,352,43261,1,0,0:0:0:0:
416,352,43423,1,0,0:0:0:0:
384,352,43505,1,0,0:0:0:0:
352,352,43586,1,2,0:0:0:0:
288,352,43748,1,2,0:0:0:0:
224,352,43910,1,2,0:0:0:0:
160,352,44072,1,2,0:0:0:0:
96,352,44234,1,0,0:0:0:0:
32,288,44559,1,0,0:0:0:0:
32,224,44721,1,0,0:0:0:0:
32,160,44883,1,2,0:0:0:0:
32,96,45045,1,2,0:0:0:0:
32,32,45207,1,0,0:0:0:0:
96,32,45369,1,2,0:0:0:0:
160,32,45532,1,0,0:0:0:0:
288,32,45856,1,0,0:0:0:0:
352,32,46018,1,2,0:0:0:0:
416,32,46180,1,2,0:0:0:0:
480,32,46342,1,2,0:0:0:0:
480,96,46505,1,0,0:0:0:0:
480,160,46667,1,2,0:0:0:0:
480,224,46829,1,4,0:0:0:0:
480,352,47153,1,0,0:0:0:0:
416,352,47315,1,0,0:0:0:0:
352,352,47478,1,2,0:0:0:0:
288,352,47640,1,2,0:0:0:0:
224,352,47802,1,0,0:0:0:0:
160,352,47964,1,2,0:0:0:0:
96,352,48126,1,4,0:0:0:0:
32,288,48451,1,0,0:0:0:0:
32,224,48613,1,0,0:0:0:0:
32,160,48775,1,2,0:0:0:0:
32,128,48856,1,2,0:0:0:0:
32,96,48937,1,0,0:0:0:0:
32,64,49018,1,0,0:0:0:0:
32,32,49099,1,2,0:0:0:0:
64,32,49180,1,2,0:0:0:0:
96,32,49261,1,2,0:0:0:0:
128,32,49342,1,2,0:0:0:0:
160,32,49423,1,4,0:0:0:0:
288,32,49748,1,0,0:0:0:0:
352,32,49910,1,0,0:0:0:0:
416,32,50072,1,2,0:0:0:0:
480,32,50234,1,2,0:0:0:0:
480,96,50396,1,0,0:0:0:0:
480,160,50559,1,2,0:0:0:0:
480,224,50721,1,4,0:0:0:0:
480,352,51045,1,0,0:0:0:0:
416,352,51207,1,0,0:0:0:0:
352,352,51369,1,2,0:0:0:0:
288,352,51532,1,0,0:0:0:0:
224,352,51694,1,2,0:0:0:0:
160,352,51856,1,2,0:0:0:0:
96,352,52018,1,4,0:0:0:0:
32,288,52342,1,0,0:0:0:0:
32,224,52505,1,0,0:0:0:0:
32,160,52667,1,2,0:0:0:0:
32,96,52829,1,0,0:0:0:0:
32,32,52991,1,0,0:0:0:0:
96,32,53153,1,2,0:0:0:0:
160,32,53315,1,4,0:0:0:0:
288,32,53640,1,6,0:0:0:0:
416,32,53964,1,4,0:0:0:0:
416,160,54288,1,6,0:0:0:0:
416,288,54613,1,0,0:0:0:0:
352,288,54775,1,0,0:0:0:0:
288,288,54937,1,6,0:0:0:0:
176,288,55180,1,2,0:0:0:0:
144,288,55261,1,0,0:0:0:0:
32,288,55423,1,0,0:0:0:0:
32,224,55586,1,0,0:0:0:0:
32,160,55748,1,2,0:0:0:0:
416,288,55910,1,0,0:0:0:0:
352,288,56072,1,0,0:0:0:0:
288,288,56234,1,6,0:0:0:0:
176,288,56478,1,2,0:0:0:0:
144,288,56559,1,0,0:0:0:0:
32,288,56721,1,0,0:0:0:0:
32,224,56883,1,0,0:0:0:0:
32,160,57045,1,2,0:0:0:0:
416,288,57207,1,0,0:0:0:0:
352,288,57369,1,0,0:0:0:0:
288,288,57532,1,6,0:0:0:0:
176,288,57775,1,2,0:0:0:0:
144,288,57856,1,0,0:0:0:0:
32,288,58018,1,0,0:0:0:0:
32,224,58180,1,0,0:0:0:0:
32,160,58342,1,2,0:0:0:0:
32,32,58505,1,0,0:0:0:0:
64,32,58586,1,0,0:0:0:0:
96,32,58667,1,0,0:0:0:0:
128,32,58748,1,0,0:0:0:0:
160,32,58829,1,6,0:0:0:0:
224,32,58991,1,6,0:0:0:0:
288,32,59153,1,0,0:0:0:0:
320,32,59234,1,2,0:0:0:0:
352,32,59315,1,0,0:0:0:0:
384,32,59396,1,0,0:0:0:0:
416,32,59478,1,6,0:0:0:0:
480,96,59802,1,6,0:0:0:0:
480,160,59964,1,0,0:0:0:0:
480,224,60126,1,2,0:0:0:0:
480,288,60288,1,0,0:0:0:0:
480,352,60450,1,2,0:0:0:0:
416,352,60613,1,0,0:0:0:0:
352,352,60775,1,2,0:0:0:0:
288,352,60937,1,0,0:0:0:0:
224,352,61099,1,6,0:0:0:0:
160,352,61261,1,0,0:0:0:0:
96,352,61423,1,2,0:0:0:0:
32,352,61586,1,0,0:0:0:0:
32,288,61748,1,2,0:0:0:0:
32,224,61910,1,0,0:0:0:0:
32,160,62072,1,2,0:0:0:0:
32,96,62234,1,0,0:0:0:0:
32,32,62396,1,6,0:0:0:0:
96,32,62559,1,0,0:0:0:0:
160,32,62721,1,2,0:0:0:0:
224,32,62883,1,0,0:0:0:0:
288,32,63045,1,2,0:0:0:0:
352,32,63207,1,0,0:0:0:0:
416,32,63369,1,2,0:0:0:0:
480,32,63532,1,0,0:0:0:0:
32,32,63694,1,2,0:0:0:0:
64,32,63775,1,0,0:0:0:0:
96,32,63856,1,0,0:0:0:0:
128,32,63937,1,0,0:0:0:0:
160,32,64018,1,2,0:0:0:0:
192,32,64099,1,0,0:0:0:0:
224,32,64180,1,0,0:0:0:0:
256,32,64261,1,0,0:0:0:0:
288,32,64342,1,2,0:0:0:0:
320,32,64423,1,0,0:0:0:0:
352,32,64505,1,0,0:0:0:0:
384,32,64586,1,0,0:0:0:0:
416,32,64667,1,2,0:0:0:0:
448,32,64748,1,2,0:0:0:0:
480,32,64829,1,2,0:0:0:0:
480,64,64910,1,2,0:0:0:0:
480,96,64991,1,0,0:0:0:0:
480,160,65153,1,0,0:0:0:0:
480,224,65315,1,0,0:0:0:0:
480,256,65396,1,0,0:0:0:0:
480,288,65478,1,0,0:0:0:0:
480,352,65640,1,0,0:0:0:0:
416,352,65802,1,0,0:0:0:0:
352,352,65964,1,0,0:0:0:0:
288,352,66126,1,0,0:0:0:0:
224,352,66288,1,6,0:0:0:0:
160,352,66451,1,6,0:0:0:0:
96,352,66613,1,6,0:0:0:0:
32,352,66775,1,6,0:0:0:0:
32,288,66937,1,4,0:0:0:0:
32,224,67099,1,4,0:0:0:0:
32,160,67261,1,6,0:0:0:0:
32,96,67423,1,6,0:0:0:0:
32,32,67586,1,0,0:0:0:0:
96,32,67748,1,0,0:0:0:0:
128,32,67829,1,0,0:0:0:0:
160,32,67910,1,2,0:0:0:0:
224,32,68072,1,0,0:0:0:0:
256,32,68153,1,0,0:0:0:0:
288,32,68234,1,2,0:0:0:0:
352,32,68396,1,0,0:0:0:0:
384,32,68478,1,0,0:0:0:0:
416,32,68559,1,0,0:0:0:0:
448,32,68640,1,0,0:0:0:0:
480,32,68721,1,0,0:0:0:0:
480,64,68802,1,0,0:0:0:0:
480,96,68883,1,6,0:0:0:0:
480,160,69045,1,4,0:0:0:0:
480,224,69207,1,4,0:0:0:0:
480,288,69369,1,6,0:0:0:0:
480,352,69532,1,6,0:0:0:0:
416,352,69694,1,4,0:0:0:0:
352,352,69856,1,4,0:0:0:0:
288,352,70018,1,6,0:0:0:0:
224,352,70180,1,0,0:0:0:0:
160,352,70342,1,0,0:0:0:0:
96,352,70505,1,0,0:0:0:0:
64,352,70586,1,0,0:0:0:0:
32,352,70667,1,0,0:0:0:0:
32,288,70829,1,0,0:0:0:0:
32,224,70991,1,0,0:0:0:0:
32,160,71153,1,0,0:0:0:0:
32,96,71315,1,0,0:0:0:0:
32,32,71478,1,6,0:0:0:0:
96,32,71640,1,6,0:0:0:0:
160,32,71802,1,6,0:0:0:0:
224,32,71964,1,6,0:0:0:0:
288,32,72126,1,4,0:0:0:0:
352,32,72288,1,4,0:0:0:0:
416,32,72451,1,4,0:0:0:0:
480,32,72613,1,6,0:0:0:0:
32,352,72775,1,4,0:0:0:0:
32,288,73099,1,0,0:0:0:0:
32,256,73180,1,2,0:0:0:0:
32,224,73261,1,2,0:0:0:0:
32,192,73342,1,2,0:0:0:0:
32,160,73423,1,0,0:0:0:0:
32,128,73505,1,2,0:0:0:0:
32,96,73586,1,2,0:0:0:0:
32,64,73667,1,2,0:0:0:0:
32,32,73748,1,0,0:0:0:0:
64,32,73829,1,2,0:0:0:0:
96,32,73910,1,2,0:0:0:0:
128,32,73991,1,2,0:0:0:0:
160,32,74072,1,0,0:0:0:0:
192,32,74153,1,2,0:0:0:0:
224,32,74234,1,0,0:0:0:0:
256,32,74315,1,2,0:0:0:0:
288,32,74396,1,0,0:0:0:0:
320,32,74478,1,2,0:0:0:0:
352,32,74559,1,0,0:0:0:0:
384,32,74640,1,2,0:0:0:0:
416,32,74721,1,0,0:0:0:0:
480,32,74883,1,6,0:0:0:0:
480,96,75045,1,6,0:0:0:0:
480,160,75207,1,6,0:0:0:0:
480,224,75369,1,0,0:0:0:0:
480,288,75532,1,0,0:0:0:0:
480,320,75613,1,0,0:0:0:0:
480,352,75694,1,2,0:0:0:0:
416,352,75856,1,0,0:0:0:0:
352,352,76018,1,2,0:0:0:0:
320,352,76099,1,2,0:0:0:0:
288,352,76180,1,2,0:0:0:0:
256,352,76261,1,2,0:0:0:0:
224,352,76342,1,0,0:0:0:0:
160,352,76505,1,6,0:0:0:0:
96,352,76667,1,0,0:0:0:0:
32,352,76829,1,0,0:0:0:0:
32,320,76910,1,0,0:0:0:0:
32,288,76991,1,2,0:0:0:0:
32,224,77153,1,0,0:0:0:0:
32,160,77315,1,2,0:0:0:0:
32,96,77478,1,0,0:0:0:0:
32,64,77559,1,0,0:0:0:0:
32,32,77640,1,2,0:0:0:0:
96,32,77802,1,6,0:0:0:0:
160,32,77964,1,0,0:0:0:0:
224,32,78126,1,0,0:0:0:0:
256,32,78207,1,0,0:0:0:0:
288,32,78288,1,2,0:0:0:0:
352,32,78451,1,0,0:0:0:0:
416,32,78613,1,2,0:0:0:0:
448,32,78694,1,0,0:0:0:0:
480,32,78775,1,0,0:0:0:0:
480,64,78856,1,0,0:0:0:0:
480,96,78937,1,2,0:0:0:0:
480,160,79099,1,0,0:0:0:0:
480,224,79261,1,2,0:0:0:0:
480,256,79342,1,2,0:0:0:0:
480,288,79423,1,2,0:0:0:0:
480,352,79586,1,0,0:0:0:0:
416,352,79748,1,2,0:0:0:0:
352,352,79910,1,0,0:0:0:0:
320,352,79991,1,0,0:0:0:0:
288,352,80072,1,2,0:0:0:0:
224,352,80234,1,0,0:0:0:0:
160,352,80396,1,6,0:0:0:0:
96,352,80559,1,0,0:0:0:0:
32,352,80721,1,0,0:0:0:0:
32,320,80802,1,0,0:0:0:0:
32,288,80883,1,2,0:0:0:0:
32,224,81045,1,2,0:0:0:0:
32,160,81207,1,2,0:0:0:0:
32,96,81369,1,0,0:0:0:0:
32,64,81451,1,0,0:0:0:0:
32,32,81532,1,0,0:0:0:0:
64,32,81613,1,0,0:0:0:0:
96,32,81694,1,6,0:0:0:0:
160,32,81856,1,0,0:0:0:0:
224,32,82018,1,0,0:0:0:0:
256,32,82099,1,0,0:0:0:0:
288,32,82180,1,2,0:0:0:0:
352,32,82342,1,0,0:0:0:0:
416,32,82505,1,2,0:0:0:0:
448,32,82586,1,0,0:0:0:0:
480,32,82667,1,0,0:0:0:0:
480,64,82748,1,0,0:0:0:0:
480,96,82829,1,0,0:0:0:0:
480,128,82910,1,0,0:0:0:0:
480,160,82991,1,6,0:0:0:0:
480,224,83153,1,0,0:0:0:0:
480,288,83315,1,0,0:0:0:0:
480,320,83396,1,0,0:0:0:0:
480,352,83478,1,2,0:0:0:0:
416,352,83640,1,0,0:0:0:0:
352,352,83802,1,2,0:0:0:0:
288,352,83964,1,0,0:0:0:0:
256,352,84045,1,0,0:0:0:0:
224,352,84126,1,0,0:0:0:0:
160,352,84288,1,2,0:0:0:0:
96,352,84451,1,2,0:0:0:0:
64,352,84532,1,2,0:0:0:0:
32,352,84613,1,0,0:0:0:0:
32,288,84775,1,0,0:0:0:0:
96,288,84937,1,2,0:0:0:0:
32,224,85261,1,0,0:0:0:0:
64,224,85342,1,0,0:0:0:0:
96,224,85423,1,0,0:0:0:0:
32,160,85586,1,0,0:0:0:0:
64,160,85667,1,0,0:0:0:0:
96,160,85748,1,6,0:0:0:0:
96,160,86072,1,6,0:0:0:0:
96,160,86396,1,6,0:0:0:0:
32,32,86721,1,0,0:0:0:0:
64,32,86802,1,2,0:0:0:0:
96,32,86883,1,2,0:0:0:0:
128,32,86964,1,2,0:0:0:0:
160,32,87045,1,4,0:0:0:0:
288,32,87369,1,0,0:0:0:0:
352,32,87532,1,0,0:0:0:0:
416,32,87694,1,2,0:0:0:0:
480,32,87856,1,2,0:0:0:0:
480,96,88018,1,0,0:0:0:0:
480,160,88180,1,2,0:0:0:0:
480,224,88342,1,0,0:0:0:0:
480,352,88667,1,0,0:0:0:0:
416,352,88829,1,2,0:0:0:0:
352,352,88991,1,2,0:0:0:0:
288,352,89153,1,2,0:0:0:0:
224,352,89315,1,0,0:0:0:0:
160,352,89478,1,2,0:0:0:0:
96,352,89640,1,4,0:0:0:0:
32,288,89964,1,0,0:0:0:0:
32,224,90126,1,0,0:0:0:0:
32,160,90288,1,2,0:0:0:0:
32,96,90450,1,2,0:0:0:0:
32,32,90612,1,0,0:0:0:0:
96,32,90775,1,2,0:0:0:0:
160,32,90937,1,4,0:0:0:0:
288,32,91261,1,2,0:0:0:0:
352,32,91423,1,2,0:0:0:0:
416,32,91585,1,2,0:0:0:0:
480,32,91748,1,0,0:0:0:0:
480,96,91910,1,0,0:0:0:0:
480,160,92072,1,2,0:0:0:0:
480,224,92234,1,0,0:0:0:0:
480,352,92558,1,0,0:0:0:0:
416,352,92721,1,0,0:0:0:0:
352,352,92883,1,2,0:0:0:0:
288,352,93045,1,2,0:0:0:0:
224,352,93207,1,0,0:0:0:0:
160,352,93369,1,2,0:0:0:0:
96,352,93531,1,0,0:0:0:0:
32,288,93856,1,0,0:0:0:0:
32,224,94018,1,2,0:0:0:0:
32,160,94180,1,2,0:0:0:0:
32,96,94342,1,2,0:0:0:0:
32,32,94504,1,0,0:0:0:0:
96,32,94667,1,2,0:0:0:0:
160,32,94829,1,4,0:0:0:0:
288,32,95153,1,0,0:0:0:0:
352,32,95315,1,0,0:0:0:0:
416,32,95477,1,2,0:0:0:0:
480,32,95640,1,0,0:0:0:0:
480,96,95802,1,0,0:0:0:0:
480,160,95964,1,2,0:0:0:0:
480,224,96126,1,4,0:0:0:0:
480,352,96450,1,0,0:0:0:0:
416,352,96612,1,0,0:0:0:0:
384,352,96694,1,0,0:0:0:0:
352,352,96775,1,2,0:0:0:0:
288,352,96937,1,2,0:0:0:0:
224,352,97099,1,2,0:0:0:0:
160,352,97261,1,2,0:0:0:0:
96,352,97423,1,0,0:0:0:0:
32,288,97748,1,0,0:0:0:0:
32,224,97910,1,0,0:0:0:0:
32,160,98072,1,2,0:0:0:0:
32,96,98234,1,2,0:0:0:0:
32,32,98396,1,0,0:0:0:0:
96,32,98558,1,2,0:0:0:0:
160,32,98721,1,0,0:0:0:0:
288,32,99045,1,0,0:0:0:0:
352,32,99207,1,2,0:0:0:0:
416,32,99369,1,2,0:0:0:0:
480,32,99531,1,0,0:0:0:0:
480,96,99694,1,0,0:0:0:0:
480,160,99856,1,2,0:0:0:0:
480,224,100018,1,4,0:0:0:0:
480,352,100342,1,0,0:0:0:0:
416,352,100504,1,0,0:0:0:0:
352,352,100667,1,2,0:0:0:0:
288,352,100829,1,2,0:0:0:0:
224,352,100991,1,0,0:0:0:0:
160,352,101153,1,2,0:0:0:0:
96,352,101315,1,4,0:0:0:0:
32,288,101640,1,0,0:0:0:0:
32,224,101802,1,0,0:0:0:0:
32,160,101964,1,2,0:0:0:0:
32,128,102045,1,2,0:0:0:0:
32,96,102126,1,0,0:0:0:0:
32,64,102207,1,0,0:0:0:0:
32,32,102288,1,2,0:0:0:0:
64,32,102369,1,2,0:0:0:0:
96,32,102450,1,2,0:0:0:0:
128,32,102531,1,2,0:0:0:0:
160,32,102612,1,4,0:0:0:0:
288,32,102937,1,0,0:0:0:0:
352,32,103099,1,0,0:0:0:0:
416,32,103261,1,2,0:0:0:0:
480,32,103423,1,0,0:0:0:0:
480,96,103585,1,0,0:0:0:0:
480,160,103748,1,2,0:0:0:0:
480,224,103910,1,4,0:0:0:0:
480,352,104234,1,0,0:0:0:0:
416,352,104396,1,0,0:0:0:0:
352,352,104558,1,2,0:0:0:0:
288,352,104721,1,0,0:0:0:0:
224,352,104883,1,2,0:0:0:0:
160,352,105045,1,2,0:0:0:0:
96,352,105207,1,4,0:0:0:0:
32,288,105532,1,0,0:0:0:0:
32,224,105694,1,0,0:0:0:0:
32,160,105856,1,2,0:0:0:0:
32,96,106018,1,2,0:0:0:0:
32,32,106180,1,0,0:0:0:0:
96,32,106342,1,2,0:0:0:0:
160,32,106505,1,4,0:0:0:0:
288,32,106829,1,6,0:0:0:0:
416,32,107153,1,4,0:0:0:0:
416,160,107478,1,6,0:0:0:0:
416,288,107802,1,0,0:0:0:0:
352,288,107964,1,0,0:0:0:0:
288,288,108126,1,6,0:0:0:0:
176,288,108369,1,2,0:0:0:0:
144,288,108451,1,0,0:0:0:0:
32,288,108613,1,0,0:0:0:0:
32,224,108775,1,0,0:0:0:0:
32,160,108937,1,2,0:0:0:0:
416,288,109099,1,0,0:0:0:0:
352,288,109261,1,0,0:0:0:0:
288,288,109423,1,6,0:0:0:0:
176,288,109667,1,2,0:0:0:0:
144,288,109748,1,0,0:0:0:0:
32,288,109910,1,0,0:0:0:0:
32,224,110072,1,0,0:0:0:0:
32,160,110234,1,2,0:0:0:0:
416,288,110396,1,0,0:0:0:0:
352,288,110559,1,0,0:0:0:0:
288,288,110721,1,6,0:0:0:0:
176,288,110964,1,2,0:0:0:0:
144,288,111045,1,0,0:0:0:0:
32,288,111207,1,0,0:0:0:0:
32,224,111369,1,0,0:0:0:0:
32,160,111531,1,2,0:0:0:0:
32,32,111694,1,0,0:0:0:0:
64,32,111775,1,0,0:0:0:0:
96,32,111856,1,0,0:0:0:0:
128,32,111937,1,0,0:0:0:0:
160,32,112018,1,6,0:0:0:0:
224,32,112180,1,6,0:0:0:0:
288,32,112342,1,0,0:0:0:0:
320,32,112423,1,2,0:0:0:0:
352,32,112505,1,0,0:0:0:0:
384,32,112586,1,0,0:0:0:0:
416,32,112667,1,6,0:0:0:0:
480,96,112991,1,6,0:0:0:0:
480,160,113153,1,0,0:0:0:0:
480,224,113315,1,2,0:0:0:0:
480,288,113478,1,0,0:0:0:0:
480,352,113640,1,2,0:0:0:0:
416,352,113802,1,0,0:0:0:0:
352,352,113964,1,2,0:0:0:0:
288,352,114126,1,0,0:0:0:0:
224,352,114288,1,6,0:0:0:0:
160,352,114451,1,0,0:0:0:0:
96,352,114613,1,2,0:0:0:0:
32,352,114775,1,0,0:0:0:0:
32,288,114937,1,2,0:0:0:0:
32,224,115099,1,0,0:0:0:0:
32,160,115261,1,2,0:0:0:0:
32,96,115423,1,0,0:0:0:0:
32,32,115586,1,6,0:0:0:0:
96,32,115748,1,0,0:0:0:0:
160,32,115910,1,2,0:0:0:0:
224,32,116072,1,0,0:0:0:0:
288,32,116234,1,2,0:0:0:0:
352,32,116396,1,0,0:0:0:0:
416,32,116559,1,2,0:0:0:0:
480,32,116721,1,0,0:0:0:0:
32,32,116883,1,2,0:0:0:0:
64,32,116964,1,0,0:0:0:0:
96,32,117045,1,0,0:0:0:0:
128,32,117126,1,0,0:0:0:0:
160,32,117207,1,2,0:0:0:0:
192,32,117288,1,0,0:0:0:0:
224,32,117369,1,0,0:0:0:0:
256,32,117451,1,0,0:0:0:0:
288,32,117532,1,2,0:0:0:0:
320,32,117613,1,0,0:0:0:0:
352,32,117694,1,0,0:0:0:0:
384,32,117775,1,0,0:0:0:0:
416,32,117856,1,2,0:0:0:0:
448,32,117937,1,2,0:0:0:0:
480,32,118018,1,2,0:0:0:0:
480,64,118099,1,2,0:0:0:0:
480,96,118180,1,4,0:0:0:0:
256,192,118342,12,0,123207,0:0:0:0:
32,32,123369,5,4,0:0:0:0:
160,32,123694,1,0,0:0:0:0:
224,32,123856,1,0,0:0:0:0:
288,32,124018,1,2,0:0:0:0:
352,32,124180,1,2,0:0:0:0:
416,32,124342,1,0,0:0:0:0:
480,32,124505,1,2,0:0:0:0:
480,96,124667,1,0,0:0:0:0:
480,224,124991,1,0,0:0:0:0:
480,288,125153,1,0,0:0:0:0:
480,352,125315,1,2,0:0:0:0:
416,352,125478,1,2,0:0:0:0:
352,352,125640,1,0,0:0:0:0:
288,352,125802,1,2,0:0:0:0:
224,352,125964,1,0,0:0:0:0:
96,352,126288,1,0,0:0:0:0:
32,352,126451,1,0,0:0:0:0:
32,288,126613,1,2,0:0:0:0:
32,224,126775,1,0,0:0:0:0:
32,160,126937,1,0,0:0:0:0:
32,96,127099,1,2,0:0:0:0:
32,32,127261,1,2,0:0:0:0:
96,32,127423,1,2,0:0:0:0:
160,32,127586,1,0,0:0:0:0:
224,32,127748,1,0,0:0:0:0:
288,32,127910,1,2,0:0:0:0:
352,32,128072,1,2,0:0:0:0:
416,32,128234,1,0,0:0:0:0:
480,32,128396,1,2,0:0:0:0:
480,96,128559,1,0,0:0:0:0:
480,224,128883,1,0,0:0:0:0:
480,288,129045,1,0,0:0:0:0:
480,352,129207,1,2,0:0:0:0:
416,352,129369,1,0,0:0:0:0:
352,352,129532,1,0,0:0:0:0:
288,352,129694,1,2,0:0:0:0:
224,352,129856,1,0,0:0:0:0:
96,352,130180,1,0,0:0:0:0:
32,352,130342,1,0,0:0:0:0:
32,288,130505,1,2,0:0:0:0:
32,224,130667,1,2,0:0:0:0:
32,160,130829,1,0,0:0:0:0:
32,96,130991,1,2,0:0:0:0:
32,32,131153,1,0,0:0:0:0:
96,32,131315,1,0,0:0:0:0:
160,32,131478,1,0,0:0:0:0:
224,32,131640,1,2,0:0:0:0:
288,32,131802,1,2,0:0:0:0:
352,32,131964,1,2,0:0:0:0:
416,32,132126,1,0,0:0:0:0:
480,32,132288,1,2,0:0:0:0:
480,96,132451,1,0,0:0:0:0:
480,160,132613,1,0,0:0:0:0:
480,224,132775,1,0,0:0:0:0:
480,288,132937,1,2,0:0:0:0:
480,352,133099,1,2,0:0:0:0:
416,352,133261,1,0,0:0:0:0:
352,352,133423,1,0,0:0:0:0:
288,352,133586,1,2,0:0:0:0:
224,352,133748,1,0,0:0:0:0:
96,352,134072,1,0,0:0:0:0:
32,352,134234,1,2,0:0:0:0:
32,288,134396,1,2,0:0:0:0:
32,224,134559,1,2,0:0:0:0:
32,160,134721,1,0,0:0:0:0:
32,96,134883,1,2,0:0:0:0:
32,32,135045,1,0,0:0:0:0:
160,32,135369,1,0,0:0:0:0:
224,32,135532,1,0,0:0:0:0:
288,32,135694,1,2,0:0:0:0:
352,32,135856,1,2,0:0:0:0:
416,32,136018,1,0,0:0:0:0:
480,32,136180,1,2,0:0:0:0:
480,96,136342,1,0,0:0:0:0:
480,224,136667,1,0,0:0:0:0:
480,288,136829,1,0,0:0:0:0:
480,352,136991,1,2,0:0:0:0:
416,352,137153,1,0,0:0:0:0:
352,352,137315,1,0,0:0:0:0:
288,352,137478,1,2,0:0:0:0:
224,352,137640,1,0,0:0:0:0:
160,352,137802,1,0,0:0:0:0:
96,352,137964,1,0,0:0:0:0:
32,352,138126,1,2,0:0:0:0:
32,288,138288,1,2,0:0:0:0:
32,224,138451,1,0,0:0:0:0:
32,160,138613,1,0,0:0:0:0:
32,96,138775,1,2,0:0:0:0:
32,32,138937,1,0,0:0:0:0:
96,32,139099,1,0,0:0:0:0:
160,32,139261,1,2,0:0:0:0:
32,32,139586,1,6,0:0:0:0:
288,160,140072,1,0,0:0:0:0:
224,160,140234,1,0,0:0:0:0:
160,160,140396,1,0,0:0:0:0:
96,160,140559,1,2,0:0:0:0:
480,32,140883,1,4,0:0:0:0:
384,192,141207,1,0,0:0:0:0:
320,192,141369,1,0,0:0:0:0:
256,192,141532,1,6,0:0:0:0:
192,192,141694,1,0,0:0:0:0:
128,192,141856,1,0,0:0:0:0:
480,352,142180,1,4,0:0:0:0:
416,352,142342,1,0,0:0:0:0:
352,352,142505,1,0,0:0:0:0:
288,352,142667,1,0,0:0:0:0:
224,352,142829,1,2,0:0:0:0:
160,352,142991,1,2,0:0:0:0:
96,352,143153,1,0,0:0:0:0:
96,288,143315,1,2,0:0:0:0:
32,352,143478,1,4,0:0:0:0:
256,128,143964,1,0,0:0:0:0:
256,192,144126,1,6,0:0:0:0:
256,256,144288,1,0,0:0:0:0:
256,320,144451,1,0,0:0:0:0:
32,32,144775,1,4,0:0:0:0:
96,32,144937,1,0,0:0:0:0:
432,160,145261,1,0,0:0:0:0:
368,160,145423,1,0,0:0:0:0:
304,160,145586,1,2,0:0:0:0:
240,160,145748,1,2,0:0:0:0:
480,32,146072,1,4,0:0:0:0:
256,128,146559,1,0,0:0:0:0:
256,192,146721,1,6,0:0:0:0:
256,256,146883,1,0,0:0:0:0:
256,320,147045,1,0,0:0:0:0:
480,352,147369,1,4,0:0:0:0:
480,288,147532,1,0,0:0:0:0:
480,224,147694,1,0,0:0:0:0:
480,160,147856,1,2,0:0:0:0:
480,96,148018,1,2,0:0:0:0:
480,32,148180,1,0,0:0:0:0:
416,32,148342,1,2,0:0:0:0:
352,32,148505,1,0,0:0:0:0:
32,352,148667,1,4,0:0:0:0:
32,224,148829,1,2,0:0:0:0:
32,160,148991,1,2,0:0:0:0:
32,96,149153,1,2,0:0:0:0:
32,32,149315,1,4,0:0:0:0:
160,32,149640,1,4,0:0:0:0:
288,32,149964,1,4,0:0:0:0:
352,32,150126,1,2,0:0:0:0:
416,32,150288,1,4,0:0:0:0:
480,32,150451,1,2,0:0:0:0:
480,96,150613,1,4,0:0:0:0:
480,224,150937,1,4,0:0:0:0:
480,352,151261,1,4,0:0:0:0:
416,352,151423,1,2,0:0:0:0:
352,352,151586,1,4,0:0:0:0:
288,352,151748,1,2,0:0:0:0:
224,352,151910,1,4,0:0:0:0:
96,352,152235,1,4,0:0:0:0:
32,288,152559,1,4,0:0:0:0:
32,224,152721,1,2,0:0:0:0:
32,160,152883,1,4,0:0:0:0:
32,96,153045,1,2,0:0:0:0:
32,32,153207,1,4,0:0:0:0:
160,32,153532,1,4,0:0:0:0:
224,32,153694,1,2,0:0:0:0:
288,32,153856,1,4,0:0:0:0:
352,32,154018,1,2,0:0:0:0:
416,32,154181,1,4,0:0:0:0:
480,32,154342,1,2,0:0:0:0:
480,96,154505,1,4,0:0:0:0:
480,224,154830,1,4,0:0:0:0:
480,352,155153,1,4,0:0:0:0:
416,352,155315,1,2,0:0:0:0:
352,352,155478,1,4,0:0:0:0:
288,352,155640,1,2,0:0:0:0:
224,352,155802,1,4,0:0:0:0:
96,352,156127,1,4,0:0:0:0:
32,352,156288,1,2,0:0:0:0:
32,288,156451,1,4,0:0:0:0:
32,160,156775,1,4,0:0:0:0:
32,96,156937,1,2,0:0:0:0:
32,32,157099,1,4,0:0:0:0:
160,32,157424,1,4,0:0:0:0:
288,32,157748,1,4,0:0:0:0:
352,32,157910,1,2,0:0:0:0:
416,32,158073,1,4,0:0:0:0:
480,32,158234,1,2,0:0:0:0:
480,96,158396,1,4,0:0:0:0:
480,160,158559,1,6,0:0:0:0:
480,224,158721,1,6,0:0:0:0:
480,288,158883,1,6,0:0:0:0:
32,32,160018,1,4,0:0:0:0:
96,32,160180,1,4,0:0:0:0:
224,192,160505,1,0,0:0:0:0:
256,192,160586,1,0,0:0:0:0:
288,192,160667,1,6,0:0:0:0:
32,96,161153,1,0,0:0:0:0:
64,96,161234,1,0,0:0:0:0:
96,96,161315,1,0,0:0:0:0:
160,96,161478,1,4,0:0:0:0:
288,96,161802,1,4,0:0:0:0:
416,96,162126,1,4,0:0:0:0:
32,32,162613,1,4,0:0:0:0:
96,32,162775,1,4,0:0:0:0:
32,96,163748,1,0,0:0:0:0:
64,96,163829,1,0,0:0:0:0:
96,96,163910,1,0,0:0:0:0:
160,96,164072,1,6,0:0:0:0:
288,96,164396,1,4,0:0:0:0:
416,96,164721,1,6,0:0:0:0:
32,32,165207,1,4,0:0:0:0:
96,32,165369,1,4,0:0:0:0:
32,96,166342,1,0,0:0:0:0:
64,96,166423,1,0,0:0:0:0:
96,96,166504,1,0,0:0:0:0:
160,96,166667,1,4,0:0:0:0:
288,96,166991,1,4,0:0:0:0:
416,96,167315,1,4,0:0:0:0:
32,32,167802,1,4,0:0:0:0:
96,32,167964,1,4,0:0:0:0:
32,96,168937,1,0,0:0:0:0:
64,96,169018,1,0,0:0:0:0:
96,96,169099,1,0,0:0:0:0:
160,96,169261,1,6,0:0:0:0:
288,96,169585,1,4,0:0:0:0:
416,96,169910,1,6,0:0:0:0:
32,32,170396,1,4,0:0:0:0:
96,32,170558,1,4,0:0:0:0:
160,32,170721,1,2,0:0:0:0:
224,32,170883,1,2,0:0:0:0:
288,32,171045,1,2,0:0:0:0:
352,32,171207,1,0,0:0:0:0:
416,32,171369,1,2,0:0:0:0:
32,96,171531,1,0,0:0:0:0:
64,96,171612,1,0,0:0:0:0:
96,96,171693,1,0,0:0:0:0:
160,96,171856,1,4,0:0:0:0:
224,96,172018,1,2,0:0:0:0:
288,96,172180,1,4,0:0:0:0:
352,96,172342,1,2,0:0:0:0:
416,96,172504,1,4,0:0:0:0:
32,160,172667,1,2,0:0:0:0:
32,96,172829,1,2,0:0:0:0:
32,32,172991,1,4,0:0:0:0:
96,32,173153,1,4,0:0:0:0:
160,32,173315,1,2,0:0:0:0:
224,32,173478,1,0,0:0:0:0:
288,32,173640,1,2,0:0:0:0:
352,32,173802,1,0,0:0:0:0:
416,32,173964,1,2,0:0:0:0:
32,96,174126,1,0,0:0:0:0:
64,96,174207,1,0,0:0:0:0:
96,96,174288,1,0,0:0:0:0:
160,96,174450,1,6,0:0:0:0:
224,96,174613,1,0,0:0:0:0:
288,96,174774,1,4,0:0:0:0:
352,96,174937,1,0,0:0:0:0:
416,96,175099,1,6,0:0:0:0:
32,32,175586,1,4,0:0:0:0:
96,32,175748,1,4,0:0:0:0:
160,32,175911,1,2,0:0:0:0:
224,32,176073,1,2,0:0:0:0:
288,32,176235,1,2,0:0:0:0:
352,32,176397,1,0,0:0:0:0:
416,32,176559,1,2,0:0:0:0:
32,96,176721,1,0,0:0:0:0:
64,96,176802,1,0,0:0:0:0:
96,96,176883,1,0,0:0:0:0:
160,96,177046,1,4,0:0:0:0:
224,96,177208,1,2,0:0:0:0:
288,96,177370,1,4,0:0:0:0:
352,96,177532,1,2,0:0:0:0:
416,96,177694,1,4,0:0:0:0:
32,160,177857,1,2,0:0:0:0:
32,96,178019,1,2,0:0:0:0:
32,32,178181,1,4,0:0:0:0:
96,32,178343,1,4,0:0:0:0:
160,32,178505,1,2,0:0:0:0:
224,32,178668,1,0,0:0:0:0:
288,32,178830,1,2,0:0:0:0:
352,32,178992,1,0,0:0:0:0:
416,32,179154,1,2,0:0:0:0:
32,96,179316,1,0,0:0:0:0:
64,96,179397,1,0,0:0:0:0:
96,96,179478,1,0,0:0:0:0:
160,96,179640,1,6,0:0:0:0:
224,96,179803,1,0,0:0:0:0:
288,96,179964,1,4,0:0:0:0:
352,96,180127,1,0,0:0:0:0:
416,96,180289,1,6,0:0:0:0:
416,288,180775,1,4,0:0:0:0:
256,192,180937,12,0,189532,0:0:0:0:
