osu file format v14

[General]
AudioFilename: audio.mp3
AudioLeadIn: 0
PreviewTime: 445976
Countdown: 0
SampleSet: Soft
StackLeniency: 0.6
Mode: 0
LetterboxInBreaks: 0
WidescreenStoryboard: 1

[Editor]
Bookmarks: 741010
DistanceSpacing: 0.8
BeatDivisor: 3
GridSize: 8
TimelineZoom: 2

[Metadata]
Title:Haikyuu!! Opening Song Mix
TitleUnicode:Haikyuu!! Opening Song Mix
Artist:Melodic Star
ArtistUnicode:Melodic Star
Creator:Skeep
Version:cringe
Source:ハイキュー!!
Tags:SPYAIR, BURNOUT SYNDROMES, haikyu!!, haikyuu!!, Imagination, イマジネーション, I'm a Believer, アイム・ア・ビリーバー, FLY HIGH!!, Hikari Are, ヒカリアレ, anime opening, sports, volleyball, n00dle, yoshino--, retard
BeatmapID:1258632
BeatmapSetID:595154

[Difficulty]
HPDrainRate:5
CircleSize:4
OverallDifficulty:9.2
ApproachRate:9.6
SliderMultiplier:1.8
SliderTickRate:1

[Events]
//Background and Video events
0,0,"wdwaeqwrewrasegseag.png",0,0
//Break Periods
2,172417,175561
2,387815,390844
2,556652,566102
2,630144,643422
2,785673,795951
//Storyboard Layer 0 (Background)
//Storyboard Layer 1 (Fail)
//Storyboard Layer 2 (Pass)
//Storyboard Layer 3 (Foreground)
//Storyboard Layer 4 (Overlay)
//Storyboard Sound Samples

[TimingPoints]
453,294.117647058824,4,2,0,100,1,0
5747,-133.333333333333,4,2,0,100,0,0
7658,-100,4,2,0,100,0,0
7953,-133.333333333333,4,2,0,100,0,0
8394,-117.647058823529,4,2,0,100,0,0
10011,-100,4,2,0,100,0,0
10453,-133.333333333333,4,2,0,100,0,0
11188,-100,4,2,0,100,0,0
11629,-133.333333333333,4,2,0,100,0,0
12364,-100,4,2,0,100,0,0
12658,-133.333333333333,4,2,0,100,0,0
14717,-111.111111111111,4,2,0,100,0,0
15011,-133.333333333333,4,2,0,100,0,0
15453,-117.647058823529,4,2,0,100,0,0
16335,-133.333333333333,4,2,0,100,0,0
17070,-111.111111111111,4,2,0,100,0,0
17364,-133.333333333333,4,2,0,100,0,0
17805,-117.647058823529,4,2,0,100,0,0
18835,-133.333333333333,4,2,0,100,0,0
19423,-111.111111111111,4,2,0,100,0,0
19864,-133.333333333333,4,2,0,100,0,0
20600,-111.111111111111,4,2,0,100,0,0
21041,-133.333333333333,4,2,0,100,0,0
21776,-111.111111111111,4,2,0,100,0,0
22217,-133.333333333333,4,2,0,100,0,0
24129,-200,4,2,0,100,0,0
28835,-142.857142857143,4,2,0,100,0,0
29717,-200,4,2,0,100,0,0
31408,-133.333333333333,4,2,0,100,0,0
32364,-100,4,2,0,100,0,0
34717,-100,4,2,0,100,0,0
35747,-100,4,2,0,100,0,1
55600,-133.333333333333,4,2,0,100,0,0
55894,-200,4,2,0,100,0,0
57070,-111.111111111111,4,2,0,100,0,0
57364,-133.333333333333,4,2,0,100,0,0
61776,-111.111111111111,4,2,0,100,0,0
62070,-133.333333333333,4,2,0,100,0,0
62805,-200,4,2,0,100,0,0
63541,-133.333333333333,4,2,0,100,0,0
64129,-125,4,2,0,100,0,0
64423,-133.333333333333,4,2,0,100,0,0
65158,-200,4,2,0,100,0,0
65894,-133.333333333333,4,2,0,100,0,0
66482,-125,4,2,0,100,0,0
66923,-133.333333333333,4,2,0,100,0,0
67658,-125,4,2,0,100,0,0
68100,-133.333333333333,4,2,0,100,0,0
68835,-125,4,2,0,100,0,0
69276,-133.333333333333,4,2,0,100,0,0
71188,-125,4,2,0,100,0,0
71629,-133.333333333333,4,2,0,100,0,0
73541,-125,4,2,0,100,0,0
73835,-133.333333333333,4,2,0,100,0,0
75894,-125,4,2,0,100,0,0
76335,-133.333333333333,4,2,0,100,0,0
77070,-125,4,2,0,100,0,0
77511,-133.333333333333,4,2,0,100,0,0
78247,-125,4,2,0,100,0,0
78688,-133.333333333333,4,2,0,100,0,0
79423,-125,4,2,0,100,0,0
79717,-133.333333333333,4,2,0,100,0,0
80600,-166.666666666667,4,2,0,100,0,0
81482,-200,4,2,0,100,0,0
85305,-166.666666666667,4,2,0,100,0,0
86188,-200,4,2,0,100,0,0
87658,-133.333333333333,4,2,0,100,0,0
88982,-100,4,2,0,100,0,0
92217,-100,4,2,0,100,0,1
112364,-200,4,2,0,100,0,0
118100,-166.666666666667,4,2,0,100,0,0
118541,-200,4,2,0,100,0,0
120600,-200,4,2,0,100,0,0
122953,-100,4,2,0,100,0,0
123835,-133.333333333333,4,2,0,100,0,0
125305,-100,4,2,0,100,0,0
127511,-100,4,2,0,100,0,1
135011,-90.9090909090909,4,2,0,100,0,1
136923,-83.3333333333333,4,2,0,100,0,1
138100,-90.9090909090909,4,2,0,100,0,1
139276,-76.9230769230769,4,2,0,100,0,1
140453,-95.2380952380952,4,2,0,100,0,1
141629,-90.9090909090909,4,2,0,100,0,1
145305,-100,4,2,0,100,0,0
145894,-133.333333333333,4,2,0,100,0,0
146335,-100,4,2,0,100,0,0
146776,-133.333333333333,4,2,0,100,0,0
147511,-100,4,2,0,100,0,0
147953,-133.333333333333,4,2,0,100,0,0
148688,-100,4,2,0,100,0,0
148982,-133.333333333333,4,2,0,100,0,0
149864,-100,4,2,0,100,0,0
150158,-133.333333333333,4,2,0,100,0,0
151041,-117.647058823529,4,2,0,100,0,0
151482,-133.333333333333,4,2,0,100,0,0
152217,-117.647058823529,4,2,0,100,0,0
152658,-133.333333333333,4,2,0,100,0,0
153394,-117.647058823529,4,2,0,100,0,0
153688,-133.333333333333,4,2,0,100,0,0
154570,-117.647058823529,4,2,0,100,0,0
154864,-133.333333333333,4,2,0,100,0,0
155747,-100,4,2,0,100,0,1
166482,-200,4,2,0,100,0,0
167658,-100,4,2,0,100,0,0
171188,-200,4,2,0,100,0,0
172217,-100,4,2,0,100,0,0
176070,309.278350515464,4,2,0,100,1,0
178466,-100,4,2,0,5,0,0
178544,-100,4,2,0,100,0,0
180941,-100,4,2,0,5,0,0
181018,-100,4,2,0,100,0,0
183415,-100,4,2,0,5,0,0
183492,-100,4,2,0,100,0,0
185966,-125,4,2,0,100,0,0
195863,-100,4,2,0,100,0,0
211946,-83.3333333333333,4,2,0,100,0,0
215502,-71.4285714285715,4,2,0,100,0,1
235142,-133.333333333333,4,2,0,100,0,1
235451,-66.6666666666667,4,2,0,100,0,0
235760,-100,4,2,0,100,0,0
237616,-133.333333333333,4,2,0,100,0,0
237925,-66.6666666666667,4,2,0,100,0,0
238234,-100,4,2,0,100,0,0
240090,-133.333333333333,4,2,0,100,0,0
240399,-66.6666666666667,4,2,0,100,0,0
240709,-100,4,2,0,100,0,0
242874,-71.4285714285714,4,2,0,100,0,1
247822,-100,4,2,0,100,0,0
278750,-83.3333333333333,4,2,0,100,0,0
282307,-71.4285714285714,4,2,0,100,0,1
301946,-133.333333333333,4,2,0,100,0,1
302255,-66.6666666666667,4,2,0,100,0,0
302564,-100,4,2,0,100,0,0
304420,-133.333333333333,4,2,0,100,0,0
304729,-66.6666666666667,4,2,0,100,0,0
305039,-100,4,2,0,100,0,0
306894,-133.333333333333,4,2,0,100,0,0
307204,-66.6666666666667,4,2,0,100,0,0
307513,-100,4,2,0,100,0,0
309678,-71.4285714285714,4,2,0,100,0,1
313389,-100,4,2,0,100,0,0
315554,-66.6666666666667,4,2,0,100,0,0
315631,-100,4,2,0,5,0,0
315709,-83.3333333333333,4,2,0,100,0,1
315786,-83.3333333333333,4,2,0,100,0,0
323286,-83.3333333333333,4,2,0,100,0,1
324446,-83.3333333333333,4,2,0,100,0,0
324523,-83.3333333333333,4,2,0,100,0,1
324600,-83.3333333333333,4,2,0,100,0,0
325142,-83.3333333333333,4,2,0,100,0,1
325219,-83.3333333333333,4,2,0,100,0,0
325760,-100,4,2,0,100,0,1
325838,-100,4,2,0,100,0,0
340451,-71.4285714285714,4,2,0,100,0,1
360090,-133.333333333333,4,2,0,100,0,1
360399,-66.6666666666667,4,2,0,100,0,0
360709,-100,4,2,0,100,0,0
362564,-133.333333333333,4,2,0,100,0,0
362874,-66.6666666666667,4,2,0,100,0,0
363183,-100,4,2,0,100,0,0
365039,-133.333333333333,4,2,0,100,0,0
365348,-66.6666666666667,4,2,0,100,0,0
365657,-100,4,2,0,100,0,0
367822,-71.4285714285714,4,2,0,100,0,1
371533,-100,4,2,0,100,0,0
372771,-71.4285714285714,4,2,0,100,0,1
377719,-100,4,2,0,100,0,0
380116,-100,4,2,0,5,0,0
380193,-100,4,2,0,100,0,0
382590,-100,4,2,0,5,0,0
382667,-100,4,2,0,100,0,0
385064,-100,4,2,0,5,0,0
385142,-100,4,2,0,100,0,0
387075,-100,4,2,0,5,0,0
387152,-100,4,2,0,100,0,0
387616,-100,4,2,0,5,0,0
391373,317.460317460317,4,2,0,100,1,0
391531,-200,4,2,0,100,0,0
394388,-166.666666666667,4,2,0,100,0,0
395182,-200,4,2,0,100,0,0
401531,-100,4,2,0,100,0,0
404547,-90.9090909090909,4,2,0,100,0,0
405817,-83.3333333333333,4,2,0,100,0,0
407087,-100,4,2,0,100,0,0
409785,-100,4,2,0,5,0,0
409891,-100,4,2,0,100,0,0
410499,-133.333333333333,4,2,0,100,0,0
412404,-200,4,2,0,100,0,0
420261,-166.666666666667,4,2,0,100,0,0
420579,-142.857142857143,4,2,0,100,0,0
420896,-125,4,2,0,100,0,0
421214,-111.111111111111,4,2,0,100,0,0
422801,-200,4,2,0,100,0,0
432642,-133.333333333333,4,2,0,100,0,0
441531,-117.647058823529,4,2,0,100,0,0
442804,-100,4,2,0,100,0,0
444706,-100,4,2,0,100,0,0
446452,-100,4,2,0,100,0,1
477087,-200,4,2,0,100,0,0
483436,-166.666666666667,4,2,0,100,0,0
484071,-142.857142857143,4,2,0,100,0,0
485023,-125,4,2,0,100,0,0
485341,-111.111111111111,4,2,0,100,0,0
485658,-100,4,2,0,100,0,0
485976,-90.9090909090909,4,2,0,100,0,0
486293,-83.3333333333333,4,2,0,100,0,0
486611,-200,4,2,0,100,0,0
497404,-133.333333333333,4,2,0,100,0,0
505658,-125,4,2,0,100,0,0
506293,-111.111111111111,4,2,0,100,0,0
506928,-100,4,2,0,100,0,0
510579,-100,4,2,0,100,0,1
555658,-133.333333333333,4,2,0,100,0,0
556452,-100,4,2,0,100,0,0
566611,-200,4,2,0,100,0,0
586928,-133.333333333333,4,2,0,100,0,0
596452,-100,4,2,0,100,0,0
596928,-100,4,2,0,100,0,1
630420,-100,4,2,0,100,0,0
633314,337.078651685393,4,2,0,100,1,0
643931,-200,4,2,0,100,0,0
663482,-133.333333333333,4,2,0,100,0,0
664325,-100,4,2,0,100,0,0
676460,-100,4,2,0,100,0,1
696684,-80,4,2,0,100,0,1
697696,-100,4,2,0,100,0,1
735448,-90.9090909090909,4,2,0,100,0,1
735954,-83.3333333333333,4,2,0,100,0,1
736460,-100,4,2,0,100,0,1
740673,-66.6666666666667,4,2,0,100,0,1
741853,-100,4,2,0,100,0,1
753313,-133.333333333333,4,2,0,100,0,0
763931,-200,4,2,0,100,0,0
796460,-133.333333333333,4,2,0,100,0,0
808594,-100,4,2,0,100,0,0
809943,-100,4,2,0,100,0,1
830167,-83.3333333333333,4,2,0,100,0,1
831179,-100,4,2,0,100,0,1
872134,-100,4,2,0,100,0,0

[HitObjects]
343,133,453,5,0,0:0:0:0:
343,133,526,1,0,0:0:0:0:
343,133,649,2,0,P|384:181|384:222,1,60
231,279,894,6,0,P|183:239|180:188,1,90
207,83,1188,1,0,0:0:0:0:
249,211,1335,1,0,0:0:0:0:
315,68,1482,1,0,0:0:0:0:
210,153,1629,6,0,P|157:134|141:95,1,90
30,30,1923,1,0,0:0:0:0:
48,163,2070,1,0,0:0:0:0:
316,137,2364,5,0,0:0:0:0:
278,266,2511,1,0,0:0:0:0:
375,171,2658,5,0,0:0:0:0:
397,303,2805,1,0,0:0:0:0:
303,204,2953,6,0,P|258:175|252:126,1,90
312,22,3247,1,0,0:0:0:0:
57,110,3541,5,0,0:0:0:0:
16,238,3688,1,0,0:0:0:0:
115,146,3835,5,0,0:0:0:0:
131,279,3982,2,0,P|89:338|49:344,1,90
16,238,4276,5,0,0:0:0:0:
115,146,4423,1,0,0:0:0:0:
276,226,4717,5,0,0:0:0:0:
242,142,4864,1,0,0:0:0:0:
324,177,5011,5,0,0:0:0:0:
343,89,5158,1,0,0:0:0:0:
248,56,5305,6,0,B|231:96|231:96|249:173,1,90
324,248,5600,5,0,0:0:0:0:
403,143,5747,2,0,P|412:102|403:52,1,67.5000025749208
294,11,6041,2,0,P|284:49|293:99,1,67.5000025749208
324,248,6335,2,0,P|383:191|406:133,1,135.000005149842
60,145,6923,6,0,P|120:129|196:149,1,135.000005149842
329,197,7364,2,0,P|269:213|237:205,1,67.5000025749208
74,223,7658,6,0,B|46:187|46:187|68:120,1,90
133,30,7953,1,0,0:0:0:0:
189,145,8100,2,0,L|173:219,1,67.5000025749208
88,294,8394,2,0,P|70:250|78:211,1,76.5000014591217
189,145,8688,2,0,P|207:101|172:3,1,153.000002918243
372,126,9423,6,0,P|358:165|371:203,1,67.5000025749208
473,270,9717,2,0,P|487:231|474:193,1,67.5000025749208
363,189,10011,6,0,B|343:286|343:286|389:365,1,180
473,270,10453,6,0,P|487:231|460:139,1,135.000005149842
355,64,10894,2,0,P|341:103|354:141,1,67.5000025749208
356,315,11188,6,0,B|477:343|477:343|531:323,1,180
463,143,11629,6,0,P|433:114|332:149,1,135.000005149842
279,243,12070,5,0,0:0:0:0:
399,181,12217,1,0,0:0:0:0:
233,162,12364,6,0,B|195:194|195:194|186:250,1,90
215,366,12658,5,0,0:0:0:0:
279,243,12805,2,0,P|315:202|316:163,1,67.5000025749208
300,56,13100,2,0,P|238:56|214:71,1,67.5000025749208
127,140,13394,1,0,0:0:0:0:
279,243,13541,5,0,0:0:0:0:
377,106,13688,1,0,0:0:0:0:
252,219,13835,1,0,0:0:0:0:
234,57,13982,1,0,0:0:0:0:
399,181,14129,5,0,0:0:0:0:
459,306,14276,1,0,0:0:0:0:
252,219,14423,1,0,0:0:0:0:
252,219,14717,6,0,B|211:234|211:234|181:299,1,80.9999975280763
329,369,15011,1,0,0:0:0:0:
331,196,15158,2,0,L|288:137,1,67.5000025749208
174,17,15453,6,0,P|142:38|126:77,1,76.5000014591217
95,228,15747,2,0,P|182:168|196:121,1,153.000002918243
300,13,16188,5,0,0:0:0:0:
408,81,16335,6,0,P|340:19|277:17,1,135.000005149842
155,75,16776,2,0,P|197:128|220:134,1,67.5000025749208
271,247,17070,6,0,B|304:216|304:216|323:152,1,80.9999975280763
300,13,17364,1,0,0:0:0:0:
155,75,17511,2,0,L|104:148,1,67.5000025749208
232,309,17805,6,0,P|262:279|271:246,1,76.5000014591217
263,108,18100,2,0,P|213:153|198:262,1,153.000002918243
334,362,18541,5,0,0:0:0:0:
270,246,18688,1,0,0:0:0:0:
131,342,18835,2,0,P|102:314|100:272,1,67.5000025749208
99,119,19129,2,0,P|128:147|130:189,1,67.5000025749208
270,246,19423,6,0,B|339:205|339:205|403:109,1,161.999995056153
234,27,19864,6,0,P|245:113|287:155,1,135.000005149842
436,196,20305,1,0,0:0:0:0:
320,71,20453,1,0,0:0:0:0:
156,37,20600,2,0,B|137:118|137:118|191:180,1,161.999995056153
250,294,21041,2,0,P|303:246|326:164,1,135.000005149842
386,76,21482,2,0,P|338:56|303:65,1,67.5000025749208
194,154,21776,6,0,B|175:76|175:76|207:0,1,161.999995056153
323,57,22217,2,0,P|337:143|310:217,1,135.000005149842
225,279,22658,2,0,P|209:215|219:196,1,67.5000025749208
235,83,22953,2,0,B|199:76|199:76|150:92,1,67.5000025749208
90,194,23247,6,0,P|56:160|55:128,1,67.5000025749208
132,34,23541,2,0,P|166:68|167:100,1,67.5000025749208
152,253,23835,1,0,0:0:0:0:
99,92,23982,1,0,0:0:0:0:
230,136,24129,6,0,B|241:102|241:102|233:41,1,90
99,92,24570,2,0,B|73:137|73:137|90:193,1,90
108,309,25011,2,0,P|139:308|159:289,1,45
198,199,25305,5,0,0:0:0:0:
198,199,25453,2,0,P|186:175|181:146,1,45
286,269,25747,5,0,0:0:0:0:
286,269,25894,2,0,P|298:293|303:322,1,45
322,162,26188,5,0,0:0:0:0:
322,162,26335,2,0,P|310:138|305:109,1,45
417,287,26776,6,0,P|417:253|410:230,1,45
322,162,27070,2,0,P|322:196|329:219,1,45
347,316,27364,2,0,P|363:339|392:354,1,45
488,338,27658,2,0,P|493:304|490:274,1,45
419,197,27953,2,0,P|414:231|417:261,1,45
376,348,28247,2,0,B|344:345|287:360|287:360|266:337|253:318,1,135
67,290,28835,6,0,B|96:229|96:229|157:193,1,125.999996154785
207,270,29276,2,0,B|257:240|257:240|286:179,1,125.999996154785
439,165,29717,2,0,P|437:117|431:104,1,45
326,108,30011,5,0,0:0:0:0:
326,108,30158,2,0,P|328:156|334:169,1,45
361,260,30453,5,0,0:0:0:0:
361,260,30600,2,0,P|363:212|369:199,1,45
434,116,30894,5,0,0:0:0:0:
438,120,31041,2,0,P|436:168|430:181,1,45
314,327,31408,6,0,P|281:289|272:232,1,101.250003862381
289,98,31776,2,0,P|322:136|327:182,1,67.5000025749208
314,327,32070,2,0,P|259:342|226:328,1,67.5000025749208
88,262,32364,5,0,0:0:0:0:
145,72,32511,1,0,0:0:0:0:
189,283,32658,1,0,0:0:0:0:
26,115,32805,1,0,0:0:0:0:
276,156,32953,1,0,0:0:0:0:
10,205,33100,5,0,0:0:0:0:
248,43,33247,1,0,0:0:0:0:
73,293,33394,1,0,0:0:0:0:
262,19,33541,6,0,P|281:222|271:21,1,630
511,85,34717,5,0,0:0:0:0:
243,120,34864,1,0,0:0:0:0:
423,320,35011,1,0,0:0:0:0:
84,104,35305,5,0,0:0:0:0:
240,268,35453,2,0,P|286:222|292:178,1,90
205,75,35747,6,0,B|202:210|202:210|226:170,1,180
426,176,36188,2,0,B|426:109|426:109|409:124,1,90
451,286,36482,5,0,0:0:0:0:
344,87,36629,2,0,P|329:129|363:188,1,90
225,362,36923,6,0,B|227:235|227:235|261:283,1,180
469,226,37364,2,0,B|465:297|465:297|441:278,1,90
225,362,37658,5,0,0:0:0:0:
395,215,37805,2,0,P|418:167|452:151,1,90
459,377,38100,6,0,P|410:323|412:296,1,90
264,217,38394,2,0,P|277:175|314:151,1,90
427,49,38688,2,0,P|463:73|476:115,1,90
264,217,38982,2,0,P|211:231|174:217,1,90
395,158,39276,2,0,P|410:217|390:280,1,90
315,384,39570,2,0,P|300:325|339:203,1,180
249,3,40011,5,0,0:0:0:0:
395,158,40158,2,0,P|410:217|390:280,1,90
248,141,40453,6,0,B|248:7|248:7|286:65,1,180
405,245,40894,2,0,B|404:322|404:322|379:301,1,90
459,98,41188,5,0,0:0:0:0:
331,283,41335,2,0,P|324:340|341:368,1,90
274,150,41629,6,0,B|272:20|272:20|309:80,1,180
459,98,42070,2,0,B|457:168|457:168|422:139,1,90
272,21,42364,5,0,0:0:0:0:
205,199,42511,2,0,P|253:234|290:236,1,90
107,95,42805,6,0,P|56:148|50:198,1,90
108,314,43100,2,0,P|67:331|22:329,1,90
51,161,43394,2,0,P|91:143|136:145,1,90
355,194,43688,2,0,P|374:127|364:101,1,90
136,145,43982,2,0,P|103:211|115:329,1,180
237,130,44423,5,0,0:0:0:0:
186,349,44570,1,0,0:0:0:0:
101,140,44717,5,0,0:0:0:0:
298,246,44864,1,0,0:0:0:0:
74,274,45011,1,0,0:0:0:0:
237,130,45158,6,0,B|236:3|236:3|281:73,1,180
475,130,45600,2,0,B|473:199|473:199|443:172,1,90
264,47,45894,5,0,0:0:0:0:
209,247,46041,2,0,P|246:254|306:241,1,90
88,160,46335,6,0,B|92:26|92:26|121:71,1,180
314,187,46776,2,0,B|312:257|312:257|285:234,1,90
116,64,47070,5,0,0:0:0:0:
215,247,47217,2,0,P|239:303|275:324,1,90
202,49,47511,6,0,P|141:51|86:92,1,90
0,136,47805,2,0,P|21:175|57:202,1,90
261,318,48100,2,0,P|283:252|278:199,1,90
327,11,48394,2,0,P|266:13|211:54,1,90
39,124,48688,2,0,P|49:197|71:213,1,90
233,345,48982,2,0,P|231:272|164:178,1,180
2,38,49423,5,0,0:0:0:0:
96,242,49570,1,0,0:0:0:0:
169,29,49717,1,0,0:0:0:0:
173,184,49864,6,0,P|189:250|178:278,1,90
60,93,50158,2,0,P|43:51|50:8,1,90
273,43,50453,2,0,P|316:31|358:45,1,90
504,216,50747,2,0,P|486:257|450:282,1,90
234,344,51041,2,0,P|222:300|236:258,1,90
173,42,51335,2,0,P|214:25|258:33,1,90
486,97,51629,2,0,P|471:138|436:166,1,90
236,258,51923,2,0,P|210:221|207:177,1,90
386,312,52217,5,0,0:0:0:0:
289,108,52364,1,0,0:0:0:0:
127,264,52511,1,0,0:0:0:0:
347,218,52658,1,0,0:0:0:0:
143,122,52805,1,0,0:0:0:0:
271,330,52953,5,0,0:0:0:0:
216,93,53100,1,0,0:0:0:0:
12,226,53247,1,0,0:0:0:0:
276,193,53394,1,0,0:0:0:0:
78,363,53541,5,0,0:0:0:0:
195,130,53688,1,0,0:0:0:0:
283,375,53835,1,0,0:0:0:0:
104,184,53982,1,0,0:0:0:0:
377,236,54129,5,0,0:0:0:0:
98,380,54276,1,0,0:0:0:0:
197,119,54423,1,0,0:0:0:0:
358,346,54570,1,0,0:0:0:0:
81,238,54717,5,0,0:0:0:0:
315,56,54864,1,0,0:0:0:0:
261,348,55011,1,0,0:0:0:0:
75,191,55158,5,0,0:0:0:0:
348,75,55305,1,0,0:0:0:0:
220,343,55452,1,0,0:0:0:0:
82,141,55600,2,0,P|116:170|125:196,1,67.5000025749208
262,348,55894,6,0,P|332:332|385:280,1,135
404,205,56482,2,0,P|333:220|280:272,1,135
164,312,57070,6,0,B|147:273|147:273|164:236,1,80.9999975280763
287,260,57364,2,0,B|303:224|303:224|287:188,1,67.5000025749208
200,98,57658,5,0,0:0:0:0:
106,195,57805,1,0,0:0:0:0:
287,260,57953,1,0,0:0:0:0:
270,126,58100,2,0,P|268:73|253:45,1,67.5000025749208
127,63,58394,5,0,0:0:0:0:
56,177,58541,1,0,0:0:0:0:
303,285,58835,5,0,0:0:0:0:
359,162,58982,1,0,0:0:0:0:
377,295,59129,5,0,0:0:0:0:
292,189,59276,1,0,0:0:0:0:
208,42,59423,5,0,0:0:0:0:
136,194,59570,1,0,0:0:0:0:
69,38,59717,5,0,0:0:0:0:
206,135,59864,1,0,0:0:0:0:
37,138,60011,5,0,0:0:0:0:
205,135,60158,1,0,0:0:0:0:
127,284,60305,5,0,0:0:0:0:
283,230,60453,2,0,P|314:192|316:143,1,67.5000025749208
308,0,60747,5,0,0:0:0:0:
205,135,60894,2,0,P|174:173|172:222,1,67.5000025749208
259,384,61188,5,0,0:0:0:0:
283,230,61335,1,0,0:0:0:0:
127,284,61482,2,0,P|105:239|109:194,1,67.5000025749208
126,55,61776,6,0,B|171:50|171:50|224:81,1,80.9999975280763
283,230,62070,1,0,0:0:0:0:
343,0,62217,2,0,P|335:62|320:82,1,67.5000025749208
216,256,62511,6,0,B|195:233|195:233|218:171,1,67.5000025749208
333,65,62805,2,0,B|339:127|339:127|274:248,1,180
67,270,63541,6,0,B|58:246|58:246|79:182,1,67.5000025749208
213,133,63835,2,0,B|218:162|218:162|201:221,1,67.5000025749208
163,326,64129,6,0,B|199:340|199:340|255:322,1,72
340,247,64423,5,0,0:0:0:0:
343,69,64570,2,0,P|330:88|331:149,1,67.5000025749208
422,296,64864,2,0,B|436:272|436:272|428:218,1,67.5000025749208
343,69,65158,2,0,B|329:121|329:121|340:254,1,180
168,72,65894,6,0,B|160:119|117:138|117:138|117:190|117:190|180:240,1,202.500007724762
281,368,66482,6,0,B|335:314|335:314|339:241,1,144
168,72,66923,2,0,P|212:55|297:70,1,135.000005149842
418,172,67364,2,0,P|452:133|450:88,1,67.5000025749208
296,69,67658,6,0,B|261:135|261:135|294:219,1,144
310,344,68100,2,0,P|373:321|411:266,1,135.000005149842
418,172,68541,5,0,0:0:0:0:
313,87,68688,1,0,0:0:0:0:
195,154,68835,6,0,B|175:193|175:193|190:237,1,72
302,277,69129,5,0,0:0:0:0:
436,280,69276,2,0,P|397:293|359:276,1,67.5000025749208
241,184,69570,2,0,P|195:203|167:238,1,67.5000025749208
152,346,69864,2,0,P|204:327|238:251,1,135.000005149842
207,110,70305,6,0,P|256:102|289:128,1,67.5000025749208
398,154,70600,5,0,0:0:0:0:
411,184,70673,1,0,0:0:0:0:
413,217,70747,1,0,0:0:0:0:
405,249,70820,1,0,0:0:0:0:
386,277,70894,2,0,P|356:291|311:291,1,67.5000025749208
191,328,71188,6,0,B|185:287|185:287|202:254,1,72
266,148,71482,1,0,0:0:0:0:
354,45,71629,2,0,P|315:79|307:99,1,67.5000025749208
198,183,71923,6,0,P|234:219|265:222,1,67.5000025749208
375,218,72217,2,0,P|325:168|240:146,1,135.000005149842
196,263,72658,6,0,P|165:250|146:223,1,67.5000025749208
57,119,72953,6,0,P|99:96|141:104,1,67.5000025749208
265,147,73247,2,0,P|223:170|181:162,1,67.5000025749208
117,96,73541,6,0,B|124:55|124:55|162:33,1,72
275,1,73835,1,0,0:0:0:0:
265,147,73982,2,0,P|254:107|256:79,1,67.5000025749208
374,144,74276,6,0,P|385:184|383:212,1,67.5000025749208
289,313,74570,6,0,P|279:264|313:187,1,135.000005149842
255,81,75011,6,0,P|299:64|336:73,1,67.5000025749208
447,27,75305,6,0,P|456:61|447:114,1,67.5000025749208
383,209,75600,2,0,P|372:169|374:141,1,67.5000025749208
255,81,75894,6,0,B|182:88|182:88|128:144,1,144
11,179,76335,2,0,P|38:219|111:262,1,135.000005149842
214,349,76776,2,0,P|255:292|255:269,1,67.5000025749208
255,81,77070,6,0,B|292:100|292:100|313:139,1,72
331,252,77364,1,0,0:0:0:0:
282,370,77511,2,0,P|311:341|329:246,1,135.000005149842
233,156,77953,5,0,0:0:0:0:
251,289,78100,1,0,0:0:0:0:
369,181,78247,6,0,B|398:206|398:206|406:263,1,72
282,370,78541,1,0,0:0:0:0:
295,246,78688,2,0,P|311:294|270:380,1,135.000005149842
147,365,79129,2,0,P|136:317|151:285,1,67.5000025749208
261,180,79423,6,0,B|299:167|299:167|337:187,1,72
409,273,79717,6,0,P|445:245|459:217,1,67.5000025749208
370,131,80011,2,0,P|334:159|320:187,1,67.5000025749208
300,310,80305,5,0,0:0:0:0:
390,201,80453,1,0,0:0:0:0:
418,72,80600,6,0,B|371:53|371:53|317:71,1,107.999996704102
268,129,81041,2,0,B|315:148|315:148|372:130,1,107.999996704102
450,170,81482,6,0,P|456:133|444:108,1,45
386,37,81776,1,0,0:0:0:0:
386,37,81923,2,0,P|380:74|392:99,1,45
298,155,82217,5,0,0:0:0:0:
298,155,82364,2,0,P|304:118|292:93,1,45
230,24,82658,1,0,0:0:0:0:
230,24,82805,2,0,P|224:61|236:86,1,45
253,153,83247,6,0,L|308:155,1,45
464,153,83541,2,0,L|409:155,1,45
354,57,83835,6,0,L|368:110,1,45
346,240,84129,2,0,L|332:187,1,45
253,153,84423,2,0,L|207:157,1,45
110,100,84717,2,0,P|83:170|117:232,1,135
142,327,85305,6,0,B|198:308|198:308|225:263,1,107.999996704102
290,197,85747,2,0,B|236:177|236:177|207:134,1,107.999996704102
151,60,86188,2,0,P|192:42|211:41,1,45
309,120,86482,5,0,0:0:0:0:
309,120,86629,2,0,P|299:97|298:77,1,45
381,183,86923,5,0,0:0:0:0:
381,183,87070,2,0,P|391:206|392:226,1,45
426,95,87364,5,0,0:0:0:0:
413,52,87511,1,0,0:0:0:0:
281,22,87658,6,0,P|271:66|287:108,1,67.5000025749208
195,216,87953,2,0,P|259:233|392:169,1,202.500007724762
507,136,88541,2,0,P|450:79|393:61,1,135.000005149842
221,88,88982,5,0,0:0:0:0:
272,279,89129,1,0,0:0:0:0:
134,112,89276,5,0,0:0:0:0:
338,226,89423,1,0,0:0:0:0:
86,241,89570,5,0,0:0:0:0:
336,140,89717,1,0,0:0:0:0:
62,49,89864,1,0,0:0:0:0:
251,286,90011,6,0,P|279:314|243:272,1,630
426,63,91188,5,0,0:0:0:0:
158,28,91335,1,0,0:0:0:0:
338,228,91482,1,0,0:0:0:0:
281,47,91776,5,0,0:0:0:0:
237,258,91923,2,0,P|271:298|343:315,1,90
150,170,92217,6,0,B|134:87|134:87|195:6,1,180
333,144,92658,2,0,B|352:185|352:185|332:242,1,90
137,334,92953,5,0,0:0:0:0:
140,109,93100,2,0,P|183:111|223:133,1,90
18,296,93394,6,0,B|77:222|77:222|172:197,1,180
375,323,93835,2,0,B|330:340|330:340|275:315,1,90
329,132,94129,5,0,0:0:0:0:
220,37,94276,2,0,P|163:52|118:99,1,90
49,276,94570,6,0,L|148:303,1,90
329,132,94864,2,0,L|230:159,1,90
18,181,95158,2,0,L|117:208,1,90
279,60,95453,2,0,L|180:87,1,90
135,299,95747,2,0,L|234:326,1,90
403,190,96041,2,0,L|231:244,1,180
192,83,96482,5,0,0:0:0:0:
416,95,96629,2,0,P|460:108|484:154,1,90
307,1,96923,6,0,B|259:74|259:74|280:179,1,180
406,275,97364,2,0,B|418:233|418:233|400:183,1,90
192,83,97658,1,0,0:0:0:0:
275,291,97805,1,0,0:0:0:0:
397,100,97953,1,0,0:0:0:0:
199,207,98100,6,0,B|120:157|120:157|93:68,1,180
397,100,98541,2,0,B|423:137|423:137|421:182,1,90
275,291,98835,1,0,0:0:0:0:
182,96,98982,2,0,P|172:45|142:10,1,90
127,239,99276,6,0,P|167:275|219:271,1,90
421,181,99570,2,0,P|350:150|315:162,1,90
231,347,99864,2,0,P|292:313|309:289,1,90
184,107,100158,2,0,P|179:161|207:205,1,90
314,0,100453,6,0,P|314:57|275:116,1,90
232,261,100747,5,0,0:0:0:0:
237,36,100894,1,0,0:0:0:0:
354,227,101041,1,0,0:0:0:0:
184,107,101188,5,0,0:0:0:0:
421,181,101335,1,0,0:0:0:0:
231,347,101482,1,0,0:0:0:0:
107,158,101629,6,0,B|98:68|98:68|171:6,1,180
240,177,102070,2,0,B|251:223|251:223|222:279,1,90
25,351,102364,1,0,0:0:0:0:
159,170,102511,2,0,P|183:127|228:107,1,90
163,321,102805,6,0,B|245:340|245:340|327:274,1,180
425,79,103247,2,0,B|377:89|377:89|326:135,1,90
232,261,103541,1,0,0:0:0:0:
346,116,103688,2,0,P|279:79|254:84,1,90
319,279,103982,6,0,L|226:260,1,90
78,96,104276,2,0,L|171:115,1,90
369,211,104570,2,0,L|280:192,1,90
127,28,104864,2,0,L|215:46,1,90
24,166,105158,6,0,L|117:185,1,90
277,113,105453,2,0,L|79:199,1,180
79,358,105894,5,0,0:0:0:0:
166,114,106041,1,0,0:0:0:0:
319,279,106188,1,0,0:0:0:0:
132,49,106335,6,0,P|195:49|235:81,1,90
319,279,106629,2,0,P|255:278|215:246,1,90
217,62,106923,2,0,P|251:89|262:145,1,90
59,226,107217,2,0,P|67:170|109:143,1,90
313,179,107511,2,0,P|254:207|215:188,1,90
154,7,107805,2,0,P|213:47|217:77,1,90
0,127,108100,2,0,P|32:92|77:83,1,90
154,291,108394,2,0,P|157:241|130:209,1,90
190,38,108688,5,0,0:0:0:0:
106,246,108835,1,0,0:0:0:0:
36,32,108982,1,0,0:0:0:0:
253,91,109129,1,0,0:0:0:0:
23,182,109276,1,0,0:0:0:0:
258,240,109423,5,0,0:0:0:0:
115,43,109570,1,0,0:0:0:0:
15,264,109717,1,0,0:0:0:0:
238,169,109864,1,0,0:0:0:0:
5,51,110011,5,0,0:0:0:0:
180,244,110158,1,0,0:0:0:0:
315,21,110305,1,0,0:0:0:0:
68,112,110453,1,0,0:0:0:0:
312,245,110600,5,0,0:0:0:0:
115,43,110747,1,0,0:0:0:0:
106,321,110894,1,0,0:0:0:0:
253,91,111041,1,0,0:0:0:0:
4,253,111188,5,0,0:0:0:0:
202,32,111335,1,0,0:0:0:0:
237,326,111482,1,0,0:0:0:0:
0,185,111629,5,0,0:0:0:0:
245,23,111776,1,0,0:0:0:0:
202,316,111923,1,0,0:0:0:0:
7,118,112070,6,0,P|46:131|65:195,1,90
163,255,112364,6,0,P|223:244|276:300,1,135
312,352,112953,2,0,P|252:363|199:307,1,135
220,223,113541,6,0,B|261:254|261:254|273:300,1,90
201,315,113982,2,0,B|142:293|134:242,1,90
153,162,114423,6,0,L|189:124,1,45
245,63,114717,1,0,0:0:0:0:
296,176,114864,2,0,P|326:159|336:138,1,45
335,60,115158,2,0,P|349:43|370:34,1,45
394,105,115453,2,0,P|412:137|408:153,1,45
445,226,115747,2,0,P|396:232|349:205,1,90
288,111,116188,2,0,P|336:104|417:152,1,135
360,216,116776,5,0,0:0:0:0:
300,283,116923,1,0,0:0:0:0:
220,223,117070,1,0,0:0:0:0:
243,111,117217,2,0,L|304:111,1,45
359,165,117511,2,0,L|358:109,1,45
477,150,117805,2,0,L|426:135,1,45
278,14,118100,2,0,B|242:63|242:63|243:112,1,107.999996704102
305,219,118541,2,0,P|324:115|307:79,1,135
278,14,119129,6,0,P|248:44|241:64,1,45
314,91,119423,2,0,P|338:102|452:84,1,135
378,27,120011,2,0,P|338:13|317:14,1,45
256,22,120305,2,0,P|226:52|219:72,1,45
211,143,120600,5,0,0:0:0:0:
232,253,120747,1,0,0:0:0:0:
232,253,121041,5,0,0:0:0:0:
313,175,121188,1,0,0:0:0:0:
313,175,121482,5,0,0:0:0:0:
340,284,121629,1,0,0:0:0:0:
340,284,121923,5,0,0:0:0:0:
419,203,122070,2,0,P|423:177|416:144,1,45
454,51,122364,6,0,P|402:45|394:49,1,45
377,151,122658,2,0,P|428:156|436:152,1,45
225,42,122953,6,0,B|162:117|99:74|99:74|124:127|111:164|111:164|169:154|198:194|198:194|140:235|141:288,1,450
313,364,123835,2,0,P|361:356|389:331,1,67.5000025749208
442,207,124129,2,0,P|323:233|336:314,1,202.500007724762
393,264,124717,2,0,P|512:238|499:157,1,202.500007724762
417,32,125305,6,0,B|359:33|359:33|396:90|370:139|370:139|290:96|246:205|246:205|301:284|336:208|336:208|356:239|421:284,1,540
336,308,126335,2,0,P|280:315|226:283,1,90
137,108,126629,5,0,0:0:0:0:
54,317,126776,1,0,0:0:0:0:
237,187,126923,1,0,0:0:0:0:
12,167,127070,1,0,0:0:0:0:
199,320,127217,5,0,0:0:0:0:
60,99,127364,1,0,0:0:0:0:
364,138,127511,6,0,B|375:230|375:230|332:315,1,180
109,289,127953,2,0,P|150:242|205:233,1,90
347,376,128247,5,0,0:0:0:0:
301,211,128394,2,0,L|235:149,1,90
410,8,128688,6,0,B|474:73|474:73|476:183,1,180
313,288,129129,2,0,P|256:278|235:247,1,90
145,49,129423,5,0,0:0:0:0:
410,8,129570,1,0,0:0:0:0:
301,211,129717,1,0,0:0:0:0:
475,161,129864,6,0,B|503:254|503:254|469:340,1,180
237,254,130305,2,0,P|225:214|241:165,1,90
410,8,130600,1,0,0:0:0:0:
301,211,130747,1,0,0:0:0:0:
145,49,130894,1,0,0:0:0:0:
348,144,131041,6,0,B|372:187|372:187|370:269,1,90
183,352,131335,5,0,0:0:0:0:
238,168,131482,2,0,L|265:75,1,90
477,15,131776,5,0,0:0:0:0:
371,227,131923,2,0,L|344:320,1,90
418,100,132217,6,0,B|382:70|382:70|314:58,1,90
121,117,132511,5,0,0:0:0:0:
167,263,132658,2,0,L|184:362,1,90
408,352,132953,1,0,0:0:0:0:
347,140,133100,1,0,0:0:0:0:
167,263,133247,1,0,0:0:0:0:
388,207,133394,6,0,B|418:172|418:172|421:111,1,90
218,28,133688,1,0,0:0:0:0:
87,211,133835,1,0,0:0:0:0:
321,271,133982,5,0,0:0:0:0:
133,115,134129,1,0,0:0:0:0:
420,128,134276,1,0,0:0:0:0:
196,262,134423,5,0,0:0:0:0:
302,23,134570,1,0,0:0:0:0:
410,229,134717,6,0,P|422:273|391:340,1,90
141,323,135011,2,0,P|120:269|142:212,1,99.0000030212403
302,23,135305,1,0,0:0:0:0:
346,272,135453,2,0,L|329:379,1,99.0000030212403
500,170,135747,6,0,B|464:132|464:132|387:125,1,99.0000030212403
181,54,136041,5,0,0:0:0:0:
196,262,136188,1,0,0:0:0:0:
307,19,136335,5,0,0:0:0:0:
118,208,136482,1,0,0:0:0:0:
417,127,136629,5,0,0:0:0:0:
130,123,136776,1,0,0:0:0:0:
385,303,136923,6,0,B|350:348|350:348|265:366,1,107.999996704102
118,208,137217,5,0,0:0:0:0:
330,171,137364,2,0,L|312:282,1,107.999996704102
106,340,137658,5,0,0:0:0:0:
77,126,137805,1,0,0:0:0:0:
218,290,137953,1,0,0:0:0:0:
314,96,138100,6,0,B|367:105|367:105|399:145,1,99.0000030212403
499,339,138394,5,0,0:0:0:0:
296,375,138541,2,0,L|313:271,1,99.0000030212403
494,161,138835,5,0,0:0:0:0:
387,341,138982,1,0,0:0:0:0:
395,140,139129,1,0,0:0:0:0:
193,21,139276,6,0,B|169:75|169:75|186:132,1,116.999994644165
311,277,139570,5,0,0:0:0:0:
362,66,139717,2,0,L|244:78,1,116.999994644165
172,278,140011,5,0,0:0:0:0:
308,109,140158,1,0,0:0:0:0:
440,280,140305,1,0,0:0:0:0:
185,130,140453,6,0,B|167:81|167:81|188:19,1,94.499997116089
301,197,140747,5,0,0:0:0:0:
456,57,140894,2,0,L|340:68,1,94.499997116089
180,40,141188,5,0,0:0:0:0:
190,237,141335,1,0,0:0:0:0:
289,75,141482,1,0,0:0:0:0:
128,190,141629,6,0,B|111:239|111:239|134:300,1,99.0000030212403
300,380,141923,5,0,0:0:0:0:
282,202,142070,2,0,L|175:242,1,99.0000030212403
378,179,142364,5,0,0:0:0:0:
410,374,142511,1,0,0:0:0:0:
282,202,142658,1,0,0:0:0:0:
147,346,142805,5,0,0:0:0:0:
156,97,142953,1,0,0:0:0:0:
75,330,143100,5,0,0:0:0:0:
225,118,143247,1,0,0:0:0:0:
31,272,143394,5,0,0:0:0:0:
262,184,143541,1,0,0:0:0:0:
15,199,143688,5,0,0:0:0:0:
255,256,143835,1,0,0:0:0:0:
41,130,143982,5,0,0:0:0:0:
209,311,144129,5,0,0:0:0:0:
87,73,144276,1,0,0:0:0:0:
31,272,144423,1,0,0:0:0:0:
179,294,144570,5,0,0:0:0:0:
123,33,144717,1,0,0:0:0:0:
17,211,144864,1,0,0:0:0:0:
155,271,145011,5,0,0:0:0:0:
169,4,145158,1,0,0:0:0:0:
22,139,145305,2,0,P|66:156|87:204,1,90
327,297,145894,5,0,0:0:0:0:
416,154,146041,2,0,P|454:182|476:223,1,67.5000025749208
292,211,146335,6,0,B|242:287|242:287|269:380,1,180
422,384,146776,2,0,B|424:347|424:347|400:302,1,67.5000025749208
292,211,147070,5,0,0:0:0:0:
184,102,147217,2,0,P|217:75|256:73,1,67.5000025749208
368,170,147511,6,0,B|357:258|357:258|285:313,1,180
201,162,147953,2,0,B|181:136|181:136|184:87,1,67.5000025749208
322,6,148247,5,0,0:0:0:0:
387,90,148394,2,0,P|425:118|447:159,1,67.5000025749208
509,286,148688,6,0,B|467:309|467:309|393:304,1,90
264,255,148982,6,0,P|248:295|259:341,1,67.5000025749208
424,306,149276,2,0,P|424:272|409:242,1,67.5000025749208
261,162,149570,2,0,P|217:180|196:219,1,67.5000025749208
102,315,149864,6,0,B|68:286|68:286|56:223,1,90
30,75,150158,2,0,P|68:69|106:78,1,67.5000025749208
205,194,150453,5,0,0:0:0:0:
266,37,150600,1,0,0:0:0:0:
96,74,150747,1,0,0:0:0:0:
258,119,150894,1,0,0:0:0:0:
119,214,151041,6,0,B|175:268|175:268|251:273,1,153.000002918243
389,177,151482,1,0,0:0:0:0:
314,322,151776,5,0,0:0:0:0:
389,177,151923,2,0,L|396:103,1,67.5000025749208
259,9,152217,6,0,B|212:72|212:72|205:154,1,153.000002918243
250,272,152658,1,0,0:0:0:0:
317,106,152953,5,0,0:0:0:0:
250,272,153100,2,0,L|233:346,1,67.5000025749208
65,358,153394,6,0,B|52:322|52:322|64:279,1,76.5000014591217
85,118,153688,2,0,P|133:128|164:159,1,67.5000025749208
250,272,153982,2,0,P|202:262|171:231,1,67.5000025749208
20,149,154276,2,0,P|17:95|34:69,1,67.5000025749208
255,52,154570,6,0,B|259:91|259:91|245:134,1,76.5000014591217
102,268,154864,5,0,0:0:0:0:
186,83,155011,1,0,0:0:0:0:
250,272,155158,1,0,0:0:0:0:
94,142,155305,5,0,0:0:0:0:
127,170,155379,1,0,0:0:0:0:
168,185,155453,1,0,0:0:0:0:
209,197,155526,1,0,0:0:0:0:
253,200,155600,1,0,0:0:0:0:
296,202,155673,1,0,0:0:0:0:
350,182,155747,6,0,B|432:80|432:80|366:89,1,180
165,29,156188,2,0,B|127:88|127:88|167:87,1,90
383,86,156482,5,0,0:0:0:0:
408,309,156629,2,0,P|460:301|491:278,1,90
265,257,156923,6,0,B|265:125|265:125|224:186,1,180
13,172,157364,2,0,B|13:236|13:236|35:210,1,90
180,49,157658,5,0,0:0:0:0:
422,150,157805,2,0,P|456:103|443:47,1,90
265,130,158100,6,0,P|211:168|166:168,1,90
43,251,158394,2,0,P|13:207|18:155,1,90
108,0,158688,2,0,P|158:22|185:64,1,90
250,262,158982,6,0,P|322:246|344:209,1,90
501,75,159276,2,0,P|444:65|405:76,1,90
216,2,159570,2,0,P|189:95|211:192,1,180
402,280,160011,5,0,0:0:0:0:
272,95,160158,1,0,0:0:0:0:
233,316,160305,1,0,0:0:0:0:
341,117,160453,6,0,P|340:67|300:30,1,90
91,20,160747,2,0,P|77:73|85:118,1,90
144,320,161041,2,0,P|205:323|233:315,1,90
451,262,161335,2,0,P|446:212|410:173,1,90
288,1,161629,6,0,P|241:27|221:68,1,90
113,221,161923,2,0,P|179:250|217:241,1,90
451,262,162217,2,0,P|446:212|410:173,1,90
288,1,162511,2,0,P|241:27|221:68,1,90
203,281,162805,5,0,0:0:0:0:
300,76,162953,5,0,0:0:0:0:
361,292,163100,1,0,0:0:0:0:
192,142,163247,1,0,0:0:0:0:
414,175,163394,1,0,0:0:0:0:
174,213,163541,5,0,0:0:0:0:
387,97,163688,1,0,0:0:0:0:
281,315,163835,1,0,0:0:0:0:
227,78,163982,1,0,0:0:0:0:
426,245,164129,5,0,0:0:0:0:
192,142,164276,1,0,0:0:0:0:
336,359,164423,1,0,0:0:0:0:
300,76,164570,1,0,0:0:0:0:
112,282,164717,5,0,0:0:0:0:
346,156,164864,1,0,0:0:0:0:
510,381,165011,1,0,0:0:0:0:
265,247,165158,1,0,0:0:0:0:
60,314,165305,5,0,0:0:0:0:
132,23,165453,1,0,0:0:0:0:
225,304,165600,1,0,0:0:0:0:
24,244,165747,5,0,0:0:0:0:
169,0,165895,1,0,0:0:0:0:
186,277,166042,1,0,0:0:0:0:
8,168,166188,6,0,P|54:176|93:228,1,90
294,308,166482,6,0,B|341:252|341:252|353:176,1,135
315,84,167070,2,0,B|268:140|268:140|258:201,1,135
390,383,167658,5,0,0:0:0:0:
334,172,167805,1,0,0:0:0:0:
186,343,167953,1,0,0:0:0:0:
415,264,168100,5,0,0:0:0:0:
194,161,168247,1,0,0:0:0:0:
312,373,168394,1,0,0:0:0:0:
457,156,168541,5,0,0:0:0:0:
212,246,168688,1,0,0:0:0:0:
457,333,168835,1,0,0:0:0:0:
315,84,168982,5,0,0:0:0:0:
249,355,169129,1,0,0:0:0:0:
497,229,169276,1,0,0:0:0:0:
245,108,169423,1,0,0:0:0:0:
384,349,169570,1,0,0:0:0:0:
415,71,169717,1,0,0:0:0:0:
269,286,169864,1,0,0:0:0:0:
359,3,170011,5,0,0:0:0:0:
433,263,170158,1,0,0:0:0:0:
245,32,170305,1,0,0:0:0:0:
404,36,170453,5,0,0:0:0:0:
408,306,170600,1,0,0:0:0:0:
286,34,170747,1,0,0:0:0:0:
445,93,170894,6,0,P|400:110|356:90,1,90
160,0,171188,6,0,B|118:56|118:56|119:121,1,135
171,220,171776,2,0,B|213:164|213:164|212:99,1,135
188,148,176070,5,0,0:0:0:0:
256,192,176147,12,0,178466,0:0:0:0:
299,124,178544,5,0,0:0:0:0:
256,192,178621,12,0,180940,0:0:0:0:
323,235,181018,5,0,0:0:0:0:
256,192,181095,12,0,183414,0:0:0:0:
212,259,183492,5,0,0:0:0:0:
256,192,184729,5,0,0:0:0:0:
368,64,185348,5,0,0:0:0:0:
377,79,185657,1,0,0:0:0:0:
384,95,185966,6,0,L|430:184,1,72
464,265,186276,1,0,0:0:0:0:
464,265,186430,2,0,L|370:271,1,72
225,197,186740,2,0,L|296:201,1,72
310,322,187049,2,0,L|157:331,2,144
247,222,187822,1,0,0:0:0:0:
235,210,188131,1,0,0:0:0:0:
225,197,188440,6,0,L|157:122,1,72
229,20,188750,1,0,0:0:0:0:
229,20,188905,2,0,L|297:95,1,72
304,24,189214,2,0,L|334:121,1,72
370,60,189523,2,0,L|356:161,1,72,0|0,3:0|3:0,3:0:0:0:
451,263,190142,6,0,B|410:265|369:234|369:234|352:253|312:262,1,144
221,302,190606,1,0,0:0:0:0:
207,310,190915,2,0,P|126:315|95:185,2,216
161,238,192152,1,0,0:0:0:0:
169,226,192461,1,0,0:0:0:0:
177,214,193080,5,0,0:0:0:0:
185,202,193235,1,0,0:0:0:0:
193,190,193389,2,0,L|278:58,1,144
487,153,193853,2,0,L|346:183,1,144,0|0,3:0|3:0,3:0:0:0:
161,238,194317,2,0,L|231:253,1,72,0|0,3:0|3:0,3:0:0:0:
338,269,194626,1,0,0:0:0:0:
444,286,194781,1,0,0:0:0:0:
231,253,194935,5,0,0:0:0:0:
231,253,195245,1,0,0:0:0:0:
223,236,195322,1,0,0:0:0:0:
215,219,195399,1,0,0:0:0:0:
206,202,195477,1,0,0:0:0:0:
198,185,195554,2,0,L|140:65,1,108
73,180,195863,6,0,P|137:143|147:72,1,135
68,95,196173,1,0,0:0:0:0:
119,279,196327,1,0,0:0:0:0:
153,170,196482,1,0,0:0:0:0:
231,253,196637,1,0,0:0:0:0:
265,144,196791,2,0,L|360:111,1,90
343,228,197100,5,0,0:0:0:0:
309,337,197255,1,0,0:0:0:0:
421,312,197410,2,0,L|424:201,1,90
343,156,197719,1,0,0:0:0:0:
309,47,197874,1,0,0:0:0:0:
421,72,198029,2,0,L|424:183,1,90
232,131,198338,5,0,0:0:0:0:
343,156,198492,1,0,0:0:0:0:
232,131,198647,2,0,L|136:106,1,90
19,177,198956,1,0,0:0:0:0:
19,177,199111,1,0,0:0:0:0:
19,177,199265,6,0,L|113:206,1,90
235,250,199575,1,0,0:0:0:0:
235,250,199730,1,0,0:0:0:0:
235,250,199884,2,0,L|141:279,1,90
37,316,200193,1,0,0:0:0:0:
105,203,200348,1,0,0:0:0:0:
236,337,200502,2,0,L|325:346,1,90
448,180,200812,6,0,P|392:196|403:279,1,135
396,285,201121,2,0,L|273:212,1,135
240,193,201430,1,0,0:0:0:0:
128,228,201585,1,0,0:0:0:0:
152,113,201740,2,0,L|249:79,1,90
320,58,202049,5,0,0:0:0:0:
432,23,202204,1,0,0:0:0:0:
408,138,202359,2,0,L|311:171,1,90
128,228,202667,1,0,0:0:0:0:
240,193,202822,1,0,0:0:0:0:
128,228,202977,2,0,L|41:260,1,90
65,33,203286,5,0,0:0:0:0:
39,148,203440,1,0,0:0:0:0:
152,113,203595,2,0,L|251:81,1,90
387,43,203905,1,0,0:0:0:0:
387,43,204059,1,0,0:0:0:0:
387,43,204214,2,0,L|377:144,1,90
232,152,204523,5,0,0:0:0:0:
232,152,204677,1,0,0:0:0:0:
232,152,204832,2,0,L|242:253,1,90
381,254,205142,1,0,0:0:0:0:
381,254,205296,1,0,0:0:0:0:
381,254,205451,2,0,L|371:355,1,90
271,288,205760,5,0,0:0:0:0:
407,142,205914,1,0,0:0:0:0:
465,333,206069,1,0,0:0:0:0:
465,333,206379,1,0,0:0:0:0:
296,175,206843,5,0,0:0:0:0:
128,333,207152,1,0,0:0:0:0:
128,333,207307,1,0,0:0:0:0:
122,150,207616,1,0,0:0:0:0:
134,162,207925,1,0,0:0:0:0:
146,174,208234,5,0,0:0:0:0:
254,284,208389,1,0,0:0:0:0:
110,138,208544,1,0,0:0:0:0:
110,138,208853,1,0,0:0:0:0:
293,321,209317,5,0,0:0:0:0:
85,113,209626,1,0,0:0:0:0:
85,113,209780,1,0,0:0:0:0:
101,319,210090,1,0,0:0:0:0:
256,159,210399,1,0,0:0:0:0:
265,149,210477,1,0,0:0:0:0:
274,139,210554,1,0,0:0:0:0:
283,129,210631,1,0,0:0:0:0:
292,119,210709,5,0,0:0:0:0:
283,129,211018,1,0,0:0:0:0:
274,139,211327,1,0,0:0:0:0:
265,149,211637,1,0,0:0:0:0:
256,159,211946,6,0,L|162:268,1,107.999996704102
314,311,212255,1,0,0:0:0:0:
172,105,212410,1,0,0:0:0:0:
129,312,212564,2,0,L|249:312,1,107.999996704102
364,105,212874,2,0,L|256:105,1,107.999996704102
65,177,213183,6,0,L|176:236,1,107.999996704102
314,311,213492,1,0,0:0:0:0:
234,54,213647,1,0,0:0:0:0:
129,312,213801,1,0,0:0:0:0:
364,105,213956,1,0,0:0:0:0:
65,177,214111,1,0,0:0:0:0:
247,209,214265,1,0,0:0:0:0:
66,39,214420,5,0,0:0:0:0:
481,238,215502,6,0,B|386:243|386:243|311:275|311:275|195:278,1,251.999992309571
115,183,215966,2,0,L|259:183,1,125.999996154785
404,316,216276,1,0,0:0:0:0:
341,115,216430,1,0,0:0:0:0:
162,264,216585,1,0,0:0:0:0:
373,216,216740,6,0,L|239:190,1,125.999996154785
80,59,217049,1,0,0:0:0:0:
308,15,217204,2,0,L|219:125,1,125.999996154785
69,265,217513,1,0,0:0:0:0:
161,102,217667,1,0,0:0:0:0:
210,345,217822,1,0,0:0:0:0:
156,84,217977,6,0,P|228:77|372:213,1,251.999992309571
445,356,218441,2,0,L|450:228,1,125.999996154785
333,26,218750,1,0,0:0:0:0:
373,216,218905,1,0,0:0:0:0:
452,25,219059,1,0,0:0:0:0:
254,217,219214,6,0,L|159:309,1,125.999996154785
40,171,219523,1,0,0:0:0:0:
202,19,219678,2,0,L|170:155,1,125.999996154785
135,332,219987,1,0,0:0:0:0:
315,320,220142,1,0,0:0:0:0:
173,141,220296,1,0,0:0:0:0:
225,326,220451,1,0,0:0:0:0:
280,109,220606,5,0,0:0:0:0:
39,285,220760,1,0,0:0:0:0:
252,217,220915,2,0,L|382:203,1,125.999996154785
308,1,221224,1,0,0:0:0:0:
173,141,221379,1,0,0:0:0:0:
387,77,221533,1,0,0:0:0:0:
201,33,221688,1,0,0:0:0:0:
359,185,221843,6,0,B|384:203|384:203|406:231|406:231|432:240|432:240|474:273,1,125.999996154785
225,326,222152,2,0,L|129:243,1,125.999996154785
94,63,222461,1,0,0:0:0:0:
33,239,222616,1,0,0:0:0:0:
173,141,222771,2,0,L|309:103,1,125.999996154785
484,242,223080,6,0,B|429:279|429:279|356:287,1,125.999996154785
427,73,223389,2,0,L|386:214,1,125.999996154785
341,364,223698,1,0,0:0:0:0:
305,172,223853,1,0,0:0:0:0:
435,332,224008,1,0,0:0:0:0:
220,292,224162,5,0,0:0:0:0:
158,166,224317,1,0,0:0:0:0:
236,51,224472,1,0,0:0:0:0:
208,309,224626,5,0,0:0:0:0:
136,166,224781,1,0,0:0:0:0:
226,33,224935,1,0,0:0:0:0:
305,172,225090,1,0,0:3:0:0:
312,189,225167,1,0,0:0:0:0:
319,206,225245,1,0,0:0:0:0:
326,223,225322,1,0,0:0:0:0:
335,246,225399,6,0,B|356:146|356:146|382:123|382:123|371:90|371:90|392:-3,1,251.999992309571
442,238,225863,2,0,L|413:373,1,125.999996154785
305,172,226173,1,0,0:0:0:0:
313,340,226327,1,0,0:0:0:0:
181,100,226482,1,0,0:0:0:0:
116,352,226637,6,0,B|63:302|63:302|52:119,1,251.999992309571
259,277,227100,2,0,L|111:268,1,125.999996154785
183,53,227410,1,0,0:0:0:0:
374,190,227564,1,0,0:0:0:0:
138,192,227719,1,0,0:0:0:0:
329,53,227874,6,0,L|170:273,1,251.999992309571
57,49,228338,2,0,L|207:53,1,125.999996154785
352,122,228647,1,0,0:0:0:0:
138,192,228801,1,0,0:0:0:0:
396,258,228956,1,0,0:0:0:0:
122,187,229111,6,0,L|-2:151,1,125.999996154785
237,122,229420,1,0,0:0:0:0:
211,331,229575,2,0,L|229:182,1,125.999996154785
239,4,229884,1,0,0:3:0:0:
350,189,230039,1,0,3:0:0:0:
512,56,230193,2,0,L|367:63,1,125.999996154785
131,61,230502,5,0,0:0:0:0:
166,353,230657,1,0,0:0:0:0:
393,289,230812,2,0,L|264:252,1,125.999996154785
49,207,231121,1,0,0:0:0:0:
236,121,231276,1,0,0:0:0:0:
211,331,231430,2,0,L|66:340,1,125.999996154785
5,68,231740,6,0,L|130:60,1,125.999996154785
322,220,232049,2,0,L|177:229,1,125.999996154785
361,120,232358,1,0,0:0:0:0:
283,320,232513,1,0,0:0:0:0:
263,87,232667,1,0,0:0:0:0:
380,352,232822,1,0,0:0:0:0:
459,153,232977,6,0,B|457:87|457:87|416:32,1,125.999996154785
137,82,233286,2,0,L|281:88,1,125.999996154785
371,236,233595,1,0,0:0:0:0:
182,193,233750,1,0,0:0:0:0:
361,120,233905,1,0,0:0:0:0:
227,304,234059,1,0,0:0:0:0:
260,51,234214,5,0,0:0:0:0:
316,317,234368,1,0,0:0:0:0:
57,233,234523,1,0,0:0:0:0:
288,184,234678,5,0,3:0:0:0:
85,365,234832,1,0,3:0:0:0:
28,99,234987,1,0,3:0:0:0:
173,209,235142,6,0,L|147:100,1,101.250003862381
165,49,235451,6,0,L|209:228,1,135.000005149842
312,270,235760,6,0,L|282:165,1,90
245,36,236069,1,0,0:0:0:0:
380,150,236224,1,0,0:0:0:0:
371,17,236379,2,0,L|301:98,1,90
129,271,236688,5,0,0:0:0:0:
245,177,236843,1,0,0:0:0:0:
254,354,236997,2,0,L|369:358,1,90
489,208,237307,1,0,0:0:0:0:
358,268,237461,1,0,0:0:0:0:
314,80,237616,6,0,P|369:120|384:162,1,101.250003862381
381,148,237925,6,0,L|252:87,1,135.000005149842
47,90,238234,6,0,L|136:131,1,90
263,188,238544,1,0,0:0:0:0:
95,270,238698,1,0,0:0:0:0:
295,332,238853,2,0,L|363:262,1,90
225,5,239162,5,0,0:0:0:0:
148,156,239317,1,0,0:0:0:0:
76,309,239472,2,0,L|53:195,1,90
22,18,239781,1,0,0:0:0:0:
42,143,239935,1,0,0:0:0:0:
192,82,240090,6,0,P|227:127|224:189,1,101.250003862381
229,169,240399,6,0,B|230:103|230:103|276:47,1,135.000005149842
396,158,240709,6,0,L|396:247,1,90
198,298,241018,1,0,0:0:0:0:
315,164,241173,1,0,0:0:0:0:
317,324,241327,1,0,0:0:0:0:
229,169,241482,1,0,0:0:0:0:
486,150,241637,5,0,0:0:0:0:
198,298,241791,1,0,0:0:0:0:
486,150,242874,6,0,L|349:174,1,125.999996154785
101,232,243183,1,0,0:0:0:0:
299,99,243338,1,0,0:0:0:0:
219,325,243492,5,0,0:0:0:0:
304,82,243647,1,0,0:0:0:0:
213,341,243801,5,0,0:0:0:0:
136,83,243956,1,0,0:0:0:0:
354,250,244111,5,0,0:0:0:0:
121,70,244265,1,0,0:0:0:0:
383,141,244420,5,0,0:0:0:0:
91,178,244574,1,0,0:0:0:0:
327,43,244729,5,0,0:0:0:0:
147,276,244883,1,0,0:0:0:0:
219,14,245039,5,0,0:0:0:0:
255,306,245193,1,0,0:0:0:0:
67,24,245348,5,0,0:0:0:0:
344,230,245502,1,0,0:0:0:0:
13,328,245657,5,0,0:0:0:0:
219,51,245811,1,0,0:0:0:0:
165,355,245967,5,0,0:0:0:0:
371,78,246121,1,0,0:0:0:0:
40,176,246276,5,0,0:0:0:0:
317,382,246430,1,0,0:0:0:0:
143,38,246585,5,0,0:0:0:0:
241,368,246740,1,0,0:0:0:0:
295,64,247204,5,0,0:0:0:0:
89,342,247359,1,0,0:0:0:0:
89,342,247822,5,0,0:0:0:0:
256,140,250296,5,0,0:0:0:0:
256,140,250451,1,0,0:0:0:0:
300,217,251533,1,0,0:0:0:0:
300,217,251688,1,0,0:0:0:0:
210,217,252152,1,0,0:0:0:0:
256,140,252307,1,0,0:0:0:0:
300,217,252461,2,0,P|280:279|206:311,1,135
127,231,252771,6,0,P|189:251|221:325,1,135
137,316,253080,1,0,0:0:0:0:
117,146,253234,1,0,0:0:0:0:
127,231,253389,1,0,0:0:0:0:
42,241,253544,1,0,0:0:0:0:
32,156,253698,2,0,L|25:54,1,90
117,146,254008,5,0,0:0:0:0:
127,231,254162,1,0,0:0:0:0:
137,316,254317,2,0,L|238:346,1,90
342,371,254626,1,0,0:0:0:0:
309,286,254781,1,0,0:0:0:0:
357,210,254935,2,0,L|364:104,1,90
443,277,255245,6,0,L|292:286,1,135
309,286,255554,2,0,P|254:305|176:279,1,135
146,256,255863,1,0,0:0:0:0:
251,233,256018,1,0,0:0:0:0:
357,210,256173,2,0,L|457:185,1,90
285,130,256482,5,0,0:0:0:0:
251,233,256637,1,0,0:0:0:0:
217,336,256791,2,0,L|115:344,1,90
146,256,257100,1,0,0:0:0:0:
323,313,257255,1,0,0:0:0:0:
179,153,257410,2,0,P|112:152|41:222,1,135
113,214,257719,6,0,L|220:115,1,135
266,115,258028,2,0,L|188:186,1,90
349,157,258338,1,0,0:0:0:0:
344,65,258492,1,0,0:0:0:0:
261,23,258647,2,0,L|158:26,1,90
179,153,258956,5,0,0:0:0:0:
266,115,259111,1,0,0:0:0:0:
179,153,259265,2,0,L|87:200,1,90
177,54,259575,1,0,0:0:0:0:
266,115,259729,1,0,0:0:0:0:
268,223,259884,2,0,L|176:270,1,90
87,303,260193,5,0,0:0:0:0:
55,199,260348,1,0,0:0:0:0:
101,102,260502,2,0,L|195:42,1,90
164,190,260812,1,0,0:0:0:0:
268,223,260967,1,0,0:0:0:0:
365,176,261121,2,0,L|425:82,1,90
245,117,261430,5,0,0:0:0:0:
187,296,261585,1,0,0:0:0:0:
245,117,261740,2,0,L|273:25,1,90
147,67,262049,6,0,P|97:99|128:177,1,135
123,174,262359,2,0,L|-7:127,1,135
25,96,262667,6,0,L|46:200,1,90
65,284,262977,2,0,L|86:388,1,90
172,294,263286,1,0,0:0:0:0:
279,304,263441,1,0,0:0:0:0:
386,314,263595,2,0,L|494:323,1,90
342,217,263905,5,0,0:3:0:0:
298,120,264059,1,0,0:0:0:0:
235,207,264214,2,0,L|145:199,1,90
42,61,264523,1,0,0:0:0:0:
131,3,264677,1,0,0:3:0:0:
138,109,264832,2,0,L|144:198,1,90
149,336,265142,5,0,0:0:0:0:
60,275,265296,1,0,0:0:0:0:
49,167,265451,2,0,L|98:72,1,90
227,223,265760,2,0,L|120:228,1,90
187,41,266069,2,0,L|244:130,1,90
322,289,266379,5,0,0:0:0:0:
344,171,266533,1,0,0:0:0:0:
236,314,266688,2,0,L|121:342,1,90
66,358,266997,1,0,0:0:0:0:
322,289,267152,1,0,0:0:0:0:
81,265,267307,2,0,L|115:135,1,135
115,134,267616,6,0,P|134:178|229:177,1,135
256,173,267925,2,0,L|232:82,1,90
382,4,268234,1,0,0:0:0:0:
448,89,268389,1,0,0:0:0:0:
446,197,268544,2,0,L|431:300,1,90
376,141,268853,1,0,0:0:0:0:
362,247,269008,1,0,0:0:0:0:
284,322,269163,2,0,L|200:384,1,90
82,297,269472,5,0,0:0:0:0:
95,190,269627,1,0,0:0:0:0:
173,115,269782,2,0,L|256:52,1,90
183,204,270091,1,0,0:0:0:0:
267,139,270246,1,0,0:0:0:0:
376,141,270399,2,0,L|479:156,1,90
294,251,270709,5,0,0:0:0:0:
294,251,270863,1,0,0:0:0:0:
294,251,271018,2,0,L|214:313,1,90
27,196,271327,1,0,0:0:0:0:
113,56,271482,1,0,0:0:0:0:
183,204,271637,2,0,L|219:294,1,90
370,345,271946,5,0,0:0:0:0:
370,345,272100,1,0,0:0:0:0:
370,345,272255,2,0,L|391:257,1,90
241,96,272564,5,0,0:0:0:0:
105,242,272718,1,0,0:0:0:0:
47,51,272873,1,0,0:0:0:0:
47,51,273183,1,0,0:0:0:0:
216,209,273647,5,0,0:0:0:0:
384,51,273956,1,0,0:0:0:0:
384,51,274111,1,0,0:0:0:0:
390,234,274420,1,0,0:0:0:0:
378,222,274729,1,0,0:0:0:0:
366,210,275038,5,0,0:0:0:0:
258,100,275193,1,0,0:0:0:0:
402,246,275348,1,0,0:0:0:0:
402,246,275657,1,0,0:0:0:0:
219,63,276121,5,0,0:0:0:0:
427,271,276430,1,0,0:0:0:0:
427,271,276584,1,0,0:0:0:0:
411,65,276894,1,0,0:0:0:0:
256,225,277203,1,0,0:0:0:0:
247,235,277281,1,0,0:0:0:0:
238,245,277358,1,0,0:0:0:0:
229,255,277435,1,0,0:0:0:0:
220,265,277513,5,0,0:0:0:0:
229,255,277822,1,0,0:0:0:0:
238,245,278131,1,0,0:0:0:0:
247,235,278441,1,0,0:0:0:0:
256,225,278750,6,0,L|350:116,1,107.999996704102
346,279,279059,1,0,0:0:0:0:
218,130,279214,1,0,0:0:0:0:
417,195,279368,2,0,L|429:315,1,107.999996704102
227,352,279678,2,0,L|237:244,1,107.999996704102
252,18,279987,6,0,B|196:33|196:33|154:81,1,107.999996704102
101,211,280296,1,0,0:0:0:0:
235,102,280451,1,0,0:0:0:0:
57,77,280606,1,0,0:0:0:0:
221,216,280760,1,0,0:0:0:0:
339,9,280915,1,0,0:0:0:0:
380,289,281069,1,0,0:0:0:0:
512,0,281224,5,0,0:0:0:0:
69,275,282307,6,0,B|115:219|115:219|297:182,1,251.999992309571
505,312,282771,2,0,L|381:336,1,125.999996154785
162,289,283080,1,0,0:0:0:0:
184,55,283234,1,0,0:0:0:0:
60,157,283389,1,0,0:0:0:0:
290,183,283544,6,0,L|417:211,1,125.999996154785
293,94,283853,1,0,0:0:0:0:
287,272,284008,2,0,L|158:288,1,125.999996154785,0|0,0:3|0:3,0:3:0:0:
27,149,284317,1,0,0:0:0:0:
199,185,284472,1,0,0:0:0:0:
82,316,284626,1,0,0:0:0:0:
168,59,284781,6,0,P|240:27|419:115,1,251.999992309571
411,288,285245,2,0,L|274:270,1,125.999996154785
113,167,285554,1,0,0:0:0:0:
332,137,285709,1,0,0:0:0:0:
245,344,285863,1,0,0:0:0:0:
215,55,286018,6,0,L|227:192,1,125.999996154785
59,286,286327,1,0,0:0:0:0:
11,90,286482,2,0,L|147:92,1,125.999996154785
350,97,286791,1,0,0:0:0:0:
231,0,286946,1,0,0:0:0:0:
313,174,287100,2,0,L|449:176,1,125.999996154785
288,49,287410,5,0,0:0:0:0:
245,344,287564,1,0,0:0:0:0:
193,134,287719,2,0,L|55:147,1,125.999996154785
219,239,288028,1,0,0:0:0:0:
167,29,288183,1,0,0:0:0:0:
116,210,288338,1,0,0:0:0:0:
270,58,288492,1,0,0:0:0:0:
411,248,288647,6,0,B|386:230|386:230|364:202|364:202|338:193|338:193|296:160,1,125.999996154785
74,91,288956,2,0,L|212:140,1,125.999996154785
42,271,289265,1,0,0:0:0:0:
219,239,289420,1,0,0:0:0:0:
93,358,289575,2,0,L|234:354,1,125.999996154785
412,228,289884,6,0,B|363:179|363:179|291:164,1,125.999996154785
349,384,290193,2,0,L|323:256,1,125.999996154785
265,43,290502,1,0,0:0:0:0:
439,150,290657,1,0,0:0:0:0:
219,239,290812,1,0,0:0:0:0:
275,25,290966,5,0,0:0:0:0:
353,140,291121,1,0,0:0:0:0:
291,266,291276,1,0,0:0:0:0:
285,7,291430,5,0,0:0:0:0:
375,140,291584,1,0,0:0:0:0:
303,283,291739,1,0,0:0:0:0:
288,295,291817,1,0,0:0:0:0:
274,307,291894,1,0,0:0:0:0:
260,320,291972,1,0,0:0:0:0:
246,332,292049,1,0,0:0:0:0:
232,345,292126,1,0,0:0:0:0:
212,361,292204,6,0,B|183:255|183:255|189:220|189:220|155:93,1,251.999992309571
381,221,292667,2,0,L|414:349,1,125.999996154785
260,320,292977,1,0,0:0:0:0:
266,89,293131,1,0,0:0:0:0:
321,271,293286,1,0,0:0:0:0:
136,228,293441,6,0,P|68:213|159:179,1,251.999992309571,0|0,0:3|0:3,0:3:0:0:
193,365,293905,1,0,0:0:0:0:
321,271,294059,1,0,0:0:0:0:
136,228,294214,1,0,0:0:0:0:
378,134,294368,1,0,0:0:0:0:
79,91,294523,1,0,0:0:0:0:
260,320,294678,6,0,B|331:353|331:353|185:214,1,251.999992309571
79,91,295142,2,0,L|225:71,1,125.999996154785
420,42,295451,1,0,0:0:0:0:
257,225,295606,1,0,0:0:0:0:
282,8,295760,1,0,0:0:0:0:
248,242,295915,6,0,B|199:281|199:281|126:294,1,125.999996154785
181,50,296224,1,0,0:0:0:0:
339,134,296379,2,0,L|342:273,1,125.999996154785
475,360,296688,1,0,0:0:0:0:
415,191,296843,1,0,0:0:0:0:
311,362,296997,2,0,L|178:368,1,125.999996154785
32,262,297307,5,0,0:0:0:0:
445,276,297461,1,0,0:0:0:0:
339,134,297616,2,0,L|321:271,1,125.999996154785
114,292,297925,1,0,0:0:0:0:
212,138,298080,1,0,0:0:0:0:
100,313,298234,2,0,L|83:188,1,125.999996154785
228,13,298544,6,0,L|211:137,1,125.999996154785
355,258,298853,2,0,L|338:133,1,125.999996154785
321,13,299162,1,0,0:0:0:0:
273,210,299317,1,0,0:0:0:0:
426,334,299472,2,0,L|292:340,1,125.999996154785
66,349,299781,6,0,B|43:282|43:282|69:222,1,125.999996154785
300,339,300090,2,0,L|176:281,1,125.999996154785
370,177,300399,1,0,0:0:0:0:
174,176,300554,1,0,0:0:0:0:
331,98,300709,1,0,0:0:0:0:
409,255,300863,1,0,0:0:0:0:
252,333,301018,5,0,0:0:0:0:
196,67,301172,1,0,0:0:0:0:
455,151,301327,1,0,0:0:0:0:
224,200,301482,5,0,3:0:0:0:
427,19,301636,1,0,3:0:0:0:
484,285,301791,1,0,3:0:0:0:
340,176,301946,6,0,P|330:135|359:79,1,101.250003862381
354,83,302255,6,0,L|223:130,1,135.000005149842
8,99,302564,6,0,L|106:73,1,90
260,36,302874,1,0,0:0:0:0:
179,176,303028,1,0,0:0:0:0:
340,176,303183,2,0,L|438:202,1,90
340,337,303492,5,0,0:0:0:0:
260,257,303647,1,0,0:0:0:0:
179,337,303801,2,0,L|69:315,1,90
179,176,304111,1,0,0:0:0:0:
260,257,304265,1,0,0:0:0:0:
98,256,304420,6,0,P|70:226|67:151,1,101.250003862381
61,168,304729,6,0,L|150:58,1,135.000005149842
324,0,305039,6,0,L|252:88,1,90
260,257,305348,1,0,0:0:0:0:
323,113,305502,1,0,0:0:0:0:
147,143,305657,2,0,L|46:172,1,90
33,303,305966,5,0,0:0:0:0:
203,320,306121,1,0,0:0:0:0:
373,338,306276,2,0,L|429:232,1,90
501,92,306585,1,0,0:0:0:0:
373,190,306740,1,0,0:0:0:0:
321,35,306894,6,0,P|275:60|256:113,1,101.250003862381
256,103,307204,6,0,B|239:41|239:41|165:5,1,135.000005149842
9,99,307513,6,0,L|96:151,1,90
253,216,307822,1,0,0:0:0:0:
171,124,307977,1,0,0:0:0:0:
216,333,308131,1,0,0:0:0:0:
373,190,308286,1,0,0:0:0:0:
134,241,308441,5,0,0:0:0:0:
442,325,308595,1,0,0:0:0:0:
134,241,309678,6,0,L|285:282,1,125.999996154785
397,113,309987,5,0,0:0:0:0:
442,325,310142,1,0,0:0:0:0:
289,88,310296,5,0,0:0:0:0:
317,324,310451,1,0,0:0:0:0:
176,64,310606,5,0,0:0:0:0:
192,323,310760,1,0,0:0:0:0:
67,42,310915,5,0,0:0:0:0:
192,323,311070,1,0,0:0:0:0:
317,40,311224,5,0,0:0:0:0:
67,322,311379,1,0,0:0:0:0:
192,41,311534,5,0,0:0:0:0:
442,325,311688,1,0,0:0:0:0:
442,39,311843,5,0,0:0:0:0:
317,324,311998,1,0,0:0:0:0:
0,155,312152,5,0,0:0:0:0:
368,238,312306,1,0,0:0:0:0:
53,236,312461,5,0,0:0:0:0:
407,150,312616,1,0,0:0:0:0:
98,149,312770,5,0,0:0:0:0:
467,234,312925,1,0,0:0:0:0:
151,232,313080,5,0,0:0:0:0:
506,147,313234,1,0,0:0:0:0:
67,42,313389,5,0,0:0:0:0:
442,345,313544,1,0,0:0:0:0:
442,39,314008,5,0,0:0:0:0:
67,342,314163,1,0,0:0:0:0:
85,61,315554,6,0,L|97:127,1,67.5000025749208
92,166,315709,6,0,P|145:127|304:154,1,215.999993408203
431,331,316173,2,0,L|311:300,1,107.999996704102
39,305,316482,1,0,0:0:0:0:
231,219,316637,1,0,0:0:0:0:
92,166,316791,1,0,0:0:0:0:
178,358,316946,6,0,B|264:347|264:347|311:357|311:357|393:344,1,215.999993408203
495,327,317410,1,0,0:0:0:0:
355,235,317564,1,0,0:0:0:0:
447,95,317719,1,0,0:0:0:0:
215,143,317874,1,0,0:0:0:0:
471,211,318028,1,0,0:0:0:0:
263,375,318183,6,0,B|274:285|274:285|265:263|265:263|282:240|282:240|295:155,1,215.999993408203
150,19,318647,2,0,L|128:143,1,107.999996704102
198,309,318956,1,0,0:0:0:0:
355,235,319111,1,0,0:0:0:0:
131,125,319265,1,0,0:0:0:0:
422,51,319420,6,0,B|454:118|454:118|453:229,1,161.999995056153
451,260,319729,1,0,0:0:0:0:
282,124,319884,1,0,0:0:0:0:
249,339,320039,6,0,B|178:314|178:314|101:235,1,161.999995056153
82,209,320348,1,0,0:0:0:0:
282,124,320502,1,0,0:0:0:0:
282,124,320812,6,0,L|311:53,2,71.9999978027344
324,218,321121,2,0,L|395:247,2,71.9999978027344
230,260,321430,2,0,L|201:331,2,71.9999978027344
188,166,321740,2,0,L|117:137,2,71.9999978027344
282,124,322049,5,0,0:0:0:0:
353,122,322152,1,0,0:0:0:0:
424,120,322255,1,0,0:0:0:0:
512,217,322358,5,0,0:0:0:0:
441,219,322461,1,0,0:0:0:0:
370,221,322564,1,0,0:0:0:0:
140,128,322667,5,0,0:0:0:0:
211,126,322770,1,0,0:0:0:0:
282,124,322873,1,0,0:0:0:0:
370,221,322976,5,0,0:0:0:0:
299,223,323079,1,0,0:0:0:0:
228,225,323182,1,0,0:0:0:0:
86,229,323286,5,0,0:0:0:0:
59,142,323389,1,0,0:0:0:0:
74,53,323492,1,0,0:0:0:0:
265,0,323595,5,0,0:0:0:0:
280,89,323698,1,0,0:0:0:0:
253,176,323801,1,0,0:0:0:0:
265,352,323905,5,0,0:0:0:0:
238,265,324008,1,0,0:0:0:0:
253,176,324111,1,0,0:0:0:0:
444,123,324214,5,0,0:0:0:0:
459,212,324317,1,0,0:0:0:0:
432,299,324420,1,0,0:0:0:0:
190,278,324523,6,0,B|271:272|287:222|287:184|248:147|227:148|182:150|168:129|158:85|170:55|224:35|287:43,1,377.999988464356
337,48,325142,6,0,B|470:70|455:169|377:243|377:243|482:249,1,377.999988464356
482,336,325760,5,0,0:0:0:0:
482,336,326688,1,0,0:0:0:0:
369,135,326843,5,0,0:0:0:0:
369,135,328234,5,0,0:0:0:0:
369,135,329162,1,0,0:0:0:0:
251,333,329317,5,0,0:0:0:0:
251,333,330090,2,0,L|145:322,1,90
51,311,330399,1,0,0:0:0:0:
51,311,330709,6,0,B|49:234|49:234|81:176,1,135
77,183,331018,2,0,L|137:105,1,90
169,184,331327,2,0,L|266:196,1,90
214,264,331637,2,0,L|251:354,1,90
122,262,331946,5,0,0:0:0:0:
202,101,332100,1,0,0:0:0:0:
303,260,332255,1,0,0:0:0:0:
169,184,332410,2,0,L|272:184,1,90
391,94,332719,1,0,0:0:0:0:
235,18,332874,2,0,L|116:16,1,90
81,181,333183,6,0,L|130:277,1,90
265,341,333492,1,0,0:0:0:0:
401,228,333647,1,0,0:0:0:0:
236,167,333801,1,0,0:0:0:0:
365,323,333956,1,0,0:0:0:0:
271,71,334111,1,0,0:0:0:0:
201,263,334265,1,0,0:0:0:0:
472,37,334420,5,0,0:0:0:0:
472,37,334884,1,0,0:0:0:0:
454,317,335039,2,0,L|344:324,1,90
364,322,335657,5,0,0:0:0:0:
364,322,336121,2,0,L|317:324,1,45
235,327,336276,1,0,0:0:0:0:
217,328,336585,1,0,0:0:0:0:
199,329,336894,5,0,0:0:0:0:
196,42,337049,1,0,0:0:0:0:
181,330,337358,5,0,0:0:0:0:
214,41,337822,5,0,0:0:0:0:
163,331,338131,5,0,0:0:0:0:
257,146,338286,1,0,0:0:0:0:
331,340,338441,1,0,0:0:0:0:
258,120,338595,1,0,0:0:0:0:
145,342,338750,1,0,0:0:0:0:
260,88,338905,1,0,0:0:0:0:
347,353,339059,1,0,0:0:0:0:
261,57,339214,1,0,0:0:0:0:
123,357,339368,5,0,0:0:0:0:
469,283,340451,6,0,B|377:254|377:254|363:231|363:231|330:239|330:239|241:206,1,251.999992309571
24,225,340915,2,0,L|148:276,1,125.999996154785
347,353,341224,1,0,0:0:0:0:
407,140,341379,1,0,0:0:0:0:
469,283,341533,1,0,0:0:0:0:
285,70,341688,6,0,B|236:11|236:11|265:195,1,251.999992309571
127,366,342152,2,0,L|106:226,1,125.999996154785
71,17,342461,1,0,0:0:0:0:
285,70,342616,1,0,0:0:0:0:
6,154,342771,1,0,0:0:0:0:
289,159,342925,6,0,P|324:231|189:291,1,251.999992309571
0,84,343389,2,0,L|124:150,1,125.999996154785
247,231,343698,1,0,0:0:0:0:
391,87,343853,1,0,0:0:0:0:
417,313,344008,1,0,0:0:0:0:
388,64,344162,6,0,B|294:26|294:26|217:40|139:25,1,251.999992309571
322,162,344626,2,0,L|455:218,1,125.999996154785
303,350,344935,1,0,0:0:0:0:
235,130,345090,1,0,0:0:0:0:
79,299,345245,2,0,L|53:165,1,125.999996154785
34,28,345554,5,0,0:0:0:0:
192,325,345709,1,0,0:0:0:0:
306,70,345863,2,0,L|166:90,1,125.999996154785
79,299,346173,1,0,0:0:0:0:
281,148,346327,1,0,0:0:0:0:
71,164,346482,1,0,0:3:0:0:
295,276,346636,1,0,0:3:0:0:
429,64,346791,6,0,B|398:66|398:66|363:58|363:58|337:68|337:68|284:70,1,125.999996154785,0|0,0:3|0:3,0:3:0:0:
118,228,347100,2,0,L|242:210,1,125.999996154785
448,174,347410,1,0,0:0:0:0:
229,85,347564,1,0,0:0:0:0:
336,321,347719,2,0,L|346:165,1,125.999996154785
365,0,348028,6,0,B|426:26|426:26|449:98,1,125.999996154785
229,85,348338,2,0,L|367:83,1,125.999996154785
386,258,348647,1,0,0:0:0:0:
158,308,348801,1,0,0:0:0:0:
229,85,348956,1,0,0:0:0:0:
336,321,349111,5,0,0:0:0:0:
146,330,349265,1,0,0:0:0:0:
53,162,349420,1,0,0:0:0:0:
345,341,349575,5,0,0:0:0:0:
134,352,349729,1,0,0:0:0:0:
27,163,349884,1,0,0:0:0:0:
257,160,350039,1,0,0:0:0:0:
275,160,350116,1,0,0:0:0:0:
293,160,350193,1,0,0:0:0:0:
312,160,350271,1,0,0:0:0:0:
337,160,350348,6,0,P|283:95|150:166,1,251.999992309571
345,255,350812,2,0,L|488:237,1,125.999996154785
379,101,351121,1,0,0:0:0:0:
427,333,351276,1,0,0:0:0:0:
410,86,351430,1,0,0:0:0:0:
395,347,351585,6,0,B|331:345|271:317|271:317|214:345|126:341,1,251.999992309571
345,255,352049,2,0,L|492:259,1,125.999996154785
303,53,352358,1,0,0:0:0:0:
218,241,352513,1,0,0:0:0:0:
397,138,352667,1,0,0:0:0:0:
106,116,352822,6,0,B|40:185|40:185|52:343,1,251.999992309571
194,117,353286,2,0,L|316:45,1,125.999996154785
151,41,353595,1,0,0:0:0:0:
308,190,353750,1,0,0:0:0:0:
61,191,353905,1,0,0:0:0:0:
218,340,354059,6,0,L|352:339,1,125.999996154785
185,191,354368,1,0,0:0:0:0:
330,266,354523,2,0,L|464:265,1,125.999996154785
342,40,354832,1,0,0:0:0:0:
244,257,354987,1,0,0:0:0:0:
105,63,355142,2,0,L|232:54,1,125.999996154785
399,153,355451,5,0,0:0:0:0:
61,191,355606,1,0,0:0:0:0:
330,266,355760,2,0,L|175:301,1,125.999996154785
17,319,356069,1,0,0:0:0:0:
205,372,356224,1,0,0:0:0:0:
157,183,356379,2,0,L|105:64,1,125.999996154785
279,150,356688,6,0,L|329:265,1,125.999996154785
399,153,356997,2,0,L|347:34,1,125.999996154785
189,60,357307,1,0,0:0:0:0:
247,273,357461,1,0,0:0:0:0:
35,217,357616,2,0,L|168:179,1,125.999996154785
399,153,357925,6,0,B|434:209|434:209|436:282,1,125.999996154785
218,167,358234,2,0,L|332:223,1,125.999996154785
162,331,358544,1,0,0:0:0:0:
106,136,358698,1,0,0:0:0:0:
55,316,358853,1,0,0:0:0:0:
247,273,359008,1,0,0:0:0:0:
308,17,359162,5,0,0:0:0:0:
138,242,359317,1,0,0:0:0:0:
418,277,359472,1,0,0:0:0:0:
232,124,359626,5,0,0:0:0:0:
512,159,359781,1,0,0:0:0:0:
341,384,359936,1,0,0:0:0:0:
325,200,360090,6,0,P|368:169|429:162,1,101.250003862381
414,161,360399,6,0,L|250:132,1,135.000005149842
49,227,360709,6,0,L|138:242,1,90
333,293,361018,1,0,0:0:0:0:
210,347,361173,1,0,0:0:0:0:
250,170,361327,2,0,L|161:155,1,90
20,137,361637,5,0,0:0:0:0:
95,39,361791,1,0,0:0:0:0:
225,44,361946,2,0,L|338:59,1,90
460,179,362255,1,0,0:0:0:0:
453,62,362410,1,0,0:0:0:0:
348,166,362564,6,0,P|344:211|390:270,1,101.250003862381
371,258,362874,6,0,B|316:224|316:224|210:222,1,135.000005149842
110,333,363183,6,0,L|229:339,1,90
394,350,363492,1,0,0:0:0:0:
279,231,363647,1,0,0:0:0:0:
463,285,363801,2,0,L|444:178,1,90
501,22,364111,5,0,0:0:0:0:
348,166,364265,1,0,0:0:0:0:
273,51,364420,2,0,L|166:56,1,90
32,172,364729,1,0,0:0:0:0:
74,65,364884,1,0,0:0:0:0:
156,173,365039,6,0,P|187:212|187:277,1,101.250003862381
191,261,365348,6,0,L|244:120,1,135.000005149842
404,0,365657,6,0,L|370:97,1,90
266,269,365966,1,0,0:0:0:0:
410,232,366121,1,0,0:0:0:0:
305,125,366276,1,0,0:0:0:0:
449,89,366430,1,0,0:0:0:0:
370,375,366585,5,0,0:0:0:0:
58,92,367822,6,0,L|202:137,1,125.999996154785
380,194,368131,5,0,0:0:0:0:
185,251,368286,1,0,0:0:0:0:
377,164,368441,5,0,0:0:0:0:
187,280,368596,1,0,0:0:0:0:
367,134,368750,5,0,0:0:0:0:
197,310,368905,1,0,0:0:0:0:
279,60,369059,5,0,0:0:0:0:
291,339,369213,1,0,0:0:0:0:
239,52,369368,5,0,0:0:0:0:
330,346,369522,1,0,0:0:0:0:
194,57,369678,5,0,0:0:0:0:
375,341,369832,1,0,0:0:0:0:
147,74,369987,5,0,0:0:0:0:
422,324,370141,1,0,0:0:0:0:
61,168,370296,5,0,0:0:0:0:
433,218,370451,1,0,0:0:0:0:
41,219,370606,5,0,0:3:0:0:
451,166,370761,1,0,0:3:0:0:
36,280,370915,5,0,0:3:0:0:
457,106,371070,1,0,0:3:0:0:
48,344,371224,5,0,0:3:0:0:
444,41,371379,1,0,0:3:0:0:
94,384,371533,5,0,0:3:0:0:
398,0,371688,1,0,0:3:0:0:
418,384,372152,5,0,0:3:0:0:
113,0,372307,1,0,0:3:0:0:
450,192,372771,6,0,L|310:144,1,125.999996154785
133,150,373080,5,0,0:0:0:0:
378,233,373234,1,0,0:0:0:0:
133,233,373389,5,0,0:0:0:0:
378,150,373543,1,0,0:0:0:0:
61,192,373698,5,0,0:0:0:0:
450,192,373853,1,0,0:0:0:0:
203,58,374008,5,0,0:0:0:0:
308,325,374162,1,0,0:0:0:0:
308,58,374317,5,0,0:0:0:0:
203,325,374471,1,0,0:0:0:0:
192,32,374626,5,0,0:0:0:0:
319,351,374780,1,0,0:0:0:0:
319,32,374935,5,0,0:0:0:0:
192,351,375089,1,0,0:0:0:0:
55,117,375245,5,0,0:0:0:0:
456,266,375399,1,0,0:0:0:0:
55,266,375554,5,0,0:0:0:0:
456,117,375708,1,0,0:0:0:0:
15,102,375863,5,0,0:0:0:0:
496,281,376017,1,0,0:0:0:0:
15,281,376172,5,0,0:0:0:0:
496,102,376326,1,0,0:0:0:0:
0,0,376482,5,0,0:0:0:0:
512,384,376637,1,0,0:0:0:0:
512,0,377100,5,0,0:0:0:0:
0,384,377255,1,0,0:0:0:0:
210,144,377719,5,0,0:0:0:0:
256,192,377796,12,0,380116,0:0:0:0:
302,144,380193,5,0,0:0:0:0:
256,192,380271,12,0,382590,0:0:0:0:
302,240,382667,5,0,0:0:0:0:
256,192,382745,12,0,385064,0:0:0:0:
210,240,385142,5,0,0:0:0:0:
210,240,386379,5,0,0:0:0:0:
238,132,386533,1,0,0:0:0:0:
317,211,386688,1,0,0:0:0:0:
131,161,386843,6,0,P|94:218|113:303,1,135
105,300,387152,6,0,P|116:172|237:131,1,270
188,180,391353,5,0,0:0:0:0:
308,218,391531,2,0,P|312:174|308:162,1,45
214,115,391849,2,0,P|154:119|126:143,1,90
156,245,392325,2,0,P|188:251|215:243,1,45
311,173,392642,2,0,P|259:156|216:170,1,90
156,245,393119,6,0,P|124:219|116:202,1,45
103,105,393436,1,0,0:0:0:0:
226,164,393595,1,0,0:0:0:0:
103,105,393753,1,0,0:0:0:0:
258,239,393912,6,0,P|296:212|311:165,1,90
298,28,394388,6,0,P|251:37|209:94,1,107.999996704102
178,185,394865,2,0,P|212:176|232:154,1,53.9999983520508
326,61,395182,2,0,P|302:30|292:25,1,45
212,80,395499,1,0,0:0:0:0:
136,141,395658,2,0,P|117:181|118:199,1,45
84,289,395976,6,0,P|122:295|138:290,1,45
231,336,396293,2,0,P|241:298|222:241,1,90
117,180,396769,1,0,0:0:0:0:
75,67,396928,2,0,P|120:59|174:75,1,90
311,79,397404,6,0,P|315:71|323:25,1,45
209,30,397722,2,0,P|212:52|221:72,1,45
301,152,398039,2,0,P|339:148|356:137,1,45
323,36,398357,5,0,0:0:0:0:
221,72,398515,1,0,0:0:0:0:
301,152,398674,1,0,0:0:0:0:
419,135,398833,2,0,P|411:105|388:83,1,45
301,152,399150,6,0,P|309:182|332:204,1,45
390,279,399468,1,0,0:0:0:0:
435,175,399626,6,0,P|427:145|404:123,1,45
322,74,399944,1,0,0:0:0:0:
431,123,400103,6,0,P|416:96|388:81,1,45
296,55,400421,1,0,0:0:0:0:
415,75,400579,5,0,0:0:0:0:
267,44,400738,5,0,0:0:0:0:
195,256,401055,1,0,0:0:0:0:
411,318,401373,1,0,0:0:0:0:
460,99,401531,5,0,0:0:0:0:
291,310,401690,1,0,0:0:0:0:
291,310,402007,2,0,B|266:355|208:366,1,90
10,297,402325,5,0,0:0:0:0:
112,96,402484,1,0,0:0:0:0:
156,328,402642,1,0,0:0:0:0:
14,152,402801,5,0,0:0:0:0:
236,189,402960,1,0,0:0:0:0:
73,345,403119,1,0,0:0:0:0:
175,145,403277,6,0,B|215:120|215:120|270:123,1,90
407,232,403595,5,0,0:0:0:0:
459,15,403753,1,0,0:0:0:0:
407,232,403912,1,0,0:0:0:0:
351,13,404071,5,0,0:0:0:0:
483,195,404230,1,0,0:0:0:0:
351,13,404388,1,0,0:0:0:0:
483,195,404547,6,0,B|447:135|382:157,1,99.0000030212403
175,145,404865,1,0,0:0:0:0:
3,315,405023,1,0,0:0:0:0:
243,275,405182,1,0,0:0:0:0:
44,133,405341,5,0,0:0:0:0:
151,349,405499,1,0,0:0:0:0:
258,130,405658,1,0,0:0:0:0:
94,282,405817,6,0,B|74:337|74:337|83:389,1,107.999996704102
338,340,406134,5,0,0:0:0:0:
165,143,406293,1,0,0:0:0:0:
338,340,406452,1,0,0:0:0:0:
102,225,406611,5,0,0:0:0:0:
144,238,406690,1,0,0:0:0:0:
188,232,406769,1,0,0:0:0:0:
230,215,406849,1,0,0:0:0:0:
265,187,406928,1,0,0:0:0:0:
292,151,407007,1,0,0:0:0:0:
303,106,407087,6,0,B|305:80|283:45|283:45|257:96,1,90
25,0,407404,5,0,0:0:0:0:
60,209,407563,1,0,0:0:0:0:
179,17,407722,1,0,0:0:0:0:
5,158,407880,5,0,0:0:0:0:
249,40,408039,1,0,0:0:0:0:
5,158,408198,1,0,0:0:0:0:
224,112,408357,6,0,P|272:112|312:80,1,90
511,181,408674,2,0,P|463:181|423:213,1,90
261,355,408992,1,0,0:0:0:0:
299,207,409150,5,0,0:0:0:0:
325,182,409229,1,0,0:0:0:0:
352,159,409308,1,0,0:0:0:0:
382,139,409388,1,0,0:0:0:0:
413,120,409468,1,0,0:0:0:0:
446,107,409547,1,0,0:0:0:0:
490,100,409626,6,0,B|500:52|500:52|483:0,1,90
335,14,409891,1,0,0:0:0:0:
303,213,410023,1,0,0:0:0:0:
490,100,410182,1,0,0:0:0:0:
265,83,410341,5,0,0:0:0:0:
442,219,410499,2,0,P|435:265|407:301,1,67.5000025749208
303,246,410817,2,0,P|302:213|316:191,1,33.7500012874604
412,21,411055,5,0,0:0:0:0:
372,230,411214,1,0,0:0:0:0:
265,83,411373,2,0,L|255:12,1,67.5000025749208
74,68,411690,5,0,0:0:0:0:
100,71,411769,1,0,0:0:0:0:
126,76,411849,1,0,0:0:0:0:
152,80,411928,1,0,0:0:0:0:
178,84,412007,1,0,0:0:0:0:
265,229,412166,5,0,0:0:0:0:
248,232,412245,1,0,0:0:0:0:
231,235,412325,1,0,0:0:0:0:
215,240,412404,6,0,B|211:279,1,22.5
288,346,412642,2,0,B|283:291,1,45
345,205,412960,5,0,0:0:0:0:
242,158,413119,2,0,P|204:155|180:163,1,45
119,237,413436,2,0,P|93:207|91:185,1,45
170,122,413753,2,0,P|196:152|198:174,1,45
212,262,414071,6,0,P|241:237|263:232,1,45
345,205,414388,2,0,P|329:189|324:168,1,45
384,71,414706,5,0,0:0:0:0:
422,177,414865,2,0,P|395:266|309:281,1,180
252,161,415658,1,0,0:0:0:0:
345,205,415817,1,0,0:0:0:0:
232,243,415976,2,0,P|223:298|308:377,1,180
350,249,416769,6,0,P|348:217|343:200,1,45
227,246,417087,2,0,P|195:242|177:245,1,45
300,332,417404,2,0,P|302:364|307:381,1,45
414,344,417722,2,0,L|369:349,1,45
296,263,418039,6,0,P|294:207|219:178,1,135
227,246,418674,2,0,P|234:303|310:328,1,135
357,255,419309,2,0,P|351:172|295:136,1,135
215,87,419944,6,0,L|201:140,1,45
314,141,420261,2,0,L|313:195,1,53.9999983520508
445,193,420579,2,0,L|470:252,1,62.9999980773926
332,276,420896,2,0,L|310:349,1,72
214,214,421214,2,0,L|148:261,1,80.9999975280763
134,88,421531,5,0,0:0:0:0:
61,148,421690,5,0,0:0:0:0:
61,148,421769,1,0,0:0:0:0:
61,148,421849,1,0,0:0:0:0:
1,75,422007,5,0,0:0:0:0:
72,12,422166,1,0,0:0:0:0:
134,88,422325,1,0,0:0:0:0:
134,284,422484,5,0,0:0:0:0:
136,189,422642,1,0,0:0:0:0:
61,248,422801,2,0,P|55:266|56:301,1,45
134,372,423119,5,0,0:0:0:0:
212,292,423277,2,0,P|218:274|217:239,1,45
191,138,423595,2,0,P|210:132|241:139,1,45
327,199,423912,2,0,P|308:205|277:198,1,45
191,138,424230,2,0,P|195:160|192:182,1,45
212,292,424547,6,0,B|168:275|120:291,1,90
17,251,425023,2,0,B|-11:296|19:338,1,90
125,368,425499,6,0,B|169:385|217:369,1,90
170,258,425976,1,0,0:0:0:0:
83,148,426134,2,0,B|173:87|268:156,1,180
317,237,426928,5,0,0:0:0:0:
367,136,427087,1,0,0:0:0:0:
251,145,427246,2,0,P|240:173|242:190,1,45
367,136,427563,2,0,L|391:3,1,135
298,21,428198,5,0,0:0:0:0:
186,33,428357,1,0,0:0:0:0:
257,119,428515,5,0,0:0:0:0:
367,136,428674,1,0,0:0:0:0:
301,227,428833,6,0,P|278:236|246:234,1,45
166,170,429150,1,0,0:0:0:0:
93,256,429309,2,0,P|87:284|92:312,1,45
186,356,429626,2,0,P|192:328|183:258,1,90
332,276,430103,6,0,L|321:334,1,45
186,356,430420,2,0,L|137:336,1,45
93,256,430738,5,0,0:0:0:0:
61,148,430896,1,0,0:0:0:0:
93,256,431055,1,0,0:0:0:0:
92,75,431214,2,0,L|27:64,1,45
177,11,431531,5,0,0:0:0:0:
208,11,431611,1,0,0:0:0:0:
239,14,431690,1,0,0:0:0:0:
269,20,431769,1,0,0:0:0:0:
298,32,431849,1,0,0:0:0:0:
326,45,431928,1,0,0:0:0:0:
344,70,432007,1,0,0:0:0:0:
361,96,432087,1,0,0:0:0:0:
370,120,432166,5,0,0:0:0:0:
374,146,432246,1,0,0:0:0:0:
371,172,432325,1,0,0:0:0:0:
364,198,432404,1,0,0:0:0:0:
356,214,432484,5,0,0:0:0:0:
346,229,432563,1,0,0:0:0:0:
336,243,432642,6,0,P|256:314|152:317,1,202.500007724762
34,212,433277,2,0,P|114:141|218:138,1,202.500007724762
164,320,433912,6,0,P|153:260|208:131,1,202.500007724762
375,56,434547,2,0,P|387:116|333:244,1,202.500007724762
205,133,435182,6,0,B|136:24|17:59,1,202.500007724762
335,242,435817,2,0,B|266:350|147:315,1,202.500007724762
205,133,436452,6,0,B|98:93|14:178,1,202.500007724762
398,226,437087,2,0,B|360:254|312:235,1,67.5000025749208
201,197,437404,6,0,B|184:173|205:131,1,67.5000025749208
334,241,437722,2,0,L|347:332,1,67.5000025749208
177,276,438039,2,0,B|148:279|121:240,1,67.5000025749208
13,111,438357,6,0,P|61:83|96:81,1,67.5000025749208
204,132,438674,2,0,P|205:98|195:66,1,67.5000025749208
122,241,438992,6,0,P|170:213|205:211,1,67.5000025749208
334,241,439309,2,0,P|335:207|325:175,1,67.5000025749208
195,66,439626,2,0,P|147:38|112:36,1,67.5000025749208
122,241,439944,6,0,P|109:197|121:161,1,67.5000025749208
287,353,440261,2,0,L|260:278,1,67.5000025749208
204,132,440579,1,0,0:0:0:0:
177,302,440738,1,0,0:0:0:0:
348,224,440896,6,0,P|268:295|164:298,1,202.500007724762
6,205,441531,2,0,P|86:134|205:132,1,229.500004377365
176,301,442166,5,0,0:0:0:0:
204,263,442245,1,0,0:0:0:0:
242,236,442324,1,0,0:0:0:0:
287,221,442404,1,0,0:0:0:0:
334,221,442483,1,0,0:0:0:0:
379,235,442563,1,0,0:0:0:0:
420,256,442642,1,0,0:0:0:0:
447,294,442722,1,0,0:0:0:0:
483,323,442801,6,0,P|497:272|484:223,1,90
404,26,443119,1,0,0:0:0:0:
341,307,443277,6,0,P|327:256|340:207,1,90
404,26,443595,1,0,0:0:0:0:
483,323,443753,6,0,P|496:280|490:236,1,90
404,26,444071,1,0,0:0:0:0:
227,166,444230,5,0,0:0:0:0:
484,165,444388,1,0,0:0:0:0:
484,165,444706,5,0,0:0:0:0:
453,149,444785,1,0,0:0:0:0:
420,140,444865,1,0,0:0:0:0:
386,137,444944,1,0,0:0:0:0:
345,140,445023,5,0,0:0:0:0:
304,142,445103,1,0,0:0:0:0:
264,151,445182,1,0,0:0:0:0:
227,166,445261,1,0,0:0:0:0:
184,186,445341,5,0,0:0:0:0:
146,214,445420,1,0,0:0:0:0:
116,250,445499,1,0,0:0:0:0:
99,294,445579,1,0,0:0:0:0:
115,345,445658,5,0,0:0:0:0:
164,367,445738,1,0,0:0:0:0:
217,367,445817,1,0,0:0:0:0:
175,113,445976,5,0,0:0:0:0:
268,353,446134,1,0,0:0:0:0:
440,88,446452,6,0,B|377:93|377:93|341:116|341:116|254:120,1,180
342,338,446928,2,0,P|376:308|388:262,1,90
186,27,447246,1,0,0:0:0:0:
188,250,447404,1,0,0:0:0:0:
345,89,447563,1,0,0:0:0:0:
130,159,447722,6,0,B|225:178|225:178|284:238,1,180
451,381,448198,2,0,P|508:335|516:295,1,90
479,80,448515,1,0,0:0:0:0:
440,306,448674,1,0,0:0:0:0:
440,306,448753,1,0,0:0:0:0:
440,306,448833,1,0,0:0:0:0:
219,177,448992,6,0,B|281:237|281:237|318:240|318:240|379:274,1,180
435,151,449468,2,0,P|468:122|478:79,1,90
219,177,449785,2,0,P|185:205|175:248,1,90
395,85,450103,1,0,0:0:0:0:
124,24,450261,6,0,L|117:128,1,90
28,380,450579,2,0,L|21:290,1,90
219,93,450896,2,0,P|263:102|295:141,1,90
416,383,451214,1,0,0:0:0:0:
219,177,451372,1,0,0:0:0:0:
490,79,451531,6,0,B|505:163|505:163|479:267,1,180
47,119,452007,5,0,0:0:0:0:
229,330,452166,1,0,0:0:0:0:
191,53,452325,1,0,0:0:0:0:
72,302,452484,1,0,0:0:0:0:
292,131,452642,1,0,0:0:0:0:
28,38,452801,1,0,0:0:0:0:
237,222,452960,5,0,0:0:0:0:
0,264,453119,1,0,0:0:0:0:
191,53,453277,1,0,0:0:0:0:
177,288,453436,2,0,P|157:217|174:186,1,90
356,4,453753,5,0,0:0:0:0:
326,250,453912,1,0,0:0:0:0:
113,68,454071,1,0,0:0:0:0:
386,126,454230,5,0,0:0:0:0:
113,68,454388,1,0,0:0:0:0:
476,33,454706,1,0,0:0:0:0:
233,362,455023,1,0,0:0:0:0:
386,126,455341,6,0,B|316:117|316:117|267:132|267:132|209:124,1,180
3,312,455817,1,0,0:0:0:0:
209,124,455976,1,0,0:0:0:0:
355,360,456134,5,0,0:0:0:0:
116,213,456293,1,0,0:0:0:0:
116,213,456372,1,0,0:0:0:0:
116,213,456452,1,0,0:0:0:0:
387,280,456611,6,0,P|299:289|207:258,1,180
0,79,457087,2,0,P|38:50|105:43,1,90
357,27,457404,1,0,0:0:0:0:
301,301,457563,1,0,0:0:0:0:
502,112,457722,1,0,0:0:0:0:
355,360,457880,6,0,B|301:347|301:347|172:374,1,180
73,118,458357,2,0,P|119:154|130:206,1,90
267,381,458674,1,0,0:0:0:0:
58,194,458833,1,0,0:0:0:0:
58,194,458912,1,0,0:0:0:0:
58,194,458992,1,0,0:0:0:0:
302,190,459150,6,0,B|226:142|120:185,1,180
6,366,459626,2,0,B|10:395|10:395|47:362,2,45
16,53,459944,2,0,P|62:89|73:141,1,90
185,372,460261,1,0,0:0:0:0:
311,98,460420,6,0,L|298:207,1,90
10,215,460738,2,0,L|0:125,1,90
265,40,461055,2,0,P|206:21|157:37,1,90
59,278,461372,2,0,P|103:281|144:263,1,90
336,27,461690,2,0,B|381:72|381:72|377:193,1,180
150,351,462166,5,0,0:0:0:0:
4,112,462325,1,0,0:0:0:0:
311,98,462484,2,0,L|298:207,1,90
59,278,462801,1,0,0:0:0:0:
324,365,462960,1,0,0:0:0:0:
179,125,463119,5,0,0:0:0:0:
324,365,463277,1,0,0:0:0:0:
59,278,463436,1,0,0:0:0:0:
300,187,463595,2,0,P|310:249|272:297,1,90
33,358,463912,1,0,0:0:0:0:
235,164,464071,1,0,0:0:0:0:
7,1,464230,1,0,0:0:0:0:
141,243,464388,5,0,0:0:0:0:
321,30,464547,1,0,0:0:0:0:
53,109,464706,1,0,0:0:0:0:
300,187,464865,5,0,0:0:0:0:
33,358,465182,1,0,0:0:0:0:
295,361,465499,6,0,B|339:277|293:171,1,180
74,18,465976,1,0,0:0:0:0:
299,186,466134,1,0,0:0:0:0:
19,184,466293,5,0,0:0:0:0:
265,51,466452,1,0,0:0:0:0:
265,51,466531,1,0,0:0:0:0:
265,51,466611,1,0,0:0:0:0:
201,348,466769,6,0,B|218:220|218:220|241:280,1,180
430,383,467246,1,0,0:0:0:0:
423,153,467404,1,0,0:0:0:0:
280,334,467563,1,0,0:0:0:0:
498,277,467722,1,0,0:0:0:0:
299,186,467880,1,0,0:0:0:0:
418,0,468039,6,0,B|395:51|395:51|353:78|353:78|315:142,1,180
201,348,468515,1,0,0:0:0:0:
147,110,468674,1,0,0:0:0:0:
23,319,468833,1,0,0:0:0:0:
241,211,468992,1,0,0:0:0:0:
0,181,469150,1,0,0:0:0:0:
203,49,469309,6,0,B|90:83|90:83|183:127,1,180
341,283,469785,1,0,0:0:0:0:
475,58,469944,1,0,0:0:0:0:
221,122,470103,1,0,0:0:0:0:
466,207,470261,1,0,0:0:0:0:
304,1,470420,1,0,0:0:0:0:
398,263,470579,6,0,B|381:212|381:212|345:172|345:172|325:80,1,180
59,30,471055,5,0,0:0:0:0:
52,69,471134,1,0,0:0:0:0:
51,109,471214,1,0,0:0:0:0:
63,147,471293,1,0,0:0:0:0:
87,178,471372,1,0,0:0:0:0:
115,206,471452,5,0,0:0:0:0:
143,234,471531,1,0,0:0:0:0:
181,248,471611,1,0,0:0:0:0:
221,248,471690,1,0,0:0:0:0:
258,233,471769,1,0,0:0:0:0:
289,207,471849,6,0,B|231:103|231:103|221:167,1,180
391,383,472325,1,0,0:0:0:0:
455,111,472484,1,0,0:0:0:0:
221,248,472642,1,0,0:0:0:0:
500,239,472801,1,0,0:0:0:0:
273,74,472960,1,0,0:0:0:0:
302,351,473119,6,0,B|298:319|298:319|310:289|310:289|304:231,1,90
391,0,473436,2,0,B|403:63|403:63|377:48,1,90
102,19,473753,1,0,0:0:0:0:
102,19,473912,5,0,0:0:0:0:
93,54,473992,1,0,0:0:0:0:
93,89,474071,1,0,0:0:0:0:
104,122,474150,1,0,0:0:0:0:
116,156,474230,1,0,0:0:0:0:
134,186,474309,1,0,0:0:0:0:
161,209,474388,6,0,L|263:199,1,90
472,155,474706,1,0,0:0:0:0:
276,267,474865,1,0,0:0:0:0:
380,50,475023,1,0,0:0:0:0:
422,271,475182,1,0,0:0:0:0:
269,105,475341,2,0,L|167:115,1,90
53,300,475658,1,0,0:0:0:0:
53,300,475817,5,0,0:0:0:0:
84,317,475896,1,0,0:0:0:0:
119,325,475976,1,0,0:0:0:0:
154,325,476055,1,0,0:0:0:0:
189,317,476134,1,0,0:0:0:0:
124,229,476293,5,0,0:0:0:0:
107,197,476372,1,0,0:0:0:0:
98,161,476452,1,0,0:0:0:0:
98,125,476531,1,0,0:0:0:0:
109,90,476611,1,0,0:0:0:0:
132,62,476690,5,0,0:0:0:0:
158,38,476769,1,0,0:0:0:0:
191,24,476849,1,0,0:0:0:0:
226,20,476928,1,0,0:0:0:0:
260,27,477007,1,0,0:0:0:0:
293,36,477087,6,0,L|356:50,1,45
418,123,477404,2,0,L|355:137,1,45
264,161,477722,5,0,0:0:0:0:
160,203,477880,2,0,P|153:185|163:146,1,45
245,91,478198,2,0,P|277:89|302:100,1,45
286,229,478515,2,0,P|264:233|241:230,1,45
136,272,478833,2,0,P|106:274|82:270,1,45
26,184,479150,2,0,P|20:136|41:88,1,90
105,149,479626,2,0,P|138:163|285:157,1,180
384,116,480420,5,0,0:0:0:0:
295,46,480579,1,0,0:0:0:0:
279,159,480738,2,0,P|271:207|292:342,1,180
399,362,481531,6,0,P|398:330|389:305,1,45
343,216,481849,2,0,P|344:248|353:273,1,45
396,158,482166,2,0,P|395:126|386:101,1,45
338,13,482484,2,0,L|328:60,1,45
279,158,482801,6,0,P|214:176|149:163,1,135
64,58,483436,2,0,P|29:99|28:220,1,161.999995056153
130,316,484071,2,0,P|203:333|320:313,1,188.999994232178
404,185,484706,6,0,L|394:270,1,62.9999980773926
215,188,485023,2,0,L|177:268,1,72
108,63,485341,2,0,L|41:128,1,80.9999975280763
130,316,485658,2,0,L|42:356,1,90
282,244,485976,2,0,L|184:252,1,99.0000030212403
439,339,486293,2,0,L|336:309,1,107.999996704102
222,323,486611,5,0,0:0:0:0:
322,351,486769,1,0,0:0:0:0:
322,351,486849,1,0,0:0:0:0:
322,351,486928,2,0,L|340:291,1,45
222,323,487246,6,0,L|173:334,1,45
48,353,487563,2,0,L|97:364,1,45
222,323,487880,5,0,0:0:0:0:
129,258,488039,2,0,P|123:240|137:199,1,45
101,104,488357,2,0,P|126:100|154:107,1,45
239,165,488674,2,0,P|214:169|186:162,1,45
101,104,488992,2,0,P|97:67|109:46,1,45
188,22,489309,2,0,P|222:11|285:25,1,90
376,68,489785,6,0,P|416:94|454:223,1,180
400,313,490579,1,0,0:0:0:0:
343,215,490738,1,0,0:0:0:0:
455,214,490896,2,0,P|479:235|487:379,1,180
400,313,491690,5,0,0:0:0:0:
343,215,491849,1,0,0:0:0:0:
344,314,492007,1,0,0:0:0:0:
400,215,492166,1,0,0:0:0:0:
285,137,492325,2,0,P|262:155|253:179,1,45
235,279,492642,2,0,L|191:294,1,45
68,316,492960,5,0,0:0:0:0:
125,218,493119,1,0,0:0:0:0:
124,317,493277,1,0,0:0:0:0:
68,218,493436,1,0,0:0:0:0:
0,318,493595,6,0,P|4:343|17:363,1,45
124,317,493912,1,0,0:0:0:0:
68,218,494071,2,0,P|53:172|67:116,1,90
133,47,494547,1,0,0:0:0:0:
139,167,494706,1,0,0:0:0:0:
60,62,494865,6,0,P|58:35|78:8,1,45
205,15,495182,2,0,L|211:78,1,45
139,167,495499,1,0,0:0:0:0:
133,47,495658,1,0,0:0:0:0:
139,167,495817,1,0,0:0:0:0:
243,125,495976,2,0,L|302:133,1,45
397,156,496293,5,0,0:0:0:0:
400,187,496372,1,0,0:0:0:0:
398,218,496452,1,0,0:0:0:0:
390,248,496531,1,0,0:0:0:0:
378,277,496611,1,0,0:0:0:0:
358,301,496690,1,0,0:0:0:0:
337,317,496769,5,0,0:0:0:0:
311,327,496849,1,0,0:0:0:0:
284,332,496928,1,0,0:0:0:0:
257,332,497007,1,0,0:0:0:0:
234,328,497087,5,0,0:0:0:0:
212,322,497166,1,0,0:0:0:0:
191,312,497246,1,0,0:0:0:0:
171,300,497325,1,0,0:0:0:0:
130,275,497404,6,0,P|76:231|65:78,1,202.500007724762
215,56,498039,2,0,P|269:100|280:253,1,202.500007724762
175,172,498674,6,0,P|123:124|128:-12,1,202.500007724762
290,2,499309,2,0,P|342:50|337:186,1,202.500007724762
174,173,499944,6,0,P|138:213|-14:223,1,202.500007724762
55,69,500579,2,0,P|91:29|243:19,1,202.500007724762
343,174,501214,6,0,P|353:218|303:369,1,202.500007724762
177,240,501849,6,0,P|171:188|178:159,1,67.5000025749208
233,14,502166,2,0,P|236:47|229:80,1,67.5000025749208
396,47,502484,6,0,P|436:44|469:50,1,67.5000025749208
502,214,502801,2,0,P|462:217|429:211,1,67.5000025749208
294,116,503119,6,0,P|288:165|298:205,1,67.5000025749208
470,114,503436,2,0,P|470:78|462:46,1,67.5000025749208
294,25,503753,6,0,B|222:27|187:114|187:114|206:177,1,202.500007724762
254,326,504388,2,0,P|302:324|345:306,1,67.5000025749208
501,280,504706,2,0,P|506:242|490:187,1,67.5000025749208
422,363,505023,5,0,0:0:0:0:
347,211,505182,2,0,L|268:215,1,67.5000025749208
157,331,505499,1,0,0:0:0:0:
19,232,505658,6,0,P|6:144|67:20,1,216
258,45,506293,2,0,P|330:29|507:47,1,242.999992584229
387,266,506928,5,0,0:0:0:0:
345,249,507007,1,0,0:0:0:0:
300,236,507087,1,0,0:0:0:0:
256,230,507166,1,0,0:0:0:0:
210,228,507246,1,0,0:0:0:0:
165,232,507325,1,0,0:0:0:0:
122,245,507404,1,0,0:0:0:0:
80,263,507484,1,0,0:0:0:0:
48,294,507563,6,0,P|27:248|36:206,1,90
123,4,507880,1,0,0:0:0:0:
331,88,508039,2,0,P|285:114|241:123,1,90
33,210,508357,1,0,0:0:0:0:
179,379,508515,2,0,P|228:367|263:332,1,90
249,122,508833,1,0,0:0:0:0:
412,276,508992,5,0,0:0:0:0:
188,295,509150,1,0,0:0:0:0:
287,28,510103,5,0,0:0:0:0:
311,295,510261,1,0,0:0:0:0:
311,295,510579,6,0,B|223:308|223:308|136:262,1,180
30,69,511055,2,0,P|74:52|128:71,1,90
308,172,511372,1,0,0:0:0:0:
286,37,511531,1,0,0:0:0:0:
78,123,511690,1,0,0:0:0:0:
302,104,511849,6,0,L|179:117,1,90
60,303,512166,1,0,0:0:0:0:
114,61,512325,1,0,0:0:0:0:
105,314,512484,1,0,0:0:0:0:
30,69,512642,2,0,P|74:52|128:71,1,90
284,237,512960,1,0,0:0:0:0:
425,43,513119,6,0,B|350:92|350:92|303:180,1,180
133,380,513595,2,0,P|85:383|48:353,1,90
226,151,513912,2,0,P|274:148|311:178,1,90
471,376,514230,1,0,0:0:0:0:
405,141,514388,6,0,L|419:233,1,90
145,296,514706,2,0,L|131:204,1,90
0,0,515023,1,0,0:0:0:0:
269,73,515182,1,0,0:0:0:0:
71,271,515341,1,0,0:0:0:0:
165,9,515499,1,0,0:0:0:0:
7,235,515658,6,0,B|18:182|18:182|55:140|55:140|73:65,1,180
348,35,516134,2,0,P|358:87|317:144,1,90
217,349,516452,1,0,0:0:0:0:
269,73,516611,1,0,0:0:0:0:
72,269,516769,1,0,0:0:0:0:
344,206,516928,1,0,0:0:0:0:
78,117,517087,5,0,0:0:0:0:
293,295,517246,1,0,0:0:0:0:
182,40,517404,1,0,0:0:0:0:
208,318,517563,2,0,P|227:360|291:375,1,90
510,244,517880,5,0,0:0:0:0:
342,20,518039,1,0,0:0:0:0:
293,295,518198,1,0,0:0:0:0:
485,92,518357,5,0,0:0:0:0:
182,40,518515,1,0,0:0:0:0:
479,350,518833,1,0,0:0:0:0:
73,193,519150,1,0,0:0:0:0:
423,43,519468,6,0,B|368:120|368:120|261:167,1,180
0,280,519944,1,0,0:0:0:0:
174,61,520103,1,0,0:0:0:0:
213,335,520261,5,0,0:0:0:0:
262,331,520341,1,0,0:0:0:0:
309,318,520420,1,0,0:0:0:0:
352,295,520499,1,0,0:0:0:0:
389,257,520579,1,0,0:0:0:0:
421,220,520658,1,0,0:0:0:0:
447,177,520738,6,0,B|488:140|488:140|510:13,1,180
246,95,521214,2,0,P|225:146|246:192,1,90
423,383,521531,1,0,0:0:0:0:
296,144,521690,1,0,0:0:0:0:
126,365,521849,1,0,0:0:0:0:
100,88,522007,6,0,P|75:177|112:274,1,180
348,367,522484,2,0,P|360:313|342:253,1,90
321,1,522801,1,0,0:0:0:0:
43,30,522960,1,0,0:0:0:0:
296,144,523119,1,0,0:0:0:0:
126,365,523277,6,0,B|147:311|147:311|246:220,1,180
461,61,523753,2,0,L|361:74,1,90
258,355,524071,2,0,L|358:368,1,90
508,138,524388,1,0,0:0:0:0:
272,288,524547,6,0,P|367:276|441:197,1,180
512,0,525023,1,0,0:0:0:0:
296,144,525182,1,0,0:0:0:0:
505,329,525341,5,0,0:0:0:0:
453,56,525499,1,0,0:0:0:0:
272,288,525658,1,0,0:0:0:0:
508,138,525817,6,0,B|486:194|486:194|366:253,1,180
108,317,526293,1,0,0:0:0:0:
218,60,526452,1,0,0:0:0:0:
344,309,526611,1,0,0:0:0:0:
110,158,526769,5,0,0:0:0:0:
384,104,526928,1,0,0:0:0:0:
227,335,527087,5,0,0:0:0:0:
218,60,527246,1,0,0:0:0:0:
378,246,527404,1,0,0:0:0:0:
98,237,527563,1,0,0:0:0:0:
310,55,527722,1,0,0:0:0:0:
344,309,527880,5,0,0:0:0:0:
158,99,528039,1,0,0:0:0:0:
51,357,528198,6,0,P|100:368|144:355,1,90
344,309,528515,1,0,0:0:0:0:
107,160,528674,2,0,P|38:183|18:217,1,90
265,343,528992,2,0,P|334:320|354:286,1,90
236,64,529309,2,0,P|167:87|147:121,1,90
430,36,529626,6,0,L|408:138,1,90
265,343,529944,1,0,0:0:0:0:
157,98,530103,1,0,0:0:0:0:
51,357,530261,1,0,0:0:0:0:
319,224,530420,1,0,0:0:0:0:
51,141,530579,2,0,P|41:91|73:34,1,90
259,244,530896,6,0,B|266:371|266:371|301:309,1,180
437,152,531372,1,0,0:0:0:0:
365,346,531531,1,0,0:0:0:0:
283,155,531690,1,0,0:0:0:0:
464,254,531849,1,0,0:0:0:0:
259,244,532007,1,0,0:0:0:0:
83,354,532166,6,0,B|126:315|126:315|183:308|183:308|242:263,1,180
437,152,532642,1,0,0:0:0:0:
212,130,532801,1,0,0:0:0:0:
308,333,532960,1,0,0:0:0:0:
334,109,533119,1,0,0:0:0:0:
151,239,533277,1,0,0:0:0:0:
81,24,533436,6,0,B|89:147|89:147|133:90,1,180
330,12,533912,1,0,0:0:0:0:
300,235,534071,1,0,0:0:0:0:
226,56,534230,1,0,0:0:0:0:
404,192,534388,1,0,0:0:0:0:
180,164,534547,1,0,0:0:0:0:
234,382,534706,6,0,L|207:272,1,90
382,104,535023,2,0,L|409:214,1,90
180,164,535341,1,0,0:0:0:0:
330,329,535499,1,0,0:0:0:0:
240,122,535658,1,0,0:0:0:0:
391,288,535817,1,0,0:0:0:0:
301,81,535976,6,0,L|328:191,1,90
439,346,536293,1,0,0:0:0:0:
469,124,536452,1,0,0:0:0:0:
276,241,536611,1,0,0:0:0:0:
480,285,536769,6,0,P|510:327|508:381,1,90
286,345,537087,1,0,0:0:0:0:
479,284,537246,2,0,P|506:249|512:205,1,90
381,21,537563,5,0,0:0:0:0:
360,245,537722,1,0,0:0:0:0:
272,38,537880,1,0,0:0:0:0:
360,245,538039,2,0,L|379:348,1,90
225,164,538357,6,0,L|206:61,1,90
25,206,538674,5,0,0:0:0:0:
291,291,538833,1,0,0:0:0:0:
198,4,539150,5,0,0:0:0:0:
106,347,539468,1,0,0:0:0:0:
468,88,539785,6,0,L|350:103,1,90
148,183,540103,5,0,0:0:0:0:
334,29,540261,1,0,0:0:0:0:
338,272,540420,1,0,0:0:0:0:
209,65,540579,5,0,0:0:0:0:
165,52,540658,1,0,0:0:0:0:
121,54,540737,1,0,0:0:0:0:
79,71,540817,1,0,0:0:0:0:
45,99,540896,1,0,0:0:0:0:
21,138,540975,1,0,0:0:0:0:
29,183,541055,6,0,P|20:229|33:302,1,90
237,365,541372,1,0,0:0:0:0:
111,150,541531,2,0,P|65:161|4:203,1,90
164,364,541849,5,0,0:0:0:0:
235,144,542007,1,0,0:0:0:0:
309,364,542166,1,0,0:0:0:0:
235,144,542325,6,0,P|227:195|241:263,1,90
450,181,542642,1,0,0:0:0:0:
256,64,542801,1,0,0:0:0:0:
186,285,542960,6,0,P|239:301|291:263,1,90
450,181,543277,1,0,0:0:0:0:
256,64,543436,1,0,0:0:0:0:
478,27,543595,6,0,B|442:33|442:33|384:102,1,90
231,232,543912,1,0,0:0:0:0:
407,73,544071,2,0,B|394:38|394:38|316:-6,1,90
133,82,544388,5,0,0:0:0:0:
231,232,544547,1,0,0:0:0:0:
280,0,544706,1,0,0:0:0:0:
110,148,544865,6,0,B|78:130|78:130|59:79,1,90
262,71,545182,1,0,0:0:0:0:
186,285,545341,1,0,0:0:0:0:
50,195,545499,6,0,B|18:177|18:177|0:127,1,90
262,71,545817,1,0,0:0:0:0:
186,285,545976,1,0,0:0:0:0:
358,142,546134,6,0,B|342:188|342:188|268:230,1,90
94,248,546452,1,0,0:0:0:0:
284,139,546611,1,0,0:0:0:0:
249,360,546769,1,0,0:0:0:0:
183,144,546928,5,0,0:0:0:0:
146,366,547087,1,0,0:0:0:0:
306,208,547246,1,0,0:0:0:0:
511,333,547404,6,0,B|485:325|485:325|465:297|465:297|427:282,1,90
204,214,547722,1,0,0:0:0:0:
415,351,547880,1,0,0:0:0:0:
363,110,548039,1,0,0:0:0:0:
262,331,548198,5,0,0:0:0:0:
363,110,548357,1,0,0:0:0:0:
328,349,548515,1,0,0:0:0:0:
483,138,548674,6,0,B|440:161|440:161|422:202,1,90
196,310,548992,1,0,0:0:0:0:
495,213,549150,1,0,0:0:0:0:
251,163,549309,1,0,0:0:0:0:
417,364,549468,5,0,0:0:0:0:
350,112,549626,1,0,0:0:0:0:
271,361,549785,1,0,0:0:0:0:
101,162,549944,6,0,B|121:184|121:184|128:220|128:220|168:256,1,90
417,364,550261,1,0,0:0:0:0:
251,163,550420,1,0,0:0:0:0:
76,381,550579,5,0,0:0:0:0:
251,163,550738,1,0,0:0:0:0:
244,118,550817,1,0,0:0:0:0:
224,78,550896,1,0,0:0:0:0:
193,46,550976,1,0,0:0:0:0:
154,25,551055,1,0,0:0:0:0:
110,17,551134,1,0,0:0:0:0:
65,23,551214,6,0,B|33:65|33:65|33:112,1,90
139,300,551531,1,0,0:0:0:0:
244,118,551690,1,0,0:0:0:0:
344,319,551849,1,0,0:0:0:0:
163,186,552007,5,0,0:0:0:0:
381,131,552166,1,0,0:0:0:0:
244,310,552325,1,0,0:0:0:0:
471,222,552484,6,0,B|442:230|442:230|423:249|423:249|374:261,1,90
139,300,552801,1,0,0:0:0:0:
359,196,552960,1,0,0:0:0:0:
203,383,553119,1,0,0:0:0:0:
359,196,553277,5,0,0:0:0:0:
203,383,553436,1,0,0:0:0:0:
300,159,553595,1,0,0:0:0:0:
44,207,553753,6,0,B|88:224|88:224|144:202,1,90
331,42,554071,1,0,0:0:0:0:
88,150,554230,1,0,0:0:0:0:
300,267,554388,1,0,0:0:0:0:
220,18,554547,5,0,0:0:0:0:
188,277,554706,1,0,0:0:0:0:
416,134,554865,1,0,0:0:0:0:
188,277,555023,6,0,B|243:245|300:267|300:267|310:209|355:140|405:139,1,270
489,12,555658,5,0,0:0:0:0:
489,12,555738,1,0,0:0:0:0:
489,12,555817,1,0,0:0:0:0:
382,143,555976,1,0,0:0:0:0:
410,40,556134,1,0,0:0:0:0:
459,178,556293,1,0,0:0:0:0:
169,67,556452,5,0,0:0:0:0:
255,191,566611,5,0,0:0:0:0:
187,280,566769,1,0,0:0:0:0:
255,191,566928,1,0,0:0:0:0:
144,177,567087,2,0,P|151:150|170:132,1,45
255,191,567404,2,0,P|248:218|229:236,1,45
237,344,567722,5,0,0:0:0:0:
136,295,567880,2,0,L|115:347,1,45
237,344,568198,1,0,0:0:0:0:
338,295,568357,2,0,L|359:347,1,45
237,344,568674,1,0,0:0:0:0:
237,230,568833,2,0,L|237:276,1,45
136,294,569150,5,0,0:0:0:0:
41,355,569309,1,0,0:0:0:0:
136,294,569468,1,0,0:0:0:0:
237,344,569626,2,0,L|286:351,1,45
391,321,569944,6,0,L|371:275,1,45
281,223,570261,1,0,0:0:0:0:
419,281,570420,6,0,L|388:242,1,45
288,215,570738,1,0,0:0:0:0:
437,236,570896,6,0,L|397:206,1,45
293,206,571214,1,0,0:0:0:0:
442,187,571372,6,0,L|396:169,1,45
295,196,571690,1,0,0:0:0:0:
364,107,571849,1,0,0:0:0:0:
253,92,572007,1,0,0:0:0:0:
295,196,572166,6,0,P|279:211|273:251,1,45
290,343,572484,1,0,0:0:0:0:
295,186,572642,6,0,P|282:204|286:245,1,45
327,329,572960,1,0,2:0:0:0:
292,176,573119,6,0,P|285:197|299:235,1,45
360,305,573436,1,0,2:0:0:0:
286,167,573595,5,0,0:0:0:0:
336,66,573753,1,0,0:0:0:0:
224,80,573911,1,0,0:0:0:0:
286,167,574071,1,0,0:0:0:0:
336,66,574230,6,0,P|352:81|358:121,1,45
348,214,574547,1,0,0:0:0:0:
268,133,574706,6,0,P|252:148|246:188,1,45
256,281,575023,1,0,0:0:0:0:
348,214,575182,6,0,P|364:229|370:269,1,45
360,362,575499,1,0,0:0:0:0:
256,281,575658,5,0,0:0:0:0:
160,205,575817,1,0,0:0:0:0:
115,328,575976,1,0,0:0:0:0:
221,289,576135,1,0,0:0:0:0:
274,160,576293,2,0,P|262:133|234:121,1,45
144,83,576611,1,0,0:0:0:0:
252,55,576769,6,0,P|289:65|303:81,1,45
329,202,577087,2,0,P|315:220|296:230,1,45
217,153,577404,2,0,P|230:134|249:124,1,45
361,103,577722,1,0,0:0:0:0:
438,183,577880,6,0,P|444:214|436:239,1,45
370,315,578198,1,0,0:0:0:0:
295,230,578357,1,0,0:0:0:0:
261,336,578515,1,0,0:0:0:0:
295,230,578674,2,0,P|321:207|349:206,1,45
438,183,578992,1,0,0:0:0:0:
337,132,579150,6,0,P|283:142|246:174,1,90
193,256,579626,2,0,P|164:234|158:214,1,45
82,145,579944,2,0,P|112:120|131:119,1,45
226,93,580261,1,0,0:0:0:0:
257,228,580420,2,0,P|262:264|258:288,1,45
160,227,580738,2,0,P|155:191|159:167,1,45
226,93,581055,2,0,P|258:69|315:61,1,90
415,86,581531,1,0,0:0:0:0:
318,146,581690,2,0,P|303:110|313:43,1,90
415,86,582166,6,0,P|425:117|419:139,1,45
365,226,582484,2,0,P|358:257|341:273,1,45
250,317,582801,2,0,P|228:341|206:346,1,45
111,303,583119,5,0,0:0:0:0:
66,200,583277,1,0,0:0:0:0:
95,91,583436,1,0,0:0:0:0:
176,13,583595,2,0,P|201:7|226:9,1,45
319,60,583912,5,0,0:0:0:0:
210,88,584071,1,0,0:0:0:0:
319,60,584230,1,0,0:0:0:0:
282,166,584389,5,0,0:0:0:0:
210,88,584547,1,0,0:0:0:0:
175,195,584706,1,0,0:0:0:0:
282,166,584865,6,0,P|319:158|341:165,1,45
349,267,585182,2,0,P|312:275|290:268,1,45
175,195,585499,2,0,P|163:230|167:254,1,45
208,341,585817,1,0,0:0:0:0:
306,274,585976,1,0,0:0:0:0:
163,237,586134,6,0,L|107:248,1,45
16,293,586452,1,0,0:0:0:0:
60,198,586611,1,0,0:0:0:0:
84,307,586769,1,0,0:0:0:0:
127,142,586928,6,0,P|99:119|43:115,1,67.5000025749208
18,315,587246,2,0,P|58:315|106:293,1,67.5000025749208
235,380,587563,2,0,P|198:315|189:250,1,135.000005149842
153,73,588039,6,0,P|202:114|181:199,1,135.000005149842
45,246,588515,2,0,P|45:198|60:171,1,67.5000025749208
153,73,588833,2,0,P|86:85|0:53,1,135.000005149842
180,7,589309,6,0,P|215:34|207:118,1,135.000005149842
140,281,589785,2,0,P|118:243|126:205,1,67.5000025749208
153,73,590103,2,0,P|108:31|107:9,1,67.5000025749208
279,4,590420,5,0,0:0:0:0:
342,160,590579,2,0,P|350:220|342:250,1,67.5000025749208
234,350,590896,2,0,P|226:290|234:260,1,67.5000025749208
275,159,591214,6,0,P|319:155|341:159,1,67.5000025749208
293,283,591531,2,0,P|249:287|227:283,1,67.5000025749208
210,113,591849,6,0,B|294:52|403:100|403:100|453:221|351:303,1,405.000015449525
207,330,592960,5,0,0:0:0:0:
124,182,593119,2,0,P|169:176|194:180,1,67.5000025749208
273,327,593436,2,0,P|228:333|203:329,1,67.5000025749208
59,245,593753,5,0,0:0:0:0:
59,245,594071,2,0,L|36:378,1,135.000005149842
206,329,594547,6,0,P|183:287|182:261,2,67.5000025749208
292,183,595023,2,0,P|282:138|269:117,1,67.5000025749208
133,19,595341,1,0,0:0:0:0:
66,173,595499,1,0,0:0:0:0:
271,119,595658,5,0,0:0:0:0:
512,384,595976,1,0,0:0:0:0:
94,360,596293,1,0,0:0:0:0:
39,85,596452,5,0,0:0:0:0:
218,299,596611,1,0,0:0:0:0:
218,299,596928,6,0,B|284:279|284:279|307:248|307:248|376:215,1,180
510,38,597404,1,0,0:0:0:0:
290,89,597563,1,0,0:0:0:0:
366,301,597722,5,0,0:0:0:0:
420,83,597880,1,0,0:0:0:0:
239,217,598039,1,0,0:0:0:0:
116,6,598198,6,0,B|87:89|87:89|114:182,1,180
265,366,598674,1,0,0:0:0:0:
305,125,598833,1,0,0:0:0:0:
104,263,598992,2,0,P|81:308|81:366,1,90
309,295,599309,1,0,0:0:0:0:
397,55,599468,6,0,B|336:86|336:86|304:126|304:126|246:150,1,180
26,237,599944,2,0,P|3:192|3:134,1,90
224,286,600261,2,0,P|247:331|247:389,1,90
0,342,600579,1,0,0:0:0:0:
250,369,600738,6,0,L|126:341,1,90
46,94,601055,2,0,L|170:122,1,90
367,266,601372,1,0,0:0:0:0:
211,33,601531,1,0,0:0:0:0:
100,289,601690,1,0,0:0:0:0:
324,122,601849,1,0,0:0:0:0:
267,371,602007,6,0,B|266:312|266:312|285:259|285:259|286:173,1,180
62,23,602484,5,0,0:0:0:0:
22,297,602642,1,0,0:0:0:0:
285,194,602801,1,0,0:0:0:0:
10,143,602960,5,0,0:0:0:0:
220,326,603119,1,0,0:0:0:0:
217,48,603277,1,0,0:0:0:0:
96,300,603436,5,0,0:0:0:0:
281,90,603595,1,0,0:0:0:0:
47,240,603753,1,0,0:0:0:0:
324,269,603912,2,0,P|362:233|360:157,1,90
156,15,604230,5,0,0:0:0:0:
174,292,604388,1,0,0:0:0:0:
406,136,604547,1,0,0:0:0:0:
90,127,604706,5,0,0:0:0:0:
302,360,604865,1,0,0:0:0:0:
371,19,605182,1,0,0:0:0:0:
32,358,605499,1,0,0:0:0:0:
426,230,605817,6,0,B|475:155|475:155|478:57,1,180
203,9,606293,1,0,0:0:0:0:
33,231,606452,1,0,0:0:0:0:
294,328,606611,5,0,0:0:0:0:
321,286,606690,1,0,0:0:0:0:
343,243,606769,1,0,0:0:0:0:
344,194,606849,1,0,0:0:0:0:
321,150,606928,1,0,0:0:0:0:
294,108,607007,1,0,0:0:0:0:
271,65,607087,6,0,P|169:88|117:37,1,180
2,277,607563,2,0,P|8:328|33:359,1,90
294,328,607880,2,0,P|288:277|263:246,1,90
119,42,608198,1,0,0:0:0:0:
373,157,608357,6,0,B|327:136|327:136|192:150,1,180
31,357,608833,2,0,L|27:261,1,90
297,238,609150,2,0,L|293:327,1,90
27,267,609468,1,0,0:0:0:0:
119,42,609626,6,0,P|58:100|45:212,1,180
293,327,610103,5,0,0:0:0:0:
227,57,610261,1,0,0:0:0:0:
293,327,610420,5,0,0:0:0:0:
348,53,610579,1,0,0:0:0:0:
219,301,610738,5,0,0:0:0:0:
119,42,610896,2,0,B|108:100|108:100|173:216,1,180
393,369,611372,5,0,0:0:0:0:
289,109,611531,1,0,0:0:0:0:
186,369,611690,1,0,0:0:0:0:
417,212,611849,1,0,0:0:0:0:
181,87,612007,5,0,0:0:0:0:
445,47,612166,2,0,P|394:95|273:104,1,180
14,52,612642,5,0,0:0:0:0:
166,285,612801,1,0,0:0:0:0:
261,22,612960,1,0,0:0:0:0:
98,249,613119,5,0,0:0:0:0:
261,22,613277,1,0,0:0:0:0:
240,302,613436,5,0,0:0:0:0:
149,37,613595,1,0,0:0:0:0:
23,284,613753,1,0,0:0:0:0:
257,131,613912,1,0,0:0:0:0:
2,14,614071,1,0,0:0:0:0:
208,202,614230,5,0,0:0:0:0:
2,14,614388,1,0,0:0:0:0:
316,40,614547,6,0,P|356:83|357:142,1,90
453,378,614865,5,0,0:0:0:0:
190,287,615023,2,0,P|136:261|123:218,1,90
361,112,615341,2,0,P|415:138|428:181,1,90
255,338,615658,2,0,P|201:312|188:269,1,90
23,60,615976,6,0,B|58:107|58:107|51:228,1,180
255,338,616452,1,0,0:0:0:0:
149,37,616611,1,0,0:0:0:0:
182,352,616769,5,0,0:0:0:0:
188,303,616848,1,0,0:0:0:0:
222,269,616927,1,0,0:0:0:0:
270,264,617007,1,0,0:0:0:0:
312,282,617087,1,0,0:0:0:0:
329,328,617166,1,0,0:0:0:0:
320,376,617246,6,0,B|197:395|197:395|244:353,1,180
452,207,617722,1,0,0:0:0:0:
298,370,617880,1,0,0:0:0:0:
258,148,618039,1,0,0:0:0:0:
434,288,618198,1,0,0:0:0:0:
212,244,618357,1,0,0:0:0:0:
417,371,618515,6,0,B|367:330|367:330|363:269|363:269|307:215,1,180
122,91,618992,1,0,0:0:0:0:
106,332,619150,1,0,0:0:0:0:
323,231,619309,1,0,0:0:0:0:
90,158,619468,5,0,0:0:0:0:
294,301,619626,1,0,0:0:0:0:
38,247,619785,6,0,L|136:257,1,90
383,180,620103,2,0,L|409:274,1,90
160,364,620420,6,0,P|207:379|260:371,1,90
504,322,620738,2,0,P|510:273|493:222,1,90
211,306,621055,6,0,B|223:181|223:181|251:234,1,180
473,384,621531,1,0,0:0:0:0:
303,137,621690,1,0,0:0:0:0:
246,375,621849,5,0,0:0:0:0:
291,357,621928,1,0,0:0:0:0:
326,322,622007,1,0,0:0:0:0:
343,276,622087,1,0,0:0:0:0:
338,227,622166,5,0,0:0:0:0:
328,178,622245,1,0,0:0:0:0:
303,137,622325,6,0,B|260:101|260:101|262:52|262:52|189:-1,1,180
10,168,622801,1,0,0:0:0:0:
213,359,622960,1,0,0:0:0:0:
374,123,623119,5,0,0:0:0:0:
120,237,623277,1,0,0:0:0:0:
385,323,623436,1,0,0:0:0:0:
105,312,623595,6,0,L|199:291,1,90
374,123,623912,2,0,L|280:144,1,90
25,265,624230,1,0,0:0:0:0:
25,265,624388,5,0,0:0:0:0:
11,218,624467,1,0,0:0:0:0:
10,168,624546,1,0,0:0:0:0:
22,120,624626,5,0,0:0:0:0:
42,74,624706,1,0,0:0:0:0:
73,35,624785,1,0,0:0:0:0:
119,16,624865,6,0,P|168:22|206:57,1,90
295,250,625182,1,0,0:0:0:0:
133,92,625341,1,0,0:0:0:0:
353,53,625499,1,0,0:0:0:0:
178,195,625658,5,0,0:0:0:0:
400,157,625817,1,0,0:0:0:0:
236,1,625976,1,0,0:0:0:0:
342,198,626134,1,0,0:0:0:0:
133,92,626293,5,0,0:0:0:0:
102,110,626372,1,0,0:0:0:0:
78,137,626451,1,0,0:0:0:0:
63,169,626531,1,0,0:0:0:0:
57,205,626610,1,0,0:0:0:0:
178,195,626769,5,0,0:0:0:0:
211,217,626848,1,0,0:0:0:0:
250,227,626927,1,0,0:0:0:0:
290,224,627007,1,0,0:0:0:0:
327,208,627086,1,0,0:0:0:0:
261,104,627246,5,0,0:0:0:0:
265,59,627325,1,0,0:0:0:0:
250,17,627404,1,0,0:0:0:0:
124,267,627563,5,0,0:0:0:0:
150,291,627642,1,0,0:0:0:0:
182,307,627721,1,0,0:0:0:0:
217,314,627801,1,0,0:0:0:0:
257,317,627880,5,0,0:0:0:0:
297,315,627959,1,0,0:0:0:0:
336,309,628038,1,0,0:0:0:0:
372,291,628118,1,0,0:0:0:0:
405,260,628198,5,0,0:0:0:0:
419,217,628277,1,0,0:0:0:0:
408,173,628356,1,0,0:0:0:0:
381,138,628436,1,0,0:0:0:0:
336,117,628515,5,0,0:0:0:0:
289,99,628594,1,0,0:0:0:0:
240,95,628673,1,0,0:0:0:0:
192,104,628753,1,0,0:0:0:0:
142,128,628833,5,0,0:0:0:0:
97,158,628912,1,0,0:0:0:0:
65,201,628991,1,0,0:0:0:0:
50,252,629071,1,0,0:0:0:0:
68,308,629150,6,0,L|123:378,1,90
478,304,629468,5,0,0:0:0:0:
240,24,629626,1,0,0:0:0:0:
0,384,629785,5,0,0:0:0:0:
381,138,629944,1,0,0:0:0:0:
243,253,643931,5,0,0:0:0:0:
166,170,644100,2,0,P|210:141|249:143,1,90
243,253,644606,5,0,0:0:0:0:
328,180,644774,2,0,P|354:215|355:259,1,90
243,253,645280,5,0,0:0:0:0:
315,338,645448,2,0,P|279:364|235:365,1,90
131,292,645954,2,0,P|128:225|165:169,1,135
303,161,646628,5,0,0:0:0:0:
202,110,646797,2,0,P|151:99|111:127,1,90
303,161,647302,5,0,0:0:0:0:
174,137,647471,2,0,P|131:149|100:200,1,90
303,161,647976,5,0,0:0:0:0:
163,169,648145,2,0,P|127:196|115:253,1,90
303,161,648651,5,0,0:0:0:0:
154,210,648819,2,0,P|129:248|138:306,1,90
238,375,649325,5,0,0:0:0:0:
284,270,649493,2,0,P|238:253|190:272,1,90
238,375,649999,5,0,0:0:0:0:
344,328,650167,2,0,P|319:285|270:269,1,90
238,375,650673,5,0,0:0:0:0:
140,322,650842,2,0,P|164:279|213:263,1,90
238,375,651347,5,0,0:0:0:0:
283,269,651516,2,0,P|237:252|189:271,1,90
238,375,652021,5,0,0:0:0:0:
199,263,652190,2,0,P|159:282|139:321,1,90
238,375,652696,5,0,0:0:0:0:
283,269,652864,2,0,P|323:288|344:328,1,90
238,375,653370,5,0,0:0:0:0:
199,263,653538,1,0,0:0:0:0:
277,174,653707,5,0,0:0:0:0:
315,286,653875,1,0,0:0:0:0:
393,197,654044,1,0,0:0:0:0:
238,375,654212,5,0,0:0:0:0:
315,286,654380,1,0,0:0:0:0:
199,263,654549,1,0,0:0:0:0:
431,309,654718,5,0,0:0:0:0:
431,309,654802,1,0,0:0:0:0:
431,309,654887,2,0,B|480:283|479:229,1,90
451,129,655392,5,0,0:0:0:0:
383,219,655561,2,0,B|334:193|335:139,1,90
394,28,656066,5,0,0:0:0:0:
451,129,656235,2,0,B|502:104|501:50,1,90
394,28,656740,5,0,0:0:0:0:
335,147,656909,1,0,0:0:0:0:
451,129,657078,5,0,0:0:0:0:
349,80,657246,1,0,0:0:0:0:
265,155,657415,5,0,0:0:0:0:
195,243,657583,2,0,P|166:209|166:152,1,90
205,60,658089,5,0,0:0:0:0:
265,155,658257,2,0,P|294:188|294:245,1,90
161,165,658763,5,0,0:0:0:0:
205,60,658931,1,0,0:0:0:0:
161,165,659100,5,0,0:0:0:0:
92,74,659269,1,0,0:0:0:0:
49,179,659437,1,0,0:0:0:0:
274,150,659606,5,0,0:0:0:0:
230,255,659774,1,0,0:0:0:0:
118,270,659943,1,0,0:0:0:0:
49,179,660111,5,0,0:0:0:0:
8,284,660280,2,0,P|24:335|66:362,1,90
118,270,660785,1,0,0:0:0:0:
216,338,660954,2,0,P|236:288|221:240,1,90
118,270,661460,5,0,0:0:0:0:
162,167,661628,2,0,P|110:153|65:174,1,90
118,270,662134,5,0,0:0:0:0:
176,136,662302,2,0,P|132:106|82:110,1,90
118,270,662808,5,0,0:0:0:0:
200,112,662976,2,0,P|169:68|120:56,1,90
23,62,663482,6,0,P|28:24|47:-2,1,67.5000025749208
213,9,663819,1,0,0:0:0:0:
240,176,663988,1,0,0:0:0:0:
371,69,664156,1,0,0:0:0:0:
109,283,664325,5,0,0:0:0:0:
512,0,664662,1,0,0:0:0:0:
274,382,664999,1,0,0:0:0:0:
0,0,665336,1,0,0:0:0:0:
400,205,665673,5,0,0:0:0:0:
400,205,665757,1,0,0:0:0:0:
400,205,665842,2,0,P|450:233|470:274,1,90
274,382,666179,2,0,P|224:354|204:313,1,90
237,103,666516,1,0,0:0:0:0:
455,52,666684,5,0,0:0:0:0:
455,52,666769,1,0,0:0:0:0:
455,52,666853,2,0,L|445:155,1,90
228,192,667190,6,0,L|238:89,1,90
444,190,667527,1,0,0:0:0:0:
274,41,667696,6,0,B|231:28|231:28|166:58,1,90
189,254,668033,2,0,B|232:267|232:267|297:237,1,90
452,197,668370,5,0,0:0:0:0:
452,197,668454,1,0,0:0:0:0:
452,197,668538,2,0,B|457:243|457:243|427:300,1,90
189,254,668875,2,0,B|168:295|168:295|177:359,1,90
371,229,669212,1,0,0:0:0:0:
172,121,669381,5,0,0:0:0:0:
172,121,669465,1,0,0:0:0:0:
172,121,669549,2,0,B|141:140|141:140|122:226,1,90
332,294,669887,2,0,B|363:311|363:311|447:284,1,90
217,186,670224,1,0,0:0:0:0:
324,382,670392,6,0,B|276:339|276:339|278:374,1,90
273,140,670729,2,0,B|320:182|320:182|318:147,1,90
111,66,671066,5,0,0:0:0:0:
232,256,671235,1,0,0:0:0:0:
333,54,671403,1,0,0:0:0:0:
47,36,671572,2,0,P|41:83|78:125,1,90
232,256,671909,5,0,0:0:0:0:
333,54,672078,1,0,0:0:0:0:
111,66,672246,2,0,P|135:110|118:161,1,90
34,352,672583,2,0,P|10:308|27:257,1,90
111,66,672920,5,0,0:0:0:0:
249,167,673089,2,0,L|232:256,1,90
350,142,673426,2,0,L|333:54,1,90
111,66,673763,5,0,0:0:0:0:
350,142,673931,2,0,L|309:238,1,90
121,382,674269,2,0,L|80:286,1,90
11,86,674606,5,0,0:0:0:0:
159,272,674774,2,0,L|194:354,1,90
394,250,675111,5,0,0:0:0:0:
394,250,675196,1,0,0:0:0:0:
394,250,675280,1,0,0:0:0:0:
394,250,675364,1,0,0:0:0:0:
394,250,675448,2,0,P|402:206|389:163,1,90
210,19,675785,5,0,0:0:0:0:
173,3,675869,1,0,0:0:0:0:
133,0,675953,1,0,0:0:0:0:
93,7,676037,1,0,0:0:0:0:
52,26,676122,5,0,0:0:0:0:
21,58,676206,1,0,0:0:0:0:
4,99,676290,1,0,0:0:0:0:
1,143,676374,1,0,0:0:0:0:
15,191,676460,6,0,B|2:223|2:223|33:322,1,135
45,366,676797,1,0,0:0:0:0:
268,348,676965,5,0,0:0:0:0:
77,225,677134,2,0,L|126:374,1,135
130,384,677471,1,0,0:0:0:0:
336,296,677639,5,0,0:0:0:0:
140,179,677808,2,0,P|83:146|10:181,1,135
10,217,678145,1,0,0:0:0:0:
229,267,678314,5,0,0:0:0:0:
105,79,678482,5,0,0:0:0:0:
229,267,678651,1,0,0:0:0:0:
301,54,678819,1,0,0:0:0:0:
140,179,678988,1,0,0:0:0:0:
354,111,679156,6,0,B|375:86|375:86|375:-8,1,90
161,97,679493,2,0,B|140:122|140:122|140:216,1,90
366,194,679830,6,0,L|274:171,1,90
74,119,680167,2,0,L|166:96,1,90
354,111,680505,5,0,0:0:0:0:
284,324,680673,1,0,0:0:0:0:
161,97,680842,6,0,L|176:211,1,90
284,324,681179,2,0,L|269:210,1,90
197,32,681516,2,0,P|141:24|100:54,1,90
147,272,681853,6,0,B|191:276|191:276|283:229,1,135
316,211,682190,1,0,0:0:0:0:
452,32,682358,5,0,0:0:0:0:
316,211,682527,2,0,L|364:341,1,135
381,383,682864,1,0,0:0:0:0:
450,168,683033,5,0,0:0:0:0:
172,186,683201,2,0,P|87:197|50:252,1,135
50,280,683538,1,0,0:0:0:0:
253,378,683707,5,0,0:0:0:0:
238,219,683875,2,0,P|244:172|209:125,1,90
28,23,684212,2,0,P|22:70|57:117,1,90
264,69,684549,5,0,0:0:0:0:
292,97,684633,1,0,0:0:0:0:
312,132,684717,1,0,0:0:0:0:
322,171,684801,1,0,0:0:0:0:
321,212,684887,6,0,L|306:280,1,45
253,378,685055,2,0,L|238:310,1,45
181,267,685224,5,0,0:0:0:0:
161,232,685308,1,0,0:0:0:0:
166,192,685392,1,0,0:0:0:0:
144,159,685476,1,0,0:0:0:0:
141,119,685561,2,0,P|151:88|201:57,1,90
422,37,685898,5,0,0:0:0:0:
418,77,685982,1,0,0:0:0:0:
414,117,686066,1,0,0:0:0:0:
410,157,686150,1,0,0:0:0:0:
450,178,686235,5,0,0:0:0:0:
445,222,686319,1,0,0:0:0:0:
441,267,686403,1,0,0:0:0:0:
437,312,686487,1,0,0:0:0:0:
399,344,686572,5,0,0:0:0:0:
349,339,686656,1,0,0:0:0:0:
300,334,686740,1,0,0:0:0:0:
250,329,686825,1,0,0:0:0:0:
237,281,686909,5,0,0:0:0:0:
183,275,686993,1,0,0:0:0:0:
129,270,687077,1,0,0:0:0:0:
79,267,687162,1,0,0:0:0:0:
38,231,687246,6,0,B|21:197|21:197|36:92,1,135
42,51,687583,1,0,0:0:0:0:
220,188,687752,1,0,0:0:0:0:
94,2,687920,5,0,0:0:0:0:
220,188,688089,1,0,0:0:0:0:
342,0,688257,1,0,0:0:0:0:
143,106,688426,5,0,0:0:0:0:
366,127,688594,2,0,L|360:262,1,135
354,311,688931,1,0,0:0:0:0:
119,212,689100,5,0,0:0:0:0:
303,81,689269,2,0,P|342:56|432:87,1,135
446,121,689606,1,0,0:0:0:0:
220,188,689774,5,0,0:0:0:0:
49,40,689943,6,0,B|27:70|27:70|24:157,1,90
196,270,690280,2,0,B|218:240|218:240|221:153,1,90
49,40,690617,6,0,L|129:104,1,90
290,243,690954,2,0,L|210:179,1,90
25,122,691291,5,0,0:0:0:0:
267,127,691460,1,0,0:0:0:0:
143,314,691628,6,0,P|101:290|91:229,1,90
211,65,691965,2,0,P|253:89|263:150,1,90
143,314,692302,2,0,P|119:356|57:366,1,90
33,200,692639,6,0,B|52:178|52:178|136:179,1,90
293,207,692976,2,0,B|298:178|298:178|260:116,1,90
49,40,693314,1,0,0:0:0:0:
144,243,693482,1,0,0:0:0:0:
243,59,693651,6,0,B|274:53|274:53|337:84,1,90
318,306,693988,2,0,B|275:355|178:340,1,135
143,343,694325,1,0,0:0:0:0:
243,59,694493,6,0,P|268:121|259:218,1,135
263,238,694830,1,0,0:0:0:0:
60,140,694999,5,0,0:0:0:0:
142,343,695167,1,0,0:0:0:0:
150,117,695336,6,0,L|144:185,1,45
105,267,695505,1,0,0:0:0:0:
105,267,695589,1,0,0:0:0:0:
105,267,695673,1,0,0:0:0:0:
327,304,695842,6,0,L|330:259,1,45
351,161,696010,1,0,0:0:0:0:
351,161,696094,1,0,0:0:0:0:
351,161,696179,1,0,0:0:0:0:
188,6,696347,6,0,L|204:48,1,45
278,133,696516,2,0,L|294:91,1,45
47,121,696684,6,0,B|89:100|89:100|210:126,1,168.75
253,199,697021,6,0,B|211:220|211:220|86:195,1,168.75
6,247,697358,6,0,B|36:285|36:285|178:315,1,168.75
327,304,697696,2,0,P|371:275|381:232,1,90
208,125,698033,6,0,B|44:91,1,135
26,90,698370,1,0,0:0:0:0:
153,309,698538,5,0,0:0:0:0:
284,125,698707,2,0,P|265:72|167:59,1,135
145,42,699044,1,0,0:0:0:0:
96,260,699212,5,0,0:0:0:0:
311,194,699381,2,0,B|355:156|355:156|355:63,1,135
351,29,699718,1,0,0:0:0:0:
145,42,699887,5,0,0:0:0:0:
96,260,700055,1,0,0:0:0:0:
284,125,700224,1,0,0:0:0:0:
96,260,700392,1,0,0:0:0:0:
145,42,700561,5,0,0:0:0:0:
167,265,700729,2,0,L|154:370,1,90
32,165,701066,2,0,L|20:75,1,90
225,171,701403,5,0,0:0:0:0:
293,383,701572,1,0,0:0:0:0:
96,260,701740,2,0,P|115:213|156:197,1,90
369,146,702078,6,0,B|383:91|313:50,1,90
251,261,702415,2,0,B|209:298|137:247,1,90
162,39,702752,2,0,B|114:9|62:41,1,90
96,260,703089,2,0,B|71:308|2:297,1,90
225,171,703426,6,0,B|244:136|244:136|233:18,1,135
228,0,703763,1,0,0:0:0:0:
157,212,703931,5,0,0:0:0:0:
307,44,704100,2,0,B|323:195,1,135
325,227,704437,1,0,0:0:0:0:
128,116,704606,5,0,0:0:0:0:
276,284,704774,2,0,P|334:307|393:255,1,135
405,220,705111,1,0,0:0:0:0:
307,44,705280,5,0,0:0:0:0:
213,247,705448,2,0,P|206:311|233:340,1,90
468,350,705785,2,0,P|475:286|448:257,1,90
256,175,706122,5,0,0:0:0:0:
217,165,706206,1,0,0:0:0:0:
178,174,706290,1,0,0:0:0:0:
146,198,706374,1,0,0:0:0:0:
127,233,706459,1,0,0:0:0:0:
315,358,706628,5,0,0:0:0:0:
350,135,706797,1,0,0:0:0:0:
126,115,706965,5,0,0:0:0:0:
89,97,707049,1,0,0:0:0:0:
51,81,707134,2,0,L|55:37,1,45
161,1,707302,2,0,L|157:45,1,45
178,174,707471,5,0,0:0:0:0:
182,214,707555,1,0,0:0:0:0:
187,254,707639,1,0,0:0:0:0:
192,294,707723,1,0,0:0:0:0:
159,325,707808,5,0,0:0:0:0:
153,280,707892,1,0,0:0:0:0:
148,235,707976,1,0,0:0:0:0:
142,190,708060,1,0,0:0:0:0:
93,178,708145,5,0,0:0:0:0:
99,227,708229,1,0,0:0:0:0:
105,276,708313,1,0,0:0:0:0:
111,325,708397,1,0,0:0:0:0:
69,360,708482,5,0,0:0:0:0:
63,306,708566,1,0,0:0:0:0:
57,253,708650,1,0,0:0:0:0:
50,199,708734,1,0,0:0:0:0:
19,131,708819,6,0,B|-18:168|-18:168|-19:285,1,135
4,294,709156,1,0,0:0:0:0:
178,174,709325,5,0,0:0:0:0:
303,359,709493,2,0,P|354:329|381:248,1,135
384,210,709830,1,0,0:0:0:0:
178,174,709999,5,0,0:0:0:0:
400,76,710167,2,0,L|379:252,1,135
381,260,710505,1,0,0:0:0:0:
178,174,710673,5,0,0:0:0:0:
303,359,710842,1,0,0:0:0:0:
321,132,711010,1,0,0:0:0:0:
194,319,711179,1,0,0:0:0:0:
224,96,711347,5,0,0:0:0:0:
381,260,711516,2,0,P|431:264|472:234,1,90
283,37,711853,2,0,P|240:60|227:131,1,90
317,300,712190,2,0,P|360:335|407:338,1,90
372,148,712527,2,0,P|329:113|282:110,1,90
78,167,712864,5,0,0:0:0:0:
303,181,713033,1,0,0:0:0:0:
103,284,713201,6,0,P|92:335|113:379,1,90
225,181,713538,2,0,P|236:130|215:86,1,90
17,2,713875,2,0,P|6:53|27:97,1,90
175,235,714212,6,0,B|212:255|212:255|321:251,1,135
354,250,714549,1,0,0:0:0:0:
270,40,714718,1,0,0:0:0:0:
212,254,714887,5,0,0:0:0:0:
378,103,715055,1,0,0:0:0:0:
426,281,715224,6,0,L|416:380,1,90
221,343,715561,2,0,L|211:244,1,90
270,40,715898,5,0,0:0:0:0:
304,251,716066,6,0,L|294:350,1,90
81,268,716403,1,0,0:0:0:0:
287,176,716572,1,0,0:0:0:0:
154,356,716740,1,0,0:0:0:0:
165,130,716909,5,0,0:0:0:0:
165,130,716993,1,0,0:0:0:0:
165,130,717078,1,0,0:0:0:0:
386,165,717246,6,0,L|371:220,1,45
344,318,717415,5,0,0:0:0:0:
344,318,717499,1,0,0:0:0:0:
344,318,717583,1,0,0:0:0:0:
146,195,717752,6,0,L|71:210,1,45
1,227,717920,6,0,P|-2:168|61:113,1,135
146,195,718257,2,0,P|98:353|-8:375,1,270
48,116,718931,2,0,P|120:68|264:184,1,270
349,362,719606,5,0,0:0:0:0:
349,362,719690,1,0,0:0:0:0:
349,362,719774,2,0,B|380:343|380:343|391:261,1,90
298,81,720111,2,0,B|267:100|267:100|256:182,1,90
277,378,720448,1,0,0:0:0:0:
385,179,720617,5,0,0:0:0:0:
385,179,720701,1,0,0:0:0:0:
385,179,720785,2,0,B|417:147|417:147|418:62,1,90
197,53,721122,2,0,B|165:85|165:85|164:170,1,90
309,290,721460,1,0,0:0:0:0:
97,361,721628,6,0,L|88:261,1,90
301,201,721965,2,0,L|310:301,1,90
96,279,722302,5,0,0:0:0:0:
96,279,722387,1,0,0:0:0:0:
96,279,722471,2,0,L|188:299,1,90
388,181,722808,2,0,L|296:201,1,90
74,208,723145,1,0,0:0:0:0:
269,320,723314,5,0,0:0:0:0:
269,320,723398,1,0,0:0:0:0:
269,320,723482,2,0,L|231:221,1,90
141,30,723819,2,0,L|103:129,1,90
25,324,724156,1,0,0:0:0:0:
193,174,724325,6,0,P|257:163|293:193,1,90
108,323,724662,2,0,P|44:334|8:304,1,90
108,114,724999,5,0,0:0:0:0:
195,320,725167,1,0,0:0:0:0:
260,104,725336,1,0,0:0:0:0:
67,245,725505,1,0,0:0:0:0:
337,255,725673,1,0,0:0:0:0:
108,114,725842,5,0,0:0:0:0:
337,255,726010,1,0,0:0:0:0:
300,42,726179,1,0,0:0:0:0:
205,245,726347,1,0,0:0:0:0:
404,140,726516,1,0,0:0:0:0:
379,362,726684,5,0,0:0:0:0:
280,174,726853,1,0,0:0:0:0:
493,224,727021,1,0,0:0:0:0:
284,309,727190,1,0,0:0:0:0:
404,140,727358,1,0,0:0:0:0:
379,362,727527,1,0,0:0:0:0:
280,174,727696,5,0,0:0:0:0:
67,245,727864,1,0,0:0:0:0:
175,46,728033,1,0,0:0:0:0:
205,245,728201,1,0,0:0:0:0:
76,52,728370,1,0,0:0:0:0:
280,174,728538,1,0,0:0:0:0:
53,171,728707,5,0,0:0:0:0:
260,104,728875,1,0,0:0:0:0:
195,320,729044,1,0,0:0:0:0:
108,114,729212,1,0,0:0:0:0:
284,309,729381,1,0,0:0:0:0:
53,171,729549,5,0,0:0:0:0:
280,174,729718,1,0,0:0:0:0:
108,323,729887,1,0,0:0:0:0:
108,114,730055,1,0,0:0:0:0:
195,320,730224,1,0,0:0:0:0:
280,174,730392,5,0,0:0:0:0:
311,175,730476,1,0,0:0:0:0:
341,194,730560,1,0,0:0:0:0:
362,223,730644,1,0,0:0:0:0:
371,257,730729,5,0,0:0:0:0:
367,293,730813,1,0,0:0:0:0:
351,324,730897,1,0,0:0:0:0:
324,348,730981,1,0,0:0:0:0:
290,360,731066,5,0,0:0:0:0:
254,360,731150,1,0,0:0:0:0:
221,346,731234,1,0,0:0:0:0:
195,320,731318,1,0,0:0:0:0:
182,286,731403,5,0,0:0:0:0:
177,250,731487,1,0,0:0:0:0:
188,216,731571,1,0,0:0:0:0:
211,189,731655,1,0,0:0:0:0:
253,179,731740,6,0,B|273:189|273:189|353:194,1,90
501,32,732078,1,0,0:0:0:0:
297,115,732246,2,0,P|249:103|203:122,1,90
60,283,732583,1,0,0:0:0:0:
253,179,732752,1,0,0:0:0:0:
66,54,732920,5,0,0:0:0:0:
183,183,733089,1,0,0:0:0:0:
0,326,733257,1,0,0:0:0:0:
211,247,733426,5,0,0:0:0:0:
0,326,733594,1,0,0:0:0:0:
225,315,733763,5,0,0:0:0:0:
0,326,733931,1,0,0:0:0:0:
218,383,734100,5,0,0:0:0:0:
0,326,734269,1,0,0:0:0:0:
183,183,734437,5,0,0:0:0:0:
183,183,734521,1,0,0:0:0:0:
183,183,734606,2,0,P|234:175|278:208,1,90
421,330,734943,6,0,L|401:209,1,90
369,18,735280,1,0,0:0:0:0:
389,355,735448,6,0,L|390:229,1,99.0000030212403
369,18,735785,1,0,0:0:0:0:
353,374,735954,6,0,L|376:249,1,107.999996704102
369,18,736291,1,0,0:0:0:0:
491,259,736460,5,0,0:0:0:0:
269,224,736628,1,0,0:0:0:0:
369,18,736797,1,0,0:0:0:0:
406,241,736965,1,0,0:0:0:0:
186,291,737134,6,0,B|161:261|161:261|166:193,1,90
288,21,737471,1,0,0:0:0:0:
269,224,737639,2,0,B|294:254|294:254|289:322,1,90
65,321,737976,1,0,0:0:0:0:
225,162,738145,1,0,0:0:0:0:
315,384,738313,5,0,0:0:0:0:
315,384,738398,1,0,0:0:0:0:
315,384,738482,1,0,0:0:0:0:
456,207,738651,1,0,0:0:0:0:
315,384,738819,5,0,0:0:0:0:
393,172,738988,1,0,0:0:0:0:
315,384,739156,5,0,0:0:0:0:
323,158,739325,1,0,0:0:0:0:
315,384,739493,5,0,0:0:0:0:
253,95,739662,1,0,0:0:0:0:
65,321,739830,5,0,0:0:0:0:
65,321,739915,1,0,0:0:0:0:
65,321,739999,1,0,0:0:0:0:
180,77,740167,1,0,0:0:0:0:
185,347,740336,1,0,0:0:0:0:
50,114,740505,5,0,0:0:0:0:
50,114,740589,1,0,0:0:0:0:
50,114,740673,6,0,L|205:69,1,135.000005149842
452,195,741010,2,0,L|297:150,1,135.000005149842
27,191,741347,2,0,L|72:346,1,135.000005149842
322,157,741684,5,0,0:0:0:0:
96,144,741853,5,0,0:0:0:0:
106,178,741937,1,0,0:0:0:0:
117,212,742021,1,0,0:0:0:0:
127,247,742105,1,0,0:0:0:0:
138,281,742190,5,0,0:0:0:0:
148,316,742274,1,0,0:0:0:0:
159,350,742358,1,0,0:0:0:0:
322,157,742527,5,0,0:0:0:0:
310,122,742611,1,0,0:0:0:0:
298,88,742695,1,0,0:0:0:0:
286,54,742779,1,0,0:0:0:0:
275,19,742864,5,0,0:0:0:0:
239,26,742948,1,0,0:0:0:0:
204,33,743032,1,0,0:0:0:0:
169,40,743116,1,0,0:0:0:0:
176,75,743201,5,0,0:0:0:0:
186,109,743285,1,0,0:0:0:0:
196,144,743369,1,0,0:0:0:0:
206,178,743453,1,0,0:0:0:0:
217,212,743538,5,0,0:0:0:0:
227,246,743622,1,0,0:0:0:0:
237,281,743706,1,0,0:0:0:0:
248,315,743790,1,0,0:0:0:0:
259,346,743875,5,0,0:0:0:0:
292,333,743959,1,0,0:0:0:0:
325,322,744043,1,0,0:0:0:0:
359,310,744127,1,0,0:0:0:0:
390,292,744212,5,0,0:0:0:0:
371,259,744296,1,0,0:0:0:0:
355,228,744380,1,0,0:0:0:0:
338,196,744464,1,0,0:0:0:0:
322,157,744549,5,0,0:0:0:0:
310,122,744633,1,0,0:0:0:0:
298,88,744717,1,0,0:0:0:0:
286,54,744801,1,0,0:0:0:0:
275,19,744886,5,0,0:0:0:0:
239,26,744970,1,0,0:0:0:0:
204,33,745054,1,0,0:0:0:0:
169,40,745138,1,0,0:0:0:0:
135,53,745224,5,0,0:0:0:0:
109,77,745308,1,0,0:0:0:0:
88,106,745392,1,0,0:0:0:0:
74,139,745476,1,0,0:0:0:0:
66,174,745561,5,0,0:0:0:0:
66,210,745645,1,0,0:0:0:0:
72,246,745729,1,0,0:0:0:0:
86,279,745813,1,0,0:0:0:0:
106,309,745898,5,0,0:0:0:0:
131,334,745982,1,0,0:0:0:0:
161,354,746066,1,0,0:0:0:0:
195,368,746150,1,0,0:0:0:0:
230,374,746235,5,0,0:0:0:0:
266,373,746319,1,0,0:0:0:0:
301,366,746403,1,0,0:0:0:0:
334,351,746488,1,0,0:0:0:0:
363,330,746572,5,0,0:0:0:0:
397,308,746656,1,0,0:0:0:0:
423,278,746740,1,0,0:0:0:0:
440,241,746824,1,0,0:0:0:0:
444,201,746909,5,0,0:0:0:0:
437,161,746993,1,0,0:0:0:0:
418,126,747077,1,0,0:0:0:0:
389,97,747161,1,0,0:0:0:0:
353,79,747246,5,0,0:0:0:0:
314,72,747330,1,0,0:0:0:0:
274,77,747414,1,0,0:0:0:0:
237,94,747498,1,0,0:0:0:0:
207,121,747583,5,0,0:0:0:0:
186,155,747667,1,0,0:0:0:0:
177,195,747751,1,0,0:0:0:0:
180,235,747836,1,0,0:0:0:0:
194,272,747920,5,0,0:0:0:0:
222,308,748004,1,0,0:0:0:0:
250,343,748088,1,0,0:0:0:0:
278,378,748172,1,0,0:0:0:0:
310,346,748257,5,0,0:0:0:0:
338,310,748341,1,0,0:0:0:0:
366,275,748425,1,0,0:0:0:0:
394,240,748509,1,0,0:0:0:0:
356,214,748594,5,0,0:0:0:0:
318,189,748678,1,0,0:0:0:0:
280,165,748762,1,0,0:0:0:0:
242,141,748846,1,0,0:0:0:0:
207,121,748931,5,0,0:0:0:0:
169,96,749015,1,0,0:0:0:0:
131,72,749099,1,0,0:0:0:0:
93,48,749183,1,0,0:0:0:0:
93,93,749269,5,0,0:0:0:0:
106,140,749353,1,0,0:0:0:0:
120,188,749437,1,0,0:0:0:0:
133,235,749521,1,0,0:0:0:0:
159,192,749606,5,0,0:0:0:0:
200,167,749690,1,0,0:0:0:0:
242,141,749774,1,0,0:0:0:0:
286,116,749858,1,0,0:0:0:0:
284,165,749943,5,0,0:0:0:0:
297,210,750028,1,0,0:0:0:0:
311,258,750112,1,0,0:0:0:0:
324,305,750196,1,0,0:0:0:0:
275,297,750280,5,0,0:0:0:0:
230,312,750365,1,0,0:0:0:0:
183,329,750449,1,0,0:0:0:0:
137,344,750533,1,0,0:0:0:0:
150,291,750617,5,0,0:0:0:0:
128,241,750701,1,0,0:0:0:0:
121,188,750785,1,0,0:0:0:0:
130,135,750869,1,0,0:0:0:0:
154,87,750954,5,0,0:0:0:0:
191,48,751038,1,0,0:0:0:0:
238,21,751122,1,0,0:0:0:0:
290,10,751206,1,0,0:0:0:0:
344,14,751291,5,0,0:0:0:0:
394,33,751375,1,0,0:0:0:0:
436,66,751459,1,0,0:0:0:0:
467,111,751543,1,0,0:0:0:0:
484,162,751628,5,0,0:0:0:0:
485,215,751712,1,0,0:0:0:0:
470,267,751796,1,0,0:0:0:0:
441,312,751881,1,0,0:0:0:0:
413,334,751965,5,0,0:0:0:0:
377,334,752049,1,0,0:0:0:0:
341,334,752133,1,0,0:0:0:0:
305,334,752217,1,0,0:0:0:0:
280,314,752302,5,0,0:0:0:0:
249,314,752386,1,0,0:0:0:0:
217,314,752470,1,0,0:0:0:0:
186,314,752554,1,0,0:0:0:0:
166,333,752639,5,0,0:0:0:0:
139,333,752723,1,0,0:0:0:0:
112,333,752807,1,0,0:0:0:0:
85,333,752891,1,0,0:0:0:0:
66,319,752976,5,0,0:0:0:0:
66,297,753060,1,0,0:0:0:0:
66,274,753144,1,0,0:0:0:0:
66,252,753228,1,0,0:0:0:0:
66,224,753313,6,0,B|56:158|56:158|103:83,1,135.000005149842
245,28,753819,2,0,L|268:177,1,135.000005149842
135,263,754325,2,0,L|152:169,1,67.5000025749208
172,29,754662,5,0,0:0:0:0:
358,90,754830,2,0,P|362:128|344:178,1,67.5000025749208
291,313,755167,5,0,0:0:0:0:
132,329,755336,2,0,P|128:291|146:241,1,67.5000025749208
177,96,755673,5,0,0:0:0:0:
355,156,755842,1,0,0:0:0:0:
195,222,756010,6,0,B|164:163|164:163|180:84,1,135.000005149842
352,84,756516,2,0,P|402:100|424:174,1,135.000005149842
243,265,757021,2,0,P|214:252|193:213,1,67.5000025749208
106,78,757358,5,0,0:0:0:0:
267,126,757527,2,0,L|284:211,1,67.5000025749208
106,306,757864,5,0,0:0:0:0:
63,140,758033,5,0,0:0:0:0:
156,162,758145,1,0,0:0:0:0:
96,206,758257,5,0,0:0:0:0:
31,275,758370,1,0,0:0:0:0:
128,71,758538,1,0,0:0:0:0:
167,246,758707,6,0,B|185:313|185:313|161:386,1,135.000005149842
31,275,759212,2,0,L|-13:132,1,135.000005149842
156,162,759718,2,0,L|244:179,1,67.5000025749208
321,311,760055,5,0,0:0:0:0:
297,143,760224,2,0,P|265:100|231:95,1,67.5000025749208
167,246,760561,5,0,0:0:0:0:
297,143,760729,2,0,P|329:100|363:95,1,67.5000025749208
373,261,761066,5,0,0:0:0:0:
222,174,761235,1,0,0:0:0:0:
403,135,761403,6,0,B|408:199|408:199|372:260,1,135.000005149842
167,246,761909,2,0,P|131:200|148:122,1,135.000005149842
297,143,762415,2,0,P|303:180|282:226,1,67.5000025749208
167,246,762752,5,0,0:0:0:0:
224,87,762920,1,0,0:0:0:0:
276,374,763089,5,0,0:0:0:0:
167,246,763257,1,0,0:0:0:0:
224,87,763426,1,0,0:0:0:0:
365,230,763594,1,0,0:0:0:0:
391,57,763763,1,0,0:0:0:0:
224,87,763931,5,0,0:0:0:0:
315,162,764100,2,0,P|358:199|363:241,1,90
190,104,764606,5,0,0:0:0:0:
301,143,764775,2,0,P|354:163|373:201,1,90
163,132,765280,5,0,0:0:0:0:
281,131,765449,2,0,P|338:131|369:160,1,90
149,167,765954,5,0,0:0:0:0:
259,125,766123,2,0,P|313:107|351:123,1,90
149,167,766629,5,0,0:0:0:0:
245,224,766797,2,0,P|260:253|262:327,1,90
149,167,767303,5,0,0:0:0:0:
185,273,767471,2,0,P|187:317|157:361,1,90
149,167,767977,5,0,0:0:0:0:
115,298,768146,2,0,P|99:326|40:371,1,90
149,167,768651,5,0,0:0:0:0:
40,284,768820,2,0,P|24:242|40:190,1,90
149,167,769324,5,0,0:0:0:0:
212,260,769493,2,0,P|226:302|208:353,1,90
342,117,769998,5,0,0:0:0:0:
230,115,770167,2,0,P|187:102|156:58,1,90
268,305,770672,5,0,0:0:0:0:
333,214,770841,2,0,P|368:187|422:186,1,90
156,136,771347,5,0,0:0:0:0:
192,242,771516,2,0,P|195:286|164:331,1,90
156,136,772021,5,0,0:0:0:0:
259,91,772190,2,0,L|276:141,1,45
203,221,772527,2,0,L|220:171,1,45
330,184,772864,6,0,L|390:196,1,45
470,251,773201,2,0,L|410:263,1,45
280,265,773538,5,0,0:0:0:0:
307,246,773622,1,0,0:0:0:0:
326,218,773706,1,0,0:0:0:0:
330,184,773790,1,0,0:0:0:0:
271,347,773960,5,0,0:0:0:0:
239,336,774044,1,0,0:0:0:0:
213,314,774128,1,0,0:0:0:0:
200,282,774213,1,0,0:0:0:0:
332,105,774465,5,0,0:0:0:0:
364,116,774549,1,0,0:0:0:0:
390,138,774633,1,0,0:0:0:0:
403,170,774718,5,0,0:0:0:0:
433,278,774887,2,0,P|446:319|435:363,1,90
390,138,775392,5,0,0:0:0:0:
420,246,775561,2,0,P|433:287|422:331,1,90
364,116,776066,5,0,0:0:0:0:
394,224,776235,2,0,P|407:265|396:309,1,90
284,319,776740,2,0,P|262:259|295:185,1,135
364,116,777415,5,0,0:0:0:0:
252,131,777583,2,0,P|210:167|198:200,1,90
364,116,778089,5,0,0:0:0:0:
198,63,778257,2,0,P|240:99|252:132,1,90
123,116,778763,5,0,0:0:0:0:
417,48,778931,2,0,P|375:84|363:117,1,90
251,130,779437,5,0,0:0:0:0:
69,48,779606,2,0,P|111:84|123:117,1,90
251,130,780111,5,0,0:0:0:0:
151,182,780280,2,0,P|85:177|58:147,1,90
251,130,780785,5,0,0:0:0:0:
337,188,780954,2,0,P|404:186|431:156,1,90
251,130,781460,5,0,0:0:0:0:
207,233,781628,2,0,P|191:298|213:332,1,90
251,130,782134,5,0,0:0:0:0:
268,280,782302,2,0,P|283:345|261:379,1,90
251,130,782808,5,0,0:0:0:0:
337,188,782976,2,0,P|352:253|330:287,1,90
258,137,783482,5,0,0:0:0:0:
258,137,783566,1,0,0:0:0:0:
258,137,783651,1,0,0:0:0:0:
413,159,783819,1,0,0:0:0:0:
274,235,783988,1,0,0:0:0:0:
331,0,784156,6,0,L|316:64,1,45
79,43,796460,6,0,L|221:79,1,135.000005149842
387,62,796965,1,0,0:0:0:0:
387,62,797134,2,0,L|350:207,1,135.000005149842
209,76,797639,1,0,0:0:0:0:
126,223,797808,6,0,L|278:256,1,135.000005149842
425,264,798313,1,0,0:0:0:0:
425,264,798482,2,0,L|458:133,1,135.000005149842
284,187,798988,1,0,0:0:0:0:
271,50,799156,6,0,L|206:77,1,67.5000025749208
284,187,799493,2,0,L|280:116,1,67.5000025749208
126,223,799830,6,0,L|61:250,1,67.5000025749208
287,254,800167,2,0,L|283:183,1,67.5000025749208
127,371,800505,2,0,L|123:300,1,67.5000025749208
118,134,800842,6,0,L|192:147,1,67.5000025749208
369,210,801179,2,0,L|379:121,1,67.5000025749208
223,243,801516,6,0,P|262:258|297:249,1,67.5000025749208
450,297,801853,2,0,P|462:257|450:222,1,67.5000025749208
441,108,802190,2,0,P|400:70|303:145,1,202.500007724762
307,326,802864,6,0,P|346:341|381:332,1,67.5000025749208
366,154,803201,2,0,P|327:139|292:148,1,67.5000025749208
450,297,803538,1,0,0:0:0:0:
208,184,803707,6,0,P|248:126|312:156,1,135.000005149842
450,297,804212,1,0,0:0:0:0:
302,142,804381,1,0,0:0:0:0:
226,286,804549,6,0,P|214:348|227:373,1,67.5000025749208
375,295,804887,1,0,0:0:0:0:
302,142,805055,1,0,0:0:0:0:
292,324,805224,5,0,0:0:0:0:
375,162,805392,1,0,0:0:0:0:
437,370,805561,5,0,0:0:0:0:
375,162,805729,1,0,0:0:0:0:
226,286,805898,5,0,0:0:0:0:
247,96,806066,1,0,0:0:0:0:
435,215,806235,5,0,0:0:0:0:
306,34,806403,1,0,0:0:0:0:
289,252,806572,5,0,0:0:0:0:
391,39,806740,1,0,0:0:0:0:
143,79,806909,5,0,0:0:0:0:
375,162,807078,1,0,0:0:0:0:
143,143,807246,2,0,B|133:112|133:112|149:55,1,67.5000025749208
391,39,807583,5,0,0:0:0:0:
424,41,807667,1,0,0:0:0:0:
455,54,807751,1,0,0:0:0:0:
480,76,807835,1,0,0:0:0:0:
501,111,807920,5,0,0:0:0:0:
512,148,808004,1,0,0:0:0:0:
512,188,808088,1,0,0:0:0:0:
512,228,808172,1,0,0:0:0:0:
498,273,808257,5,0,0:0:0:0:
474,314,808341,1,0,0:0:0:0:
437,343,808425,1,0,0:0:0:0:
389,344,808510,1,0,0:0:0:0:
344,340,808594,6,0,L|208:307,1,135
136,250,808931,2,0,L|275:212,1,135
381,133,809269,5,0,0:0:0:0:
337,122,809353,1,0,0:0:0:0:
293,111,809437,1,0,0:0:0:0:
249,101,809521,1,0,0:0:0:0:
195,85,809606,5,0,0:0:0:0:
142,72,809690,1,0,0:0:0:0:
90,59,809774,1,0,0:0:0:0:
37,46,809858,1,0,0:0:0:0:
11,94,809943,6,0,B|-43:159|19:250,1,135
22,265,810280,1,0,0:0:0:0:
249,101,810448,5,0,0:0:0:0:
108,340,810617,2,0,L|86:193,1,135
79,157,810954,1,0,0:0:0:0:
337,122,811122,5,0,0:0:0:0:
158,197,811291,2,0,B|174:142|174:142|141:35,1,135
130,22,811628,1,0,0:0:0:0:
1,220,811797,1,0,0:0:0:0:
130,22,811965,5,0,0:0:0:0:
301,183,812134,1,0,0:0:0:0:
79,217,812302,1,0,0:0:0:0:
251,107,812471,1,0,0:0:0:0:
132,276,812639,6,0,P|94:260|89:190,1,90
301,183,812976,2,0,P|340:200|354:242,1,90
78,216,813313,6,0,L|26:137,1,90
251,107,813651,2,0,L|300:182,1,90
147,348,813988,1,0,0:0:0:0:
144,123,814156,1,0,0:0:0:0:
301,284,814325,6,0,L|311:379,1,90
153,212,814662,2,0,L|143:117,1,90
423,149,814999,2,0,L|433:244,1,90
210,265,815336,6,0,P|150:292|86:248,1,135
76,214,815673,1,0,0:0:0:0:
292,150,815842,5,0,0:0:0:0:
196,366,816010,2,0,L|59:366,1,135
11,366,816347,1,0,0:0:0:0:
292,150,816516,5,0,0:0:0:0:
429,306,816684,2,0,B|390:336|390:336|305:330,1,135
256,321,817021,1,0,0:0:0:0:
311,78,817190,5,0,0:0:0:0:
196,280,817358,2,0,B|182:317|182:317|199:380,1,90
375,228,817696,2,0,B|389:191|389:191|372:128,1,90
175,38,818033,5,0,0:0:0:0:
134,38,818117,1,0,0:0:0:0:
97,53,818201,1,0,0:0:0:0:
67,80,818285,1,0,0:0:0:0:
47,115,818370,6,0,L|55:176,1,45
123,247,818538,2,0,L|130:186,1,45
175,38,818707,5,0,0:0:0:0:
216,38,818791,1,0,0:0:0:0:
253,53,818875,1,0,0:0:0:0:
283,80,818959,1,0,0:0:0:0:
303,115,819044,6,0,P|316:161|296:215,1,90
115,328,819381,5,0,0:0:0:0:
119,287,819465,1,0,0:0:0:0:
123,247,819549,1,0,0:0:0:0:
128,202,819633,1,0,0:0:0:0:
76,197,819718,5,0,0:0:0:0:
52,159,819802,1,0,0:0:0:0:
47,115,819886,1,0,0:0:0:0:
67,80,819970,1,0,0:0:0:0:
111,102,820055,5,0,0:0:0:0:
156,121,820139,1,0,0:0:0:0:
201,141,820223,1,0,0:0:0:0:
247,161,820307,1,0,0:0:0:0:
232,213,820392,5,0,0:0:0:0:
257,259,820476,1,0,0:0:0:0:
307,276,820560,1,0,0:0:0:0:
356,255,820644,1,0,0:0:0:0:
396,218,820729,6,0,P|425:149|381:72,1,135
365,66,821066,1,0,0:0:0:0:
156,121,821235,5,0,0:0:0:0:
396,218,821403,2,0,L|399:363,1,135
400,384,821740,1,0,0:0:0:0:
482,174,821909,5,0,0:0:0:0:
269,224,822078,2,0,B|244:258|244:258|245:352,1,135
247,384,822415,1,0,0:0:0:0:
469,352,822583,5,0,0:0:0:0:
335,169,822752,1,0,0:0:0:0:
247,384,822920,1,0,0:0:0:0:
436,260,823089,1,0,0:0:0:0:
235,158,823257,1,0,0:0:0:0:
458,186,823426,6,0,P|499:213|509:274,1,90
301,319,823763,2,0,P|260:346|250:407,1,90
436,260,824100,6,0,L|333:260,1,90
145,158,824437,2,0,L|235:158,1,90
458,186,824774,1,0,0:0:0:0:
318,384,824943,1,0,0:0:0:0:
235,158,825111,6,0,L|214:63,1,90
326,172,825448,2,0,L|345:259,1,90
121,236,825785,2,0,L|25:245,1,90
152,37,826122,6,0,B|175:6|175:6|246:-3,1,90
448,46,826460,2,0,B|425:77|425:77|374:83,1,90
145,158,826797,1,0,0:0:0:0:
318,16,826965,1,0,0:0:0:0:
250,233,827134,6,0,B|220:255|220:255|217:307,1,90
425,260,827471,2,0,B|455:238|455:238|457:185,1,90
233,158,827808,1,0,0:0:0:0:
347,289,827976,6,0,B|384:331|384:331|516:354,1,180
359,181,828482,1,0,0:0:0:0:
248,377,828651,1,0,0:0:0:0:
277,149,828819,6,0,L|223:160,1,45
127,200,828988,5,0,0:0:0:0:
127,200,829072,1,0,0:0:0:0:
127,200,829157,1,0,0:0:0:0:
391,115,829325,6,0,L|337:126,1,45
241,166,829494,5,0,0:0:0:0:
241,166,829578,1,0,0:0:0:0:
241,166,829663,1,0,0:0:0:0:
127,200,829830,6,0,L|146:248,1,45
257,207,829999,2,0,L|240:165,1,45
115,115,830167,6,0,B|62:130|62:130|27:257,1,161.999995056153
146,349,830505,6,0,B|168:302|168:302|122:188,1,161.999995056153
33,232,830842,6,0,B|13:284|13:284|52:388,1,161.999995056153
213,381,831179,6,0,B|255:294|255:294|233:249,1,135
231,89,831516,6,0,P|159:78|105:140,1,135
95,161,831853,1,0,0:0:0:0:
308,230,832021,5,0,0:0:0:0:
159,12,832190,2,0,L|187:165,1,135
194,193,832527,1,0,0:0:0:0:
368,49,832696,1,0,0:0:0:0:
194,193,832864,6,0,B|139:192|139:192|48:257,1,135
39,275,833201,1,0,0:0:0:0:
244,367,833370,1,0,0:0:0:0:
265,143,833538,5,0,0:0:0:0:
112,309,833707,1,0,0:0:0:0:
333,272,833875,1,0,0:0:0:0:
73,238,834044,1,0,0:0:0:0:
230,77,834212,6,0,P|290:73|333:117,1,90
264,274,834549,2,0,P|223:292|180:284,1,90
346,180,834887,6,0,L|253:137,1,90
6,177,835224,2,0,L|78:242,1,90
257,367,835561,6,0,B|302:368|302:368|376:300,1,135
368,307,835898,6,0,B|323:306|323:306|256:366,1,135
256,366,836235,6,0,B|236:328|236:328|265:234,1,135
262,241,836572,6,0,B|316:246|316:246|387:330,1,135
313,171,836909,6,0,P|233:166|182:204,1,135
181,244,837246,1,0,0:0:0:0:
368,307,837415,5,0,0:0:0:0:
306,85,837583,2,0,L|162:97,1,135
122,104,837920,1,0,0:0:0:0:
262,241,838089,5,0,0:0:0:0:
378,49,838257,2,0,B|351:11|351:11|227:-6,1,135
212,0,838594,1,0,0:0:0:0:
262,241,838763,5,0,0:0:0:0:
442,108,838931,5,0,0:0:0:0:
262,241,839100,1,0,0:0:0:0:
139,35,839269,1,0,0:0:0:0:
329,153,839437,1,0,0:0:0:0:
134,119,839606,5,0,0:0:0:0:
90,112,839690,1,0,0:0:0:0:
57,82,839774,1,0,0:0:0:0:
47,39,839858,1,0,0:0:0:0:
62,0,839943,1,0,0:0:0:0:
286,1,840111,5,0,0:0:0:0:
134,119,840280,1,0,0:0:0:0:
329,153,840448,5,0,0:0:0:0:
334,198,840533,1,0,0:0:0:0:
342,242,840617,6,0,L|350:286,1,45
263,357,840785,2,0,L|271:312,1,45
329,153,840954,5,0,0:0:0:0:
288,134,841038,1,0,0:0:0:0:
243,137,841122,1,0,0:0:0:0:
205,160,841206,1,0,0:0:0:0:
168,127,841291,5,0,0:0:0:0:
168,176,841375,1,0,0:0:0:0:
168,226,841459,1,0,0:0:0:0:
168,275,841543,1,0,0:0:0:0:
120,248,841628,5,0,0:0:0:0:
67,249,841712,1,0,0:0:0:0:
29,212,841796,1,0,0:0:0:0:
27,160,841880,1,0,0:0:0:0:
82,182,841965,5,0,0:0:0:0:
98,127,842049,1,0,0:0:0:0:
68,79,842133,1,0,0:0:0:0:
10,79,842217,1,0,0:0:0:0:
40,28,842302,6,0,P|93:21|127:97,1,135
98,127,842639,1,0,0:0:0:0:
300,26,842808,5,0,0:0:0:0:
98,127,842976,2,0,L|109:273,1,135
112,312,843313,1,0,0:0:0:0:
305,196,843482,5,0,0:0:0:0:
98,127,843651,2,0,B|54:148|54:148|14:259,1,135
10,276,843988,1,0,0:0:0:0:
232,249,844156,5,0,0:0:0:0:
98,127,844325,5,0,0:0:0:0:
208,322,844493,1,0,0:0:0:0:
306,119,844662,1,0,0:0:0:0:
123,249,844830,1,0,0:0:0:0:
257,68,844999,6,0,P|299:47|362:79,1,90
311,280,845336,2,0,P|267:288|228:268,1,90
401,123,845673,6,0,L|425:30,1,90
175,93,846010,2,0,L|151:0,1,90
326,149,846347,5,0,0:0:0:0:
98,127,846516,1,0,0:0:0:0:
311,280,846684,6,0,L|300:375,1,90
164,182,847021,2,0,L|175:87,1,90
401,155,847358,2,0,L|390:244,1,90
249,66,847696,6,0,B|232:37|232:37|155:3,1,90
89,220,848033,2,0,B|106:249|106:249|183:283,1,90
312,107,848370,1,0,0:0:0:0:
62,153,848538,1,0,0:0:0:0:
231,301,848707,6,0,B|208:334|208:334|136:365,1,90
180,118,849044,2,0,B|203:85|203:85|275:54,1,90
309,282,849381,1,0,0:0:0:0:
119,162,849549,6,0,B|101:107|101:107|173:-2,1,180
309,282,850055,5,0,0:0:0:0:
180,118,850224,1,0,0:0:0:0:
268,301,850392,6,0,L|332:271,1,45
387,200,850561,5,0,0:0:0:0:
387,200,850645,1,0,0:0:0:0:
387,200,850729,1,0,0:0:0:0:
162,223,850898,6,0,L|180:274,1,45
393,360,851066,5,0,0:0:0:0:
393,360,851151,1,0,0:0:0:0:
393,360,851235,1,0,0:0:0:0:
169,344,851403,6,0,P|92:357|33:304,1,135
94,177,851740,6,0,B|178:102|267:170|246:296,1,270
31,220,852415,6,0,B|-12:147|69:61|175:64|212:83,1,270
405,160,853089,5,0,0:0:0:0:
405,160,853173,1,0,0:0:0:0:
405,160,853257,2,0,P|421:209|399:262,1,90
202,162,853594,2,0,P|186:113|208:60,1,90
414,24,853931,1,0,0:0:0:0:
275,201,854100,5,0,0:0:0:0:
275,201,854184,1,0,0:0:0:0:
275,201,854269,2,0,L|266:313,1,90
52,358,854606,2,0,L|44:268,1,90
202,162,854943,1,0,0:0:0:0:
302,362,855111,6,0,B|340:333|340:333|343:262,1,90
271,119,855448,2,0,B|223:125|223:125|201:161,1,90
133,353,855785,5,0,0:0:0:0:
133,353,855870,1,0,0:0:0:0:
133,353,855954,2,0,B|144:306|144:306|116:225,1,90
38,60,856291,2,0,B|27:107|27:107|55:188,1,90
230,268,856628,1,0,0:0:0:0:
128,71,856797,5,0,0:0:0:0:
128,71,856881,1,0,0:0:0:0:
128,71,856965,2,0,B|109:101|109:101|137:175,1,90
296,302,857302,2,0,B|315:272|315:272|287:198,1,90
191,21,857639,1,0,0:0:0:0:
110,234,857808,6,0,B|175:237|175:237|145:210,1,90
255,25,858145,2,0,B|190:22|190:22|220:49,1,90
379,186,858482,5,0,0:0:0:0:
171,96,858651,1,0,0:0:0:0:
192,319,858819,5,0,0:0:0:0:
379,186,858988,1,0,0:0:0:0:
159,230,859156,5,0,0:0:0:0:
336,90,859325,1,0,0:0:0:0:
286,308,859493,5,0,0:0:0:0:
171,96,859662,1,0,0:0:0:0:
111,312,859830,5,0,0:0:0:0:
250,134,859999,1,0,0:0:0:0:
239,361,860167,5,0,0:0:0:0:
379,186,860336,1,0,0:0:0:0:
154,162,860505,5,0,0:0:0:0:
336,90,860673,1,0,0:0:0:0:
359,302,860842,5,0,0:0:0:0:
154,162,861010,1,0,0:0:0:0:
326,16,861179,5,0,0:0:0:0:
449,203,861347,1,0,0:0:0:0:
229,254,861516,5,0,0:0:0:0:
326,16,861684,1,0,0:0:0:0:
379,186,861853,5,0,0:0:0:0:
242,58,862021,1,0,0:0:0:0:
466,36,862190,5,0,0:0:0:0:
379,186,862358,1,0,0:0:0:0:
326,16,862527,5,0,0:0:0:0:
154,162,862696,1,0,0:0:0:0:
379,186,862864,5,0,0:0:0:0:
154,162,863033,1,0,0:0:0:0:
241,341,863201,5,0,0:0:0:0:
154,162,863370,1,0,0:0:0:0:
24,345,863538,5,0,0:0:0:0:
154,162,863707,1,0,0:0:0:0:
241,341,863875,5,0,0:0:0:0:
250,325,863959,1,0,0:0:0:0:
256,307,864043,1,0,0:0:0:0:
257,290,864128,1,0,0:0:0:0:
258,271,864212,5,0,0:0:0:0:
257,249,864296,1,0,0:0:0:0:
251,228,864380,1,0,0:0:0:0:
238,212,864464,1,0,0:0:0:0:
220,192,864549,5,0,0:0:0:0:
195,191,864633,1,0,0:0:0:0:
172,180,864717,1,0,0:0:0:0:
154,162,864801,1,0,0:0:0:0:
147,136,864887,5,0,0:0:0:0:
147,111,864970,1,0,0:0:0:0:
157,87,865054,1,0,0:0:0:0:
174,69,865138,1,0,0:0:0:0:
198,53,865224,5,0,0:0:0:0:
223,45,865308,1,0,0:0:0:0:
249,45,865392,1,0,0:0:0:0:
275,48,865476,1,0,0:0:0:0:
305,57,865561,5,0,0:0:0:0:
331,76,865645,1,0,0:0:0:0:
347,103,865729,1,0,0:0:0:0:
351,136,865813,1,0,0:0:0:0:
352,172,865898,5,0,0:0:0:0:
343,206,865982,1,0,0:0:0:0:
351,242,866066,1,0,0:0:0:0:
372,270,866150,1,0,0:0:0:0:
412,278,866235,5,0,0:0:0:0:
443,253,866319,1,0,0:0:0:0:
458,216,866403,1,0,0:0:0:0:
455,177,866487,1,0,0:0:0:0:
424,137,866572,5,0,0:0:0:0:
389,110,866656,1,0,0:0:0:0:
347,103,866740,1,0,0:0:0:0:
306,116,866824,1,0,0:0:0:0:
284,154,866909,5,0,0:0:0:0:
257,196,866993,1,0,0:0:0:0:
215,223,867077,1,0,0:0:0:0:
165,228,867161,1,0,0:0:0:0:
115,203,867246,5,0,0:0:0:0:
79,163,867330,1,0,0:0:0:0:
76,109,867414,1,0,0:0:0:0:
107,66,867498,1,0,0:0:0:0:
165,58,867583,5,0,0:0:0:0:
218,77,867667,1,0,0:0:0:0:
256,120,867751,1,0,0:0:0:0:
269,176,867835,1,0,0:0:0:0:
253,232,867920,5,0,0:0:0:0:
231,288,868004,1,0,0:0:0:0:
254,344,868088,1,0,0:0:0:0:
308,370,868172,1,0,0:0:0:0:
369,344,868257,5,0,0:0:0:0:
416,299,868341,1,0,0:0:0:0:
441,240,868425,1,0,0:0:0:0:
439,175,868509,1,0,0:0:0:0:
404,122,868594,5,0,0:0:0:0:
352,78,868678,1,0,0:0:0:0:
285,62,868762,1,0,0:0:0:0:
218,77,868846,1,0,0:0:0:0:
161,122,868931,5,0,0:0:0:0:
114,175,869015,1,0,0:0:0:0:
112,246,869099,1,0,0:0:0:0:
157,302,869183,1,0,0:0:0:0:
220,338,869269,6,0,P|259:340|300:305,1,90
307,170,869606,2,0,P|258:167|207:210,1,90
370,305,869943,6,0,P|392:244|361:197,1,90
149,230,870280,2,0,P|127:291|158:338,1,90
307,170,870617,5,0,0:0:0:0:
303,112,870701,1,0,0:0:0:0:
273,62,870785,1,0,0:0:0:0:
224,31,870869,1,0,0:0:0:0:
166,26,870954,1,0,0:0:0:0:
113,48,871038,1,0,0:0:0:0:
72,96,871122,5,0,0:0:0:0:
52,155,871206,1,0,0:0:0:0:
56,217,871290,1,0,0:0:0:0:
85,273,871374,1,0,0:0:0:0:
134,312,871459,1,0,0:0:0:0:
197,320,871544,1,0,0:0:0:0:
260,298,871628,5,0,0:0:0:0:
299,244,871712,1,0,0:0:0:0:
362,221,871796,1,0,0:0:0:0:
427,234,871880,1,0,0:0:0:0:
475,280,871965,1,0,0:0:0:0:
499,343,872049,1,0,0:0:0:0:
495,211,872134,5,0,0:0:0:0:
