osu file format v14

[General]
AudioFilename: audio.mp3
AudioLeadIn: 0
PreviewTime: 12632
Countdown: 0
SampleSet: Normal
StackLeniency: 0.7
Mode: 3
LetterboxInBreaks: 0
SpecialStyle: 0
WidescreenStoryboard: 1

[Editor]
Bookmarks: -65,2836,10183,12632,22428,29315,32223,42019,50590,55488,71406,81201,98344,100792
DistanceSpacing: 1
BeatDivisor: 8
GridSize: 8
TimelineZoom: 1.1

[Metadata]
Title:Sold On Your Love
TitleUnicode:Sold On Your Love
Artist:Mellow Funk Sound
ArtistUnicode:Mellow Funk Sound
Creator:DJBurbz
Version:MX
Source:DJ Max Ray
Tags:DJMAX DJ Max Ray RnB Funky Smooth
BeatmapID:1510694
BeatmapSetID:714954

[Difficulty]
HPDrainRate:7.5
CircleSize:6
OverallDifficulty:6.8
ApproachRate:5
SliderMultiplier:0.999999904632566
SliderTickRate:1

[Events]
//Background and Video events
0,0,"bg.png",0,0
//Break Periods
//Storyboard Layer 0 (Background)
//Storyboard Layer 1 (Fail)
//Storyboard Layer 2 (Pass)
//Storyboard Layer 3 (Foreground)
//Storyboard Sound Samples
Sample,10183,0,"1-brassstring-01.mp3",70
Sample,10183,0,"1- pianogt-01.mp3",70
Sample,10336,0,"1- pianogt-02.mp3",70
Sample,10489,0,"1- pianogt-03.mp3",70
Sample,10642,0,"1- pianogt-04.mp3",70
Sample,10795,0,"1-brassstring-02.mp3",70
Sample,11407,0,"1-brassstring-03.mp3",70
Sample,11407,0,"1- pianogt-05.mp3",70
Sample,12020,0,"1-brassstring-04.mp3",70
Sample,12632,0,"1-hh-01.mp3",70
Sample,12632,0,"1- pianogt-06.mp3",70
Sample,12785,0,"1- pianogt-07.mp3",70
Sample,12938,0,"1- pianogt-08.mp3",70
Sample,13091,0,"1- pianogt-09.mp3",70
Sample,13856,0,"1- pianogt-10.mp3",70
Sample,14009,0,"1- pianogt-11.mp3",70
Sample,14162,0,"1- pianogt-12.mp3",70
Sample,14316,0,"1- pianogt-13.mp3",70
Sample,15081,0,"1- pianogt-14.mp3",50
Sample,15081,0,"1- pianogt-14.mp3",70
Sample,15234,0,"1- pianogt-15.mp3",70
Sample,15387,0,"1- pianogt-16.mp3",70
Sample,15540,0,"1- pianogt-17.mp3",70
Sample,16611,0,"1- pianogt-19.mp3",70
Sample,16917,0,"1-hh-01.mp3",70
Sample,17071,0,"1- pianogt-20.mp3",70
Sample,17530,0,"1- pianogt-06.mp3",70
Sample,17683,0,"1- pianogt-07.mp3",70
Sample,17836,0,"1- pianogt-08.mp3",70
Sample,17989,0,"1- pianogt-09.mp3",70
Sample,18754,0,"1- pianogt-10.mp3",70
Sample,18907,0,"1- pianogt-11.mp3",70
Sample,19060,0,"1- pianogt-12.mp3",70
Sample,19213,0,"1- pianogt-13.mp3",70
Sample,19979,0,"1-pianogt-36.mp3",70
Sample,20132,0,"1-pianogt-37.mp3",70
Sample,20285,0,"1-pianogt-38.mp3",70
Sample,20438,0,"1-pianogt-39.mp3",70
Sample,20591,0,"1-hh-01.mp3",70
Sample,20897,0,"1-hh-02.mp3",70
Sample,21050,0,"1-scratch-01.mp3",70
Sample,21127,0,"1-scratch-02.mp3",70
Sample,21165,0,"1-scratch-03.mp3",70
Sample,21203,0,"1-pianogt-40.mp3",70
Sample,21203,0,"1-scratch-04.mp3",70
Sample,21356,0,"1-scratch-05.mp3",70
Sample,21509,0,"1-scratch-04.mp3",70
Sample,21662,0,"1-scratch-05.mp3",70
Sample,21815,0,"1-scratch-06.mp3",70
Sample,22121,0,"1-hh-02.mp3",70
Sample,22428,0,"1-cym-01.mp3",70
Sample,22428,0,"1- pianogt-06.mp3",70
Sample,22581,0,"1- pianogt-07.mp3",70
Sample,22734,0,"1- pianogt-08.mp3",70
Sample,22887,0,"1- pianogt-09.mp3",70
Sample,23652,0,"1- pianogt-10.mp3",70
Sample,23805,0,"1- pianogt-11.mp3",70
Sample,23958,0,"1- pianogt-12.mp3",70
Sample,24111,0,"1- pianogt-13.mp3",70
Sample,24876,0,"1- pianogt-14.mp3",70
Sample,25029,0,"1- pianogt-15.mp3",70
Sample,25183,0,"1- pianogt-16.mp3",70
Sample,25336,0,"1- pianogt-17.mp3",70
Sample,26407,0,"1- pianogt-18.mp3",70
Sample,26713,0,"1-hh-01.mp3",70
Sample,26866,0,"1- pianogt-19.mp3",70
Sample,27325,0,"1- pianogt-06.mp3",70
Sample,27478,0,"1- pianogt-07.mp3",70
Sample,27631,0,"1- pianogt-08.mp3",70
Sample,27785,0,"1- pianogt-09.mp3",70
Sample,28550,0,"1- pianogt-10.mp3",70
Sample,28703,0,"1- pianogt-11.mp3",70
Sample,28856,0,"1- pianogt-12.mp3",70
Sample,29009,0,"1- pianogt-13.mp3",70
Sample,29774,0,"1-pianogt-36.mp3",70
Sample,29774,0,"1-brassstring-16.mp3",70
Sample,29927,0,"1-pianogt-37.mp3",70
Sample,30080,0,"1-pianogt-38.mp3",70
Sample,30233,0,"1-pianogt-39.mp3",70
Sample,30386,0,"1-brassstring-21.mp3",70
Sample,30386,0,"1-hh-01.mp3",70
Sample,30540,0,"1-scratch-05.mp3",70
Sample,30693,0,"1-scratch-01.mp3",70
Sample,30769,0,"1-scratch-03.mp3",70
Sample,30769,0,"1-scratch-02.mp3",100
Sample,30846,0,"1-scratch-03.mp3",100
Sample,30999,0,"1-pianogt-40.mp3",70
Sample,30999,0,"1-scratch-04.mp3",70
Sample,31152,0,"1-scratch-05.mp3",70
Sample,31305,0,"1-kick-01.mp3",70
Sample,31305,0,"1-scratch-04.mp3",70
Sample,31458,0,"1-scratch-05.mp3",70
Sample,31611,0,"1-scratch-06.mp3",70
Sample,31611,0,"1-hh-01.mp3",70
Sample,31917,0,"1-hh-02.mp3",70
Sample,32223,0,"1-kick-01.mp3",70
Sample,32223,0,"1-hh-01.mp3",70
Sample,32376,0,"1-kick-01.mp3",70
Sample,32529,0,"1-hh-02.mp3",70
Sample,32835,0,"1-snare-01.mp3",70
Sample,32835,0,"1-hh-01.mp3",70
Sample,33141,0,"1-hh-02.mp3",70
Sample,33448,0,"1-hh-01.mp3",70
Sample,33754,0,"1-kick-01.mp3",70
Sample,33754,0,"1-hh-02.mp3",70
Sample,34060,0,"1-hh-01.mp3",70
Sample,34060,0,"1-snare-01.mp3",70
Sample,34213,0,"1-kick-01.mp3",70
Sample,34366,0,"1-hh-02.mp3",70
Sample,34672,0,"1-hh-01.mp3",70
Sample,34672,0,"1-kick-01.mp3",70
Sample,34825,0,"1-kick-01.mp3",70
Sample,34978,0,"1-hh-02.mp3",70
Sample,35284,0,"1-hh-01.mp3",70
Sample,35284,0,"1-snare-01.mp3",70
Sample,35590,0,"1-hh-02.mp3",70
Sample,35896,0,"1-hh-01.mp3",70
Sample,36203,0,"1-kick-01.mp3",70
Sample,36203,0,"1-hh-03.mp3",70
Sample,36509,0,"1-snare-01.mp3",70
Sample,36509,0,"1-hh-01.mp3",70
Sample,36815,0,"1-hh-02.mp3",70
Sample,37121,0,"1-kick-01.mp3",70
Sample,37121,0,"1-hh-01.mp3",70
Sample,37274,0,"1-kick-01.mp3",70
Sample,37427,0,"1-hh-02.mp3",70
Sample,37733,0,"1-snare-01.mp3",70
Sample,37733,0,"1-hh-01.mp3",70
Sample,38039,0,"1-hh-02.mp3",70
Sample,38345,0,"1-hh-01.mp3",70
Sample,38652,0,"1-kick-01.mp3",70
Sample,38652,0,"1-hh-02.mp3",70
Sample,38958,0,"1-snare-01.mp3",70
Sample,38958,0,"1-hh-01.mp3",70
Sample,39111,0,"1-kick-01.mp3",70
Sample,39264,0,"1-hh-02.mp3",70
Sample,39570,0,"1-vox-01.mp3",70
Sample,39570,0,"1-kick-01.mp3",70
Sample,39570,0,"1-hh-01.mp3",70
Sample,39723,0,"1-kick-01.mp3",70
Sample,39876,0,"1-hh-03.mp3",70
Sample,40182,0,"1-snare-01.mp3",70
Sample,40182,0,"1-vox-02.mp3",70
Sample,40182,0,"1-hh-01.mp3",70
Sample,40488,0,"1-vox-03.mp3",70
Sample,40488,0,"1-hh-02.mp3",70
Sample,40743,0,"1-scratch-17.mp3",100
Sample,40794,0,"1-hh-01.mp3",70
Sample,40794,0,"1-vox-04.mp3",70
Sample,41100,0,"1-kick-01.mp3",70
Sample,41100,0,"1-hh-03.mp3",70
Sample,41407,0,"1-snare-01.mp3",70
Sample,41407,0,"1-hh-01.mp3",70
Sample,41713,0,"1-hh-02.mp3",70
Sample,42019,0,"1-hh-01.mp3",70
Sample,42019,0,"1-kick-01.mp3",70
Sample,42172,0,"1-kick-01.mp3",70
Sample,42325,0,"1-hh-02.mp3",70
Sample,42631,0,"1-snare-01.mp3",70
Sample,42631,0,"1-hh-01.mp3",70
Sample,42937,0,"1-hh-02.mp3",70
Sample,43243,0,"1-hh-01.mp3",70
Sample,43549,0,"1-hh-02.mp3",70
Sample,43549,0,"1-kick-01.mp3",70
Sample,43855,0,"1-snare-01.mp3",70
Sample,43855,0,"1-hh-01.mp3",70
Sample,44008,0,"1-kick-01.mp3",70
Sample,44162,0,"1-hh-02.mp3",70
Sample,44468,0,"1-hh-01.mp3",70
Sample,44468,0,"1-kick-01.mp3",70
Sample,44621,0,"1-kick-01.mp3",70
Sample,44774,0,"1-hh-02.mp3",70
Sample,45080,0,"1-snare-01.mp3",70
Sample,45080,0,"1-hh-01.mp3",70
Sample,45386,0,"1-hh-02.mp3",70
Sample,45692,0,"1-hh-01.mp3",70
Sample,45998,0,"1-hh-03.mp3",70
Sample,45998,0,"1-kick-01.mp3",70
Sample,46304,0,"1-snare-01.mp3",70
Sample,46304,0,"1-hh-01.mp3",70
Sample,46610,0,"1-hh-02.mp3",70
Sample,46917,0,"1-kick-01.mp3",70
Sample,46917,0,"1-hh-01.mp3",70
Sample,47070,0,"1-kick-01.mp3",70
Sample,47223,0,"1-hh-02.mp3",70
Sample,47529,0,"1-snare-01.mp3",70
Sample,47529,0,"1-hh-01.mp3",70
Sample,47835,0,"1-hh-02.mp3",70
Sample,48141,0,"1-hh-01.mp3",70
Sample,48447,0,"1-kick-01.mp3",70
Sample,48447,0,"1-hh-02.mp3",70
Sample,48753,0,"1-hh-01.mp3",70
Sample,48753,0,"1-snare-01.mp3",70
Sample,48906,0,"1-kick-01.mp3",70
Sample,49059,0,"1-hh-02.mp3",70
Sample,49289,0,"1-pianogt-37.mp3",70
Sample,49365,0,"1-pianogt-36.mp3",100
Sample,49365,0,"1-hh-01.mp3",70
Sample,49365,0,"1-kick-01.mp3",70
Sample,49519,0,"1-kick-01.mp3",70
Sample,49519,0,"1-pianogt-37.mp3",100
Sample,49672,0,"1-hh-02.mp3",70
Sample,49672,0,"1-scratch-07.mp3",70
Sample,49672,0,"1-pianogt-38.mp3",100
Sample,49825,0,"1-pianogt-39.mp3",100
Sample,49978,0,"1-snare-01.mp3",70
Sample,49978,0,"1-hh-01.mp3",70
Sample,49978,0,"1-scratch-08.mp3",70
Sample,50131,0,"1-scratch-09.mp3",70
Sample,50284,0,"1-hh-02.mp3",70
Sample,50284,0,"1-scratch-10.mp3",70
Sample,50386,0,"1-scratch-11.mp3",70
Sample,50437,0,"1-scratch-12.mp3",70
Sample,50590,0,"1-scratch-13.mp3",70
Sample,50590,0,"1-hh-01.mp3",70
Sample,50743,0,"1-scratch-14.mp3",70
Sample,50896,0,"1-hh-02.mp3",70
Sample,50896,0,"1-kick-01.mp3",70
Sample,50896,0,"1-hh-03.mp3",70
Sample,50896,0,"1-scratch-15.mp3",70
Sample,50934,0,"1-scratch-16.mp3",70
Sample,50947,0,"1-scratch-17.mp3",70
Sample,51202,0,"1-scratch-18.mp3",70
Sample,51202,0,"1-snare-01.mp3",70
Sample,51202,0,"1-hh-01.mp3",70
Sample,51508,0,"1-hh-02.mp3",70
Sample,51814,0,"1-cym-01.mp3",70
Sample,51814,0,"1- pianogt-22.mp3",70
Sample,51814,0,"1-kick-01.mp3",70
Sample,51967,0,"1- pianogt-23.mp3",70
Sample,51967,0,"1-kick-01.mp3",70
Sample,52120,0,"1- pianogt-22.mp3",70
Sample,52274,0,"1- pianogt-25.mp3",70
Sample,52427,0,"1-snare-02.mp3",70
Sample,52733,0,"1- pianogt-26.mp3",70
Sample,52886,0,"1- pianogt-27.mp3",70
Sample,53345,0,"1-kick-01.mp3",70
Sample,53651,0,"1-snare-02.mp3",70
Sample,53804,0,"1-kick-01.mp3",70
Sample,54110,0,"1- pianogt-28.mp3",70
Sample,54263,0,"1- pianogt-22.mp3",70
Sample,54263,0,"1-kick-01.mp3",70
Sample,54416,0,"1- pianogt-23.mp3",70
Sample,54416,0,"1-kick-01.mp3",70
Sample,54569,0,"1- pianogt-22.mp3",70
Sample,54722,0,"1- pianogt-25.mp3",70
Sample,54876,0,"1-snare-02.mp3",70
Sample,55182,0,"1- pianogt-26.mp3",70
Sample,55335,0,"1- pianogt-27.mp3",70
Sample,55794,0,"1-kick-01.mp3",70
Sample,56100,0,"1-snare-02.mp3",70
Sample,56559,0,"1- pianogt-28.mp3",70
Sample,56712,0,"1-kick-01.mp3",70
Sample,56712,0,"1- pianogt-29.mp3",70
Sample,56865,0,"1-kick-01.mp3",70
Sample,56865,0,"1- pianogt-30.mp3",70
Sample,57018,0,"1- pianogt-29.mp3",70
Sample,57171,0,"1- pianogt-31.mp3",70
Sample,57324,0,"1-snare-02.mp3",70
Sample,57631,0,"1- pianogt-32.mp3",70
Sample,57784,0,"1- pianogt-33.mp3",70
Sample,58243,0,"1-kick-01.mp3",70
Sample,58396,0,"1- pianogt-34.mp3",70
Sample,58549,0,"1-snare-02.mp3",70
Sample,58702,0,"1-kick-01.mp3",70
Sample,59008,0,"1- pianogt-35.mp3",100
Sample,59008,0,"1- pianogt-35.mp3",70
Sample,59008,0,"1- pianogt-35.mp3",100
Sample,59161,0,"1- pianogt-29.mp3",70
Sample,59161,0,"1-kick-01.mp3",70
Sample,59314,0,"1-kick-01.mp3",70
Sample,59314,0,"1- pianogt-30.mp3",70
Sample,59467,0,"1- pianogt-29.mp3",70
Sample,59620,0,"1- pianogt-31.mp3",70
Sample,59773,0,"1-snare-02.mp3",70
Sample,60079,0,"1- pianogt-32.mp3",70
Sample,60232,0,"1- pianogt-33.mp3",70
Sample,60692,0,"1-kick-01.mp3",70
Sample,60845,0,"1- pianogt-35.mp3",100
Sample,60845,0,"1- pianogt-34.mp3",70
Sample,60998,0,"1-snare-02.mp3",70
Sample,61457,0,"1- pianogt-35.mp3",70
Sample,61610,0,"1- pianogt-22.mp3",70
Sample,61610,0,"1-kick-01.mp3",70
Sample,61763,0,"1-kick-01.mp3",70
Sample,61763,0,"1- pianogt-23.mp3",70
Sample,61916,0,"1- pianogt-22.mp3",70
Sample,62069,0,"1- pianogt-25.mp3",70
Sample,62222,0,"1-snare-02.mp3",70
Sample,62528,0,"1- pianogt-26.mp3",70
Sample,62681,0,"1- pianogt-27.mp3",70
Sample,63102,0,"1-kick-01.mp3",70
Sample,63408,0,"1-snare-02.mp3",70
Sample,63561,0,"1-kick-01.mp3",70
Sample,63906,0,"1- pianogt-28.mp3",70
Sample,64059,0,"1- pianogt-22.mp3",70
Sample,64059,0,"1-kick-01.mp3",70
Sample,64212,0,"1- pianogt-23.mp3",70
Sample,64212,0,"1-kick-01.mp3",70
Sample,64365,0,"1- pianogt-22.mp3",70
Sample,64518,0,"1- pianogt-25.mp3",70
Sample,64671,0,"1-snare-02.mp3",70
Sample,64977,0,"1- pianogt-26.mp3",70
Sample,65130,0,"1- pianogt-27.mp3",70
Sample,65589,0,"1-kick-01.mp3",70
Sample,65896,0,"1-snare-02.mp3",70
Sample,66355,0,"1- pianogt-28.mp3",70
Sample,66508,0,"1- pianogt-29.mp3",70
Sample,66508,0,"1-kick-01.mp3",70
Sample,66661,0,"1-kick-01.mp3",70
Sample,66661,0,"1- pianogt-30.mp3",70
Sample,66814,0,"1- pianogt-29.mp3",70
Sample,66967,0,"1- pianogt-31.mp3",70
Sample,67120,0,"1-snare-02.mp3",70
Sample,67426,0,"1- pianogt-32.mp3",70
Sample,67579,0,"1- pianogt-33.mp3",70
Sample,68038,0,"1-kick-01.mp3",70
Sample,68344,0,"1-snare-02.mp3",70
Sample,68344,0,"1- pianogt-34.mp3",70
Sample,68498,0,"1-kick-01.mp3",70
Sample,68804,0,"1- pianogt-35.mp3",70
Sample,68804,0,"1- pianogt-35.mp3",100
Sample,68957,0,"1- pianogt-29.mp3",70
Sample,68957,0,"1-kick-01.mp3",70
Sample,69110,0,"1- pianogt-30.mp3",70
Sample,69110,0,"1-kick-01.mp3",70
Sample,69263,0,"1- pianogt-29.mp3",70
Sample,69263,0,"1-scratch-07.mp3",70
Sample,69416,0,"1- pianogt-31.mp3",70
Sample,69569,0,"1-scratch-08.mp3",70
Sample,69569,0,"1-snare-02.mp3",70
Sample,69722,0,"1-scratch-09.mp3",70
Sample,69875,0,"1-scratch-10.mp3",70
Sample,69875,0,"1- pianogt-32.mp3",70
Sample,69977,0,"1-scratch-11.mp3",70
Sample,70028,0,"1- pianogt-33.mp3",70
Sample,70028,0,"1-scratch-12.mp3",70
Sample,70181,0,"1-scratch-13.mp3",70
Sample,70334,0,"1-scratch-14.mp3",70
Sample,70487,0,"1-kick-01.mp3",70
Sample,70487,0,"1-scratch-15.mp3",70
Sample,70526,0,"1-scratch-16.mp3",70
Sample,70589,0,"1-scratch-17.mp3",70
Sample,70793,0,"1-scratch-18.mp3",70
Sample,70793,0,"1- pianogt-34.mp3",70
Sample,70793,0,"1-snare-02.mp3",70
Sample,71253,0,"1- pianogt-35.mp3",100
Sample,71253,0,"1- pianogt-35.mp3",70
Sample,71406,0,"1-cym-02.mp3",70
Sample,71406,0,"1-guitar-01.mp3",70
Sample,71406,0,"1-synth-01.mp3",70
Sample,71559,0,"1-guitar-02.mp3",70
Sample,71712,0,"1-synth-01.mp3",70
Sample,71712,0,"1-guitar-03.mp3",70
Sample,71865,0,"1-guitar-04.mp3",70
Sample,71865,0,"1-synth-02.mp3",70
Sample,72171,0,"1-synth-02.mp3",70
Sample,72324,0,"1-synth-03.mp3",70
Sample,72630,0,"1-guitar-05.mp3",70
Sample,72783,0,"1-guitar-06.mp3",70
Sample,72936,0,"1-guitar-07.mp3",70
Sample,72936,0,"1-synth-01.mp3",70
Sample,73089,0,"1-guitar-05.mp3",70
Sample,73242,0,"1-synth-02.mp3",70
Sample,73242,0,"1-guitar-06.mp3",70
Sample,73395,0,"1-guitar-10.mp3",70
Sample,73472,0,"1-guitar-10.mp3",70
Sample,73548,0,"1-guitar-10.mp3",70
Sample,73548,0,"1-synth-03.mp3",70
Sample,73625,0,"1-guitar-10.mp3",70
Sample,73701,0,"1-guitar-10.mp3",70
Sample,73778,0,"1-guitar-13.mp3",70
Sample,73855,0,"1-guitar-14.mp3",70
Sample,73855,0,"1-synth-01.mp3",70
Sample,74008,0,"1-guitar-15.mp3",70
Sample,74161,0,"1-guitar-16.mp3",70
Sample,74161,0,"1-synth-01.mp3",70
Sample,74314,0,"1-guitar-17.mp3",70
Sample,74314,0,"1-synth-02.mp3",70
Sample,74620,0,"1-synth-02.mp3",70
Sample,74773,0,"1-synth-03.mp3",70
Sample,74773,0,"1-guitar-18.mp3",70
Sample,75385,0,"1-synth-01.mp3",70
Sample,75538,0,"1-guitar-19.mp3",70
Sample,75615,0,"1-guitar-20.mp3",70
Sample,75691,0,"1-guitar-19.mp3",70
Sample,75691,0,"1-synth-02.mp3",70
Sample,75768,0,"1-guitar-20.mp3",70
Sample,75844,0,"1-guitar-21.mp3",70
Sample,75997,0,"1-synth-03.mp3",70
Sample,76303,0,"1-synth-01.mp3",70
Sample,76303,0,"1-guitar-01.mp3",70
Sample,76456,0,"1-guitar-02.mp3",70
Sample,76610,0,"1-synth-01.mp3",70
Sample,76610,0,"1-guitar-03.mp3",70
Sample,76763,0,"1-guitar-04.mp3",70
Sample,76763,0,"1-synth-02.mp3",70
Sample,77069,0,"1-synth-02.mp3",70
Sample,77222,0,"1-synth-03.mp3",70
Sample,77528,0,"1-guitar-05.mp3",70
Sample,77681,0,"1-guitar-06.mp3",70
Sample,77834,0,"1-guitar-07.mp3",70
Sample,77834,0,"1-synth-01.mp3",70
Sample,77987,0,"1-guitar-05.mp3",70
Sample,78140,0,"1-synth-02.mp3",70
Sample,78140,0,"1-guitar-06.mp3",70
Sample,78293,0,"1-guitar-10.mp3",70
Sample,78370,0,"1-guitar-10.mp3",70
Sample,78446,0,"1-guitar-10.mp3",70
Sample,78446,0,"1-synth-03.mp3",70
Sample,78523,0,"1-guitar-10.mp3",70
Sample,78599,0,"1-guitar-10.mp3",70
Sample,78676,0,"1-guitar-13.mp3",70
Sample,78752,0,"1-scratch-53.mp3",70
Sample,78752,0,"1-synth-01.mp3",70
Sample,78905,0,"1-scratch-54.mp3",70
Sample,79058,0,"1-synth-01.mp3",70
Sample,79058,0,"1-scratch-55.mp3",70
Sample,79135,0,"1-scratch-56.mp3",70
Sample,79211,0,"1-scratch-57.mp3",70
Sample,79211,0,"1-synth-02.mp3",70
Sample,79288,0,"1-scratch-58.mp3",70
Sample,79365,0,"1-scratch-59.mp3",70
Sample,79518,0,"1-synth-02.mp3",70
Sample,79671,0,"1-scratch-53.mp3",70
Sample,79671,0,"1-scratch-30.mp3",70
Sample,79671,0,"1-synth-03.mp3",70
Sample,79824,0,"1-scratch-31.mp3",70
Sample,79824,0,"1-scratch-54.mp3",70
Sample,79977,0,"1-scratch-32.mp3",70
Sample,80053,0,"1-scratch-33.mp3",70
Sample,80130,0,"1-scratch-34.mp3",70
Sample,80206,0,"1-scratch-35.mp3",70
Sample,80283,0,"1-scratch-36.mp3",70
Sample,80283,0,"1-synth-01.mp3",70
Sample,80359,0,"1-scratch-37.mp3",70
Sample,80436,0,"1-scratch-38.mp3",70
Sample,80512,0,"1-scratch-39.mp3",70
Sample,80589,0,"1-synth-02.mp3",70
Sample,80666,0,"1-scratch-36.mp3",70
Sample,80742,0,"1-scratch-37.mp3",70
Sample,80819,0,"1-scratch-38.mp3",70
Sample,80895,0,"1-scratch-43.mp3",70
Sample,80895,0,"1-synth-03.mp3",70
Sample,81201,0,"1-cym-01.mp3",70
Sample,81201,0,"1-hh-01.mp3",70
Sample,81201,0,"1-brass-01.mp3",70
Sample,81201,0,"1- pianogt-06.mp3",70
Sample,81354,0,"1- pianogt-07.mp3",70
Sample,81354,0,"1-brass-01.mp3",70
Sample,81507,0,"1-hh-02.mp3",70
Sample,81507,0,"1- pianogt-08.mp3",70
Sample,81660,0,"1- pianogt-09.mp3",70
Sample,81813,0,"1-hh-01.mp3",70
Sample,82120,0,"1-hh-02.mp3",70
Sample,82426,0,"1-hh-01.mp3",70
Sample,82426,0,"1- pianogt-10.mp3",70
Sample,82579,0,"1- pianogt-11.mp3",70
Sample,82732,0,"1-brass-02.mp3",70
Sample,82732,0,"1-hh-02.mp3",70
Sample,82732,0,"1- pianogt-12.mp3",70
Sample,82885,0,"1- pianogt-13.mp3",70
Sample,83038,0,"1-hh-01.mp3",70
Sample,83191,0,"1-brass-02.mp3",70
Sample,83344,0,"1-hh-02.mp3",70
Sample,83650,0,"1-brass-03.mp3",70
Sample,83650,0,"1- pianogt-14.mp3",70
Sample,83650,0,"1-kick-01.mp3",70
Sample,83650,0,"1-hh-01.mp3",70
Sample,83803,0,"1- pianogt-15.mp3",70
Sample,83803,0,"1-kick-01.mp3",70
Sample,83956,0,"1-hh-02.mp3",70
Sample,83956,0,"1- pianogt-16.mp3",70
Sample,84109,0,"1- pianogt-16.mp3",70
Sample,84262,0,"1-snare-02.mp3",70
Sample,84262,0,"1-hh-01.mp3",70
Sample,84568,0,"1- pianogt-18.mp3",70
Sample,84568,0,"1-hh-02.mp3",70
Sample,84645,0,"1-scratch-49.mp3",100
Sample,84722,0,"1-scratch-50.mp3",100
Sample,84798,0,"1-scratch-51.mp3",100
Sample,84875,0,"1-hh-01.mp3",70
Sample,85181,0,"1-brass-04.mp3",70
Sample,85181,0,"1-hh-03.mp3",70
Sample,85181,0,"1- pianogt-19.mp3",70
Sample,85181,0,"1-kick-01.mp3",70
Sample,85257,0,"1-scratch-49.mp3",100
Sample,85334,0,"1-scratch-50.mp3",100
Sample,85410,0,"1-scratch-51.mp3",100
Sample,85487,0,"1-snare-02.mp3",70
Sample,85487,0,"1-hh-01.mp3",70
Sample,85640,0,"1-brass-05.mp3",70
Sample,85640,0,"1- pianogt-20.mp3",70
Sample,85793,0,"1-hh-02.mp3",70
Sample,86099,0,"1-brass-01.mp3",70
Sample,86099,0,"1-hh-01.mp3",70
Sample,86099,0,"1- pianogt-06.mp3",70
Sample,86252,0,"1- pianogt-07.mp3",70
Sample,86252,0,"1-brass-01.mp3",70
Sample,86405,0,"1-hh-02.mp3",70
Sample,86405,0,"1- pianogt-08.mp3",70
Sample,86558,0,"1- pianogt-09.mp3",70
Sample,86711,0,"1-hh-01.mp3",70
Sample,87017,0,"1-hh-02.mp3",70
Sample,87323,0,"1- pianogt-10.mp3",70
Sample,87323,0,"1-hh-01.mp3",70
Sample,87477,0,"1- pianogt-11.mp3",70
Sample,87630,0,"1-hh-02.mp3",70
Sample,87630,0,"1-brass-02.mp3",70
Sample,87630,0,"1- pianogt-12.mp3",70
Sample,87783,0,"1- pianogt-13.mp3",70
Sample,87936,0,"1-hh-01.mp3",70
Sample,88089,0,"1-brass-02.mp3",70
Sample,88242,0,"1-hh-02.mp3",70
Sample,88548,0,"1-pianogt-36.mp3",70
Sample,88548,0,"1-kick-01.mp3",70
Sample,88548,0,"1-brass-06.mp3",70
Sample,88548,0,"1-hh-01.mp3",70
Sample,88701,0,"1-kick-01.mp3",70
Sample,88701,0,"1-pianogt-37.mp3",70
Sample,88854,0,"1-pianogt-38.mp3",70
Sample,88854,0,"1-hh-02.mp3",70
Sample,89007,0,"1-pianogt-39.mp3",70
Sample,89160,0,"1-snare-02.mp3",70
Sample,89160,0,"1-hh-01.mp3",70
Sample,89466,0,"1-pianogt-40.mp3",70
Sample,89466,0,"1-hh-02.mp3",70
Sample,89772,0,"1-hh-01.mp3",70
Sample,90079,0,"1-kick-01.mp3",70
Sample,90079,0,"1-hh-03.mp3",70
Sample,90385,0,"1-hh-01.mp3",70
Sample,90385,0,"1-snare-02.mp3",70
Sample,90691,0,"1-hh-02.mp3",70
Sample,90997,0,"1-hh-01.mp3",70
Sample,90997,0,"1- pianogt-06.mp3",70
Sample,90997,0,"1-kick-01.mp3",70
Sample,90997,0,"1-brass-01.mp3",70
Sample,91026,0,"1-string-09.mp3",70
Sample,91150,0,"1-kick-01.mp3",70
Sample,91150,0,"1-brass-01.mp3",70
Sample,91150,0,"1- pianogt-07.mp3",70
Sample,91303,0,"1- pianogt-08.mp3",70
Sample,91303,0,"1-string-10.mp3",70
Sample,91303,0,"1-hh-02.mp3",70
Sample,91456,0,"1-string-11.mp3",70
Sample,91456,0,"1- pianogt-09.mp3",70
Sample,91609,0,"1-snare-02.mp3",70
Sample,91609,0,"1-hh-01.mp3",70
Sample,91762,0,"1-string-12.mp3",70
Sample,91915,0,"1-hh-02.mp3",70
Sample,91915,0,"1-string-13.mp3",70
Sample,92221,0,"1-hh-01.mp3",70
Sample,92221,0,"1- pianogt-10.mp3",70
Sample,92374,0,"1- pianogt-11.mp3",70
Sample,92527,0,"1-string-14.mp3",70
Sample,92527,0,"1- pianogt-12.mp3",70
Sample,92527,0,"1-hh-02.mp3",70
Sample,92527,0,"1-kick-01.mp3",70
Sample,92527,0,"1-brass-02.mp3",70
Sample,92680,0,"1- pianogt-13.mp3",70
Sample,92834,0,"1-hh-01.mp3",70
Sample,92834,0,"1-snare-02.mp3",70
Sample,92834,0,"1-string-15.mp3",70
Sample,92987,0,"1-brass-02.mp3",70
Sample,92987,0,"1-kick-01.mp3",70
Sample,93140,0,"1-hh-02.mp3",70
Sample,93140,0,"1-string-16.mp3",70
Sample,93446,0,"1- pianogt-14.mp3",70
Sample,93446,0,"1-brass-03.mp3",70
Sample,93446,0,"1-string-01.mp3",70
Sample,93446,0,"1-kick-01.mp3",70
Sample,93446,0,"1-hh-01.mp3",70
Sample,93599,0,"1- pianogt-15.mp3",70
Sample,93599,0,"1-kick-01.mp3",70
Sample,93752,0,"1-string-02.mp3",70
Sample,93752,0,"1-hh-02.mp3",70
Sample,93752,0,"1- pianogt-16.mp3",70
Sample,93905,0,"1-string-03.mp3",70
Sample,93905,0,"1- pianogt-16.mp3",70
Sample,94058,0,"1-snare-02.mp3",70
Sample,94058,0,"1-hh-01.mp3",70
Sample,94211,0,"1-string-04.mp3",70
Sample,94364,0,"1-hh-02.mp3",70
Sample,94364,0,"1-string-05.mp3",70
Sample,94364,0,"1- pianogt-18.mp3",70
Sample,94670,0,"1-hh-01.mp3",70
Sample,94976,0,"1-brass-04.mp3",70
Sample,94976,0,"1- pianogt-19.mp3",70
Sample,94976,0,"1-kick-01.mp3",70
Sample,94976,0,"1-string-06.mp3",70
Sample,94976,0,"1-hh-03.mp3",70
Sample,95282,0,"1-snare-02.mp3",70
Sample,95282,0,"1-hh-01.mp3",70
Sample,95282,0,"1-string-07.mp3",70
Sample,95435,0,"1- pianogt-20.mp3",70
Sample,95435,0,"1-brass-05.mp3",70
Sample,95589,0,"1-hh-02.mp3",70
Sample,95589,0,"1-string-08.mp3",70
Sample,95895,0,"1-string-01.mp3",70
Sample,95895,0,"1- pianogt-06.mp3",70
Sample,95895,0,"1-hh-01.mp3",70
Sample,95895,0,"1-kick-01.mp3",70
Sample,95895,0,"1-brass-01.mp3",70
Sample,96048,0,"1-brass-01.mp3",70
Sample,96048,0,"1- pianogt-07.mp3",70
Sample,96048,0,"1-kick-01.mp3",70
Sample,96201,0,"1- pianogt-08.mp3",70
Sample,96201,0,"1-string-02.mp3",70
Sample,96201,0,"1-hh-02.mp3",70
Sample,96354,0,"1-string-03.mp3",70
Sample,96354,0,"1- pianogt-09.mp3",70
Sample,96507,0,"1-hh-01.mp3",70
Sample,96507,0,"1-snare-02.mp3",70
Sample,96660,0,"1-string-04.mp3",70
Sample,96813,0,"1-hh-02.mp3",70
Sample,96813,0,"1-string-05.mp3",70
Sample,97119,0,"1-hh-01.mp3",70
Sample,97119,0,"1- pianogt-10.mp3",70
Sample,97272,0,"1- pianogt-11.mp3",70
Sample,97425,0,"1-brass-02.mp3",70
Sample,97425,0,"1-string-06.mp3",70
Sample,97425,0,"1-kick-01.mp3",70
Sample,97425,0,"1-hh-02.mp3",70
Sample,97425,0,"1- pianogt-12.mp3",70
Sample,97578,0,"1- pianogt-13.mp3",70
Sample,97731,0,"1-hh-01.mp3",70
Sample,97731,0,"1-string-07.mp3",70
Sample,97731,0,"1-snare-02.mp3",70
Sample,97884,0,"1-kick-01.mp3",70
Sample,97884,0,"1-brass-02.mp3",70
Sample,98037,0,"1-hh-02.mp3",70
Sample,98037,0,"1-string-08.mp3",70
Sample,98344,0,"1-brass-06.mp3",70
Sample,98344,0,"1-kick-01.mp3",70
Sample,98344,0,"1-string-17.mp3",70
Sample,98344,0,"1-hh-01.mp3",70
Sample,98344,0,"1-pianogt-36.mp3",70
Sample,98497,0,"1-pianogt-37.mp3",70
Sample,98497,0,"1-kick-01.mp3",70
Sample,98650,0,"1-hh-02.mp3",70
Sample,98650,0,"1-pianogt-38.mp3",70
Sample,98803,0,"1-pianogt-39.mp3",70
Sample,98956,0,"1-snare-02.mp3",70
Sample,98956,0,"1-string-18.mp3",70
Sample,98956,0,"1-hh-01.mp3",70
Sample,99262,0,"1-pianogt-40.mp3",70
Sample,99262,0,"1-hh-02.mp3",70
Sample,99568,0,"1-hh-01.mp3",70
Sample,99874,0,"1-kick-01.mp3",70
Sample,99874,0,"1-hh-03.mp3",70
Sample,100180,0,"1-snare-02.mp3",70
Sample,100180,0,"1-hh-01.mp3",70
Sample,100486,0,"1-hh-02.mp3",70

[TimingPoints]
10183.5,612.226156342153,4,1,0,100,1,0
81201,-100,4,1,0,100,0,1
100792,-100,4,1,0,100,0,0

[HitObjects]
64,192,2836,5,0,0:0:0:70:1-loop-01.mp3
448,192,2989,1,0,0:0:0:70:1-loop-02.mp3
128,192,4367,1,0,0:0:0:70:1-loop-03.mp3
384,192,4826,1,0,0:0:0:70:1-loop-04.mp3
213,192,5285,128,0,6816:0:0:0:70:1-loop-05.mp3
384,192,6816,1,0,0:0:0:70:1-loop-06.mp3
298,192,7275,128,0,7581:0:0:0:70:1-loop-07.mp3
64,192,7734,1,0,0:0:0:70:1-loop-01.mp3
448,192,7887,1,0,0:0:0:70:1-loop-02.mp3
384,192,9265,1,0,0:0:0:70:1-loop-03.mp3
384,192,9724,1,0,0:0:0:70:1-loop-03.mp3
448,192,10183,1,0,0:0:0:70:1-kick-01.mp3
298,192,10183,1,0,0:0:0:70:1-cym-01.mp3
128,192,10183,128,0,12632:0:0:0:70:1-loop-09.mp3
384,192,10489,128,0,10795:0:0:0:70:1-kick-02.mp3
448,192,10795,1,0,0:0:0:70:1-kick-01.mp3
298,192,10795,1,0,0:0:0:70:1-cym-01.mp3
384,192,11101,128,0,11407:0:0:0:70:1-kick-02.mp3
298,192,11407,1,0,0:0:0:70:1-cym-01.mp3
448,192,11407,1,0,0:0:0:70:1-kick-01.mp3
384,192,11714,128,0,12020:0:0:0:70:1-kick-02.mp3
448,192,12020,1,0,0:0:0:70:1-kick-01.mp3
298,192,12020,1,0,0:0:0:70:1-cym-01.mp3
384,192,12326,128,0,12632:0:0:0:70:1-kick-02.mp3
469,192,12632,1,0,0:0:0:70:1-brassstring-06.mp3
298,192,12632,1,0,0:0:0:70:1-cym-01.mp3
42,192,12632,1,0,0:0:0:70:1-kick-01.mp3
469,192,12785,1,0,0:0:0:70:1-brassstring-06.mp3
42,192,12785,1,0,0:0:0:70:1-kick-01.mp3
384,192,12938,1,0,0:0:0:70:1-hh-02.mp3
298,192,13244,1,0,0:0:0:70:1-snare-01.mp3
128,192,13244,1,0,0:0:0:70:1-hh-01.mp3
384,192,13550,1,0,0:0:0:70:1-hh-02.mp3
298,192,13856,1,0,0:0:0:70:1-hh-01.mp3
213,192,14162,1,0,0:0:0:70:1-brassstring-07.mp3
384,192,14162,1,0,0:0:0:70:1-hh-02.mp3
42,192,14162,1,0,0:0:0:70:1-kick-01.mp3
298,192,14469,1,0,0:0:0:70:1-snare-01.mp3
384,192,14469,1,0,0:0:0:70:1-hh-01.mp3
213,192,14622,1,0,0:0:0:70:1-brassstring-07.mp3
42,192,14622,1,0,0:0:0:70:1-kick-01.mp3
384,192,14775,1,0,0:0:0:70:1-hh-02.mp3
469,192,15081,128,0,16458:0:0:0:70:1-brassstring-09.mp3
298,192,15081,1,0,0:0:0:70:1-kick-01.mp3
128,192,15081,1,0,0:0:0:70:1-hh-01.mp3
298,192,15234,1,0,0:0:0:70:1-kick-01.mp3
42,192,15387,1,0,0:0:0:70:1-hh-02.mp3
213,192,15693,1,0,0:0:0:70:1-snare-01.mp3
128,192,15693,1,0,0:0:0:70:1-hh-01.mp3
42,192,15999,1,0,0:0:0:70:1-hh-02.mp3
128,192,16305,1,0,0:0:0:70:1-hh-01.mp3
448,192,16611,1,0,0:0:0:70:1-brassstring-10.mp3
42,192,16611,128,0,16917:0:0:0:70:1-hh-03.mp3
298,192,16611,1,0,0:0:0:70:1-kick-01.mp3
213,192,16917,1,0,0:0:0:70:1-snare-01.mp3
384,192,17071,128,0,17377:0:0:0:70:1-brassstring-11.mp3
128,192,17224,1,0,0:0:0:70:1-hh-02.mp3
192,192,17530,1,0,0:0:0:70:1-hh-01.mp3
298,192,17530,1,0,0:0:0:70:1-brassstring-13.mp3
469,192,17530,1,0,0:0:0:70:1-kick-01.mp3
298,192,17683,1,0,0:0:0:70:1-brassstring-13.mp3
469,192,17683,1,0,0:0:0:70:1-kick-01.mp3
64,192,17836,1,0,0:0:0:70:1-hh-02.mp3
128,192,18142,1,0,0:0:0:70:1-hh-01.mp3
213,192,18142,1,0,0:0:0:70:1-snare-01.mp3
64,192,18448,1,0,0:0:0:70:1-hh-02.mp3
213,192,18754,1,0,0:0:0:70:1-hh-01.mp3
64,192,19060,1,0,0:0:0:70:1-hh-02.mp3
448,192,19060,1,0,0:0:0:70:1-brassstring-15.mp3
298,192,19060,1,0,0:0:0:70:1-kick-01.mp3
128,192,19366,1,0,0:0:0:70:1-hh-01.mp3
213,192,19366,1,0,0:0:0:70:1-snare-01.mp3
448,192,19519,1,0,0:0:0:70:1-brassstring-15.mp3
298,192,19519,1,0,0:0:0:70:1-kick-01.mp3
64,192,19673,1,0,0:0:0:70:1-hh-02.mp3
448,192,19979,1,0,0:0:0:70:1-kick-01.mp3
192,192,19979,1,0,0:0:0:70:1-hh-01.mp3
42,192,19979,128,0,21203:0:0:0:70:1-brassstring-16.mp3
448,192,20132,1,0,0:0:0:70:1-kick-01.mp3
192,192,20285,128,0,20591:0:0:0:70:1-hh-03.mp3
320,192,20591,1,0,0:0:0:70:1-snare-01.mp3
213,192,20897,1,0,0:0:0:70:1-hh-02.mp3
298,192,21203,1,0,0:0:0:70:1-hh-02.mp3
469,192,21509,1,0,0:0:0:70:1-kick-01.mp3
213,192,21509,128,0,21815:0:0:0:70:1-hh-03.mp3
298,192,21815,1,0,0:0:0:70:1-snare-01.mp3
42,192,22121,128,0,22428:0:0:0:100:1-kick-02.mp3
213,192,22428,1,0,0:0:0:70:1-hh-01.mp3
384,192,22428,1,0,0:0:0:70:1-brassstring-06.mp3
469,192,22428,1,0,0:0:0:70:1-kick-01.mp3
384,192,22581,1,0,0:0:0:70:1-brassstring-06.mp3
469,192,22581,1,0,0:0:0:70:1-kick-01.mp3
42,192,22734,1,0,0:0:0:70:1-hh-02.mp3
128,192,23040,1,0,0:0:0:70:1-hh-01.mp3
213,192,23040,1,0,0:0:0:70:1-snare-01.mp3
42,192,23346,1,0,0:0:0:70:1-hh-02.mp3
213,192,23652,1,0,0:0:0:70:1-hh-01.mp3
42,192,23958,1,0,0:0:0:70:1-hh-02.mp3
298,192,23958,1,0,0:0:0:70:1-brassstring-07.mp3
469,192,23958,1,0,0:0:0:70:1-kick-01.mp3
128,192,24264,1,0,0:0:0:70:1-hh-01.mp3
213,192,24264,1,0,0:0:0:70:1-snare-01.mp3
298,192,24417,1,0,0:0:0:70:1-brassstring-07.mp3
469,192,24417,1,0,0:0:0:70:1-kick-01.mp3
42,192,24570,1,0,0:0:0:70:1-hh-02.mp3
298,192,24876,1,0,0:0:0:70:1-hh-01.mp3
64,192,24876,1,0,0:0:0:70:1-kick-01.mp3
448,192,24876,128,0,26254:0:0:0:70:1-brassstring-09.mp3
64,192,25029,1,0,0:0:0:70:1-kick-01.mp3
384,192,25183,1,0,0:0:0:70:1-hh-02.mp3
320,192,25489,1,0,0:0:0:70:1-hh-01.mp3
192,192,25489,1,0,0:0:0:70:1-snare-01.mp3
384,192,25795,1,0,0:0:0:70:1-hh-02.mp3
320,192,26101,1,0,0:0:0:70:1-hh-01.mp3
213,192,26407,1,0,0:0:0:70:1-kick-01.mp3
384,192,26407,128,0,26713:0:0:0:70:1-hh-03.mp3
128,192,26407,1,0,0:0:0:70:1-brassstring-10.mp3
298,192,26713,1,0,0:0:0:70:1-snare-01.mp3
213,192,26866,1,0,0:0:0:70:1-kick-01.mp3
64,192,26866,128,0,27172:0:0:0:70:1-brassstring-11.mp3
320,192,27019,1,0,0:0:0:70:1-hh-02.mp3
128,192,27325,1,0,0:0:0:70:1-hh-01.mp3
469,192,27325,1,0,0:0:0:70:1-brassstring-13.mp3
42,192,27325,1,0,0:0:0:70:1-kick-01.mp3
469,192,27478,1,0,0:0:0:70:1-brassstring-13.mp3
42,192,27478,1,0,0:0:0:70:1-kick-01.mp3
384,192,27631,1,0,0:0:0:70:1-hh-02.mp3
298,192,27938,1,0,0:0:0:70:1-snare-01.mp3
213,192,27938,1,0,0:0:0:70:1-hh-01.mp3
128,192,28244,1,0,0:0:0:70:1-hh-02.mp3
384,192,28550,1,0,0:0:0:70:1-hh-01.mp3
469,192,28856,1,0,0:0:0:70:1-kick-01.mp3
64,192,28856,1,0,0:0:0:70:1-brassstring-15.mp3
298,192,29162,1,0,0:0:0:70:1-snare-01.mp3
213,192,29162,1,0,0:0:0:70:1-hh-01.mp3
64,192,29315,1,0,0:0:0:70:1-brassstring-15.mp3
469,192,29315,1,0,0:0:0:70:1-kick-01.mp3
128,192,29468,1,0,0:0:0:70:1-hh-02.mp3
298,192,29774,1,0,0:0:0:70:1-hh-01.mp3
64,192,29774,1,0,0:0:0:70:1-kick-01.mp3
448,192,29774,128,0,31611:0:0:0:70:1-brassstring-20.mp3
64,192,29927,1,0,0:0:0:70:1-kick-01.mp3
384,192,30080,128,0,30386:0:0:0:70:1-hh-03.mp3
128,192,30386,1,0,0:0:0:70:1-snare-01.mp3
213,192,30693,1,0,0:0:0:70:1-hh-02.mp3
298,192,30999,1,0,0:0:0:70:1-hh-01.mp3
298,192,31305,128,0,31611:0:0:0:70:1-hh-03.mp3
384,192,31611,1,0,0:0:0:70:1-snare-01.mp3
128,192,31611,128,0,31764:0:0:0:100:1-kick-02.mp3
128,192,31917,128,0,32070:0:0:0:100:1-kick-02.mp3
42,192,32223,128,0,33141:0:0:0:100:1- pianogt-06.mp3
128,192,32376,128,0,33141:0:0:0:100:1- pianogt-07.mp3
298,192,32529,128,0,33141:0:0:0:100:1- pianogt-08.mp3
384,192,32682,128,0,33141:0:0:0:100:1- pianogt-09.mp3
128,192,33448,128,0,34366:0:0:0:100:1- pianogt-10.mp3
298,192,33601,128,0,34366:0:0:0:100:1- pianogt-11.mp3
469,192,33754,128,0,34366:0:0:0:100:1- pianogt-12.mp3
213,192,33907,128,0,34366:0:0:0:100:1- pianogt-13.mp3
213,192,34672,128,0,35437:0:0:0:100:1- pianogt-14.mp3
384,192,34825,128,0,35437:0:0:0:100:1- pianogt-15.mp3
42,192,34978,128,0,35437:0:0:0:100:1- pianogt-16.mp3
469,192,35131,128,0,35437:0:0:0:100:1- pianogt-17.mp3
469,192,35590,128,0,35896:0:0:0:50:1- pianogt-18.mp3
213,192,35590,128,0,35896:0:0:0:50:1- pianogt-18.mp3
128,192,36203,1,0,0:0:0:50:1- pianogt-19.mp3
384,192,36203,1,0,0:0:0:50:1- pianogt-19.mp3
298,192,36662,1,0,0:0:0:50:1- pianogt-20.mp3
42,192,36662,1,0,0:0:0:50:1- pianogt-20.mp3
213,192,37121,128,0,38039:0:0:0:100:1- pianogt-06.mp3
384,192,37274,128,0,38039:0:0:0:100:1- pianogt-07.mp3
298,192,37427,128,0,38039:0:0:0:100:1- pianogt-08.mp3
42,192,37580,128,0,38039:0:0:0:100:1- pianogt-09.mp3
320,192,38345,128,0,39264:0:0:0:100:1- pianogt-10.mp3
128,192,38498,128,0,39264:0:0:0:100:1- pianogt-11.mp3
192,192,38652,128,0,39264:0:0:0:100:1- pianogt-12.mp3
469,192,38805,128,0,39264:0:0:0:100:1- pianogt-13.mp3
469,192,39876,1,0,0:0:0:100:1-scratch-07.mp3
298,192,40182,1,0,0:0:0:100:1-scratch-08.mp3
213,192,40335,1,0,0:0:0:100:1-scratch-09.mp3
42,192,40488,1,0,0:0:0:100:1-scratch-10.mp3
128,192,40526,1,0,0:0:0:100:1-scratch-11.mp3
213,192,40641,1,0,0:0:0:100:1-scratch-12.mp3
128,192,40680,1,0,0:0:0:100:1-scratch-16.mp3
298,192,40794,1,0,0:0:0:100:1-scratch-13.mp3
469,192,40947,1,0,0:0:0:100:1-scratch-03.mp3
384,192,41100,1,0,0:0:0:100:1-scratch-15.mp3
298,192,41253,1,0,0:0:0:100:1-scratch-16.mp3
213,192,41407,1,0,0:0:0:100:1-scratch-18.mp3
448,192,42019,128,0,43090:0:0:0:100:1- pianogt-06.mp3
64,192,42172,128,0,43090:0:0:0:100:1- pianogt-07.mp3
384,192,42325,128,0,43090:0:0:0:100:1- pianogt-08.mp3
128,192,42478,128,0,43090:0:0:0:100:1- pianogt-09.mp3
192,192,43243,128,0,44315:0:0:0:100:1- pianogt-10.mp3
298,192,43396,128,0,44315:0:0:0:100:1- pianogt-11.mp3
64,192,43549,128,0,44315:0:0:0:100:1- pianogt-12.mp3
448,192,43702,128,0,44315:0:0:0:100:1- pianogt-13.mp3
128,192,44468,128,0,45233:0:0:0:100:1- pianogt-14.mp3
384,192,44621,128,0,45233:0:0:0:100:1- pianogt-15.mp3
298,192,44774,128,0,45233:0:0:0:100:1- pianogt-16.mp3
448,192,44927,128,0,45233:0:0:0:100:1- pianogt-17.mp3
448,192,45386,128,0,45692:0:0:0:100:1- pianogt-18.mp3
448,192,45998,1,0,0:0:0:50:1- pianogt-19.mp3
298,192,45998,1,0,0:0:0:50:1- pianogt-19.mp3
213,192,46457,1,0,0:0:0:50:1- pianogt-20.mp3
384,192,46457,1,0,0:0:0:50:1- pianogt-20.mp3
384,192,46917,128,0,47988:0:0:0:100:1- pianogt-06.mp3
64,192,47070,128,0,47988:0:0:0:100:1- pianogt-07.mp3
128,192,47223,128,0,47988:0:0:0:100:1- pianogt-08.mp3
213,192,47376,128,0,47988:0:0:0:100:1- pianogt-09.mp3
384,192,48141,128,0,49212:0:0:0:100:1- pianogt-10.mp3
448,192,48294,128,0,49212:0:0:0:100:1- pianogt-11.mp3
213,192,48447,128,0,49212:0:0:0:100:1- pianogt-12.mp3
128,192,48600,128,0,49212:0:0:0:100:1- pianogt-13.mp3
64,192,49365,128,0,50437:0:0:0:100:1-pianogt-36.mp3
320,192,49519,128,0,50437:0:0:0:100:1-pianogt-37.mp3
128,192,49672,128,0,50437:0:0:0:100:1-pianogt-38.mp3
455,192,49825,128,0,50437:0:0:0:100:1-pianogt-39.mp3
213,192,50590,5,0,0:0:0:80:1- pianosolo-01.mp3
128,192,50743,1,0,0:0:0:80:1- pianosolo-02.mp3
213,192,50896,1,0,0:0:0:80:1- pianosolo-03.mp3
298,192,51049,1,0,0:0:0:80:1- pianosolo-04.mp3
128,192,51202,1,0,0:0:0:80:1- pianosolo-05.mp3
213,192,51240,1,0,0:0:0:80:1- pianosolo-06.mp3
384,192,51508,1,0,0:0:0:80:1- pianosolo-07.mp3
469,192,51661,1,0,0:0:0:80:1- pianosolo-08.mp3
128,192,51814,1,0,0:0:0:80:1- pianosolo-09.mp3
213,192,51853,1,0,0:0:0:80:1- pianosolo-10.mp3
42,192,52733,128,0,54263:0:0:0:27:1-pianosolo2-01.mp3
384,192,52733,128,0,54263:0:0:0:27:1-pianosolo2-01.mp3
213,192,52733,128,0,54263:0:0:0:27:1-pianosolo2-01.mp3
448,192,54569,1,0,0:0:0:40:1- pianosolo-11.mp3
213,192,54569,1,0,0:0:0:40:1- pianosolo-11.mp3
128,192,55029,1,0,0:0:0:40:1- pianosolo-12.mp3
384,192,55029,1,0,0:0:0:40:1- pianosolo-12.mp3
128,192,55449,1,0,0:0:0:80:1- pianosolo-13.mp3
213,192,55488,1,0,0:0:0:80:1- pianosolo-14.mp3
128,192,55756,1,0,0:0:0:80:1- pianosolo-15.mp3
42,192,55794,1,0,0:0:0:80:1- pianosolo-16.mp3
192,192,56100,1,0,0:0:0:80:1- pianosolo-17.mp3
64,192,56406,1,0,0:0:0:80:1- pianosolo-18.mp3
128,192,56712,1,0,0:0:0:80:1- pianosolo-19.mp3
384,192,57018,1,0,0:0:0:80:1- pianosolo-20.mp3
298,192,57171,1,0,0:0:0:80:1- pianosolo-21.mp3
213,192,57477,1,0,0:0:0:80:1- pianosolo-22.mp3
298,192,57784,128,0,58702:0:0:0:40:1- pianosolo-23.mp3
128,192,57784,128,0,58702:0:0:0:40:1- pianosolo-23.mp3
213,192,59008,1,0,0:0:0:40:1-pianosolo2-02.mp3
64,192,59008,1,0,0:0:0:40:1-pianosolo2-02.mp3
213,192,59314,128,0,60386:0:0:0:40:1-pianosolo2-03.mp3
42,192,59314,128,0,60386:0:0:0:40:1-pianosolo2-03.mp3
298,192,59620,1,0,0:0:0:80:1- pianosolo-24.mp3
384,192,59773,1,0,0:0:0:80:1- pianosolo-25.mp3
469,192,60079,1,0,0:0:0:80:1- pianosolo-26.mp3
384,192,60232,1,0,0:0:0:80:1- pianosolo-27.mp3
469,192,60386,1,0,0:0:0:80:1- pianosolo-28.mp3
298,192,60692,1,0,0:0:0:80:1- pianosolo-29.mp3
213,192,60845,1,0,0:0:0:80:1- pianosolo-30.mp3
128,192,60998,1,0,0:0:0:80:1- pianosolo-31.mp3
213,192,61036,1,0,0:0:0:80:1- pianosolo-32.mp3
298,192,61304,1,0,0:0:0:80:1- pianosolo-33.mp3
384,192,61457,1,0,0:0:0:80:1- pianosolo-34.mp3
128,192,61610,1,0,0:0:0:80:1- pianosolo-35.mp3
469,192,61610,128,0,63141:0:0:0:40:1-pianosolo2-04.mp3
42,192,61610,128,0,63141:0:0:0:40:1-pianosolo2-04.mp3
213,192,61648,1,0,0:0:0:80:1- pianosolo-36.mp3
298,192,62069,1,0,0:0:0:80:1- pianosolo-37.mp3
213,192,62375,1,0,0:0:0:80:1- pianosolo-38.mp3
298,192,62681,1,0,0:0:0:80:1- pianosolo-39.mp3
384,192,62988,1,0,0:0:0:80:1- pianosolo-40.mp3
384,192,63294,128,0,63906:0:0:0:80:1- pianosolo-41.mp3
128,192,63906,1,0,0:0:0:40:1-pianosolo2-05.mp3
42,192,63906,1,0,0:0:0:40:1-pianosolo2-05.mp3
213,192,64212,1,0,0:0:0:80:1- pianosolo-42.mp3
298,192,64365,1,0,0:0:0:80:1- pianosolo-43.mp3
384,192,64518,1,0,0:0:0:80:1- pianosolo-44.mp3
384,192,64671,1,0,0:0:0:80:1- pianosolo-45.mp3
128,192,64824,1,0,0:0:0:40:1-pianosolo2-06.mp3
42,192,64824,1,0,0:0:0:40:1-pianosolo2-06.mp3
298,192,64977,1,0,0:0:0:80:1- pianosolo-46.mp3
384,192,65130,1,0,0:0:0:80:1- pianosolo-47.mp3
128,192,65130,128,0,66202:0:0:0:40:1-pianosolo2-07.mp3
42,192,65130,128,0,66202:0:0:0:40:1-pianosolo2-07.mp3
469,192,65283,1,0,0:0:0:80:1- pianosolo-48.mp3
298,192,65589,1,0,0:0:0:80:1- pianosolo-49.mp3
213,192,65743,1,0,0:0:0:80:1- pianosolo-50.mp3
298,192,65857,1,0,0:0:0:80:1- pianosolo-51.mp3
384,192,65896,1,0,0:0:0:80:1- pianosolo-52.mp3
469,192,66049,1,0,0:0:0:80:1- pianosolo-52.mp3
213,192,66202,1,0,0:0:0:80:1- pianosolo-53.mp3
298,192,66355,1,0,0:0:0:80:1- pianosolo-54.mp3
42,192,66508,128,0,67732:0:0:0:80:1-pianosolo2-08.mp3
448,192,67120,1,0,0:0:0:80:1- pianosolo-55.mp3
384,192,67222,1,0,0:0:0:80:1- pianosolo-56.mp3
298,192,67273,1,0,0:0:0:80:1- pianosolo-57.mp3
213,192,67324,1,0,0:0:0:80:1- pianosolo-57.mp3
128,192,67426,1,0,0:0:0:80:1- pianosolo-60.mp3
213,192,67579,1,0,0:0:0:80:1- pianosolo-59.mp3
320,192,67694,1,0,0:0:0:80:1- pianosolo-60.mp3
128,192,67847,1,0,0:0:0:80:1- pianosolo-61.mp3
298,192,68191,128,0,68421:0:0:0:80:1- pianosolo-62.mp3
469,192,68498,1,0,0:0:0:40:1-pianosolo2-09.mp3
213,192,68498,1,0,0:0:0:80:1- pianosolo-63.mp3
42,192,68498,1,0,0:0:0:40:1-pianosolo2-09.mp3
298,192,68651,1,0,0:0:0:80:1- pianosolo-64.mp3
384,192,68804,1,0,0:0:0:80:1- pianosolo-65.mp3
469,192,68957,1,0,0:0:0:40:1- pianosolo-66.mp3
128,192,68957,1,0,0:0:0:80:1-pianosolo2-10.mp3
298,192,68957,1,0,0:0:0:40:1- pianosolo-66.mp3
42,192,69263,1,0,0:0:0:40:1- pianosolo-67.mp3
384,192,69263,1,0,0:0:0:40:1- pianosolo-67.mp3
213,192,69416,1,0,0:0:0:40:1- pianosolo-68.mp3
298,192,69416,1,0,0:0:0:40:1- pianosolo-68.mp3
298,192,69722,1,0,0:0:0:40:1- pianosolo-69.mp3
384,192,69722,1,0,0:0:0:40:1- pianosolo-69.mp3
42,192,70028,1,0,0:0:0:40:1-pianosolo2-11.mp3
469,192,70028,1,0,0:0:0:80:1- pianosolo-70.mp3
213,192,70028,1,0,0:0:0:40:1-pianosolo2-11.mp3
384,192,70334,1,0,0:0:0:80:1- pianosolo-71.mp3
469,192,70640,1,0,0:0:0:80:1- pianosolo-72.mp3
384,192,70946,1,0,0:0:0:80:1- pianosolo-73.mp3
213,192,71291,1,0,0:0:0:70:1- pianosolo-84.mp3
298,192,71329,1,0,0:0:0:70:1- pianosolo-85.mp3
384,192,71367,1,0,0:0:0:70:1- pianosolo-86.mp3
469,192,71406,1,0,0:0:0:70:1- pianosolo-87.mp3
64,192,71406,128,0,72018:0:0:0:70:1-scratch-19.mp3
128,192,71406,1,0,0:0:0:80:1-pianosolo2-12.mp3
448,192,72018,128,0,72630:0:0:0:70:1-scratch-20.mp3
128,192,72630,128,0,73242:0:0:0:70:1-scratch-19.mp3
384,192,73242,128,0,73855:0:0:0:70:1-scratch-20.mp3
213,192,73855,128,0,74467:0:0:0:70:1-scratch-19.mp3
298,192,74467,128,0,75079:0:0:0:70:1-scratch-20.mp3
42,192,75079,128,0,75691:0:0:0:70:1-scratch-19.mp3
469,192,75079,1,0,0:0:0:100:1- pianosolo-76.mp3
469,192,75385,1,0,0:0:0:100:1- pianosolo-77.mp3
384,192,75538,1,0,0:0:0:100:1- pianosolo-78.mp3
128,192,75691,128,0,76303:0:0:0:70:1-scratch-20.mp3
298,192,75844,1,0,0:0:0:100:1- pianosolo-79.mp3
213,192,76303,128,0,76916:0:0:0:70:1-scratch-19.mp3
298,192,76303,1,0,0:0:0:100:1- pianosolo-80.mp3
384,192,76380,1,0,0:0:0:100:1- pianosolo-81.mp3
384,192,76916,128,0,77528:0:0:0:70:1-scratch-20.mp3
128,192,77528,128,0,78140:0:0:0:70:1-scratch-19.mp3
469,192,78140,128,0,78752:0:0:0:70:1-scratch-20.mp3
298,192,78599,1,0,0:0:0:100:1- pianosolo-88.mp3
213,192,78676,1,0,0:0:0:100:1- pianosolo-89.mp3
384,192,78752,128,0,79058:0:0:0:70:1-scratch-27.mp3
128,192,78752,1,0,0:0:0:100:1- pianosolo-90.mp3
42,192,78829,1,0,0:0:0:100:1- pianosolo-91.mp3
213,192,79058,128,0,79365:0:0:0:70:1-scratch-27.mp3
42,192,79365,128,0,79671:0:0:0:70:1-scratch-27.mp3
298,192,79671,128,0,79977:0:0:0:70:1-scratch-27.mp3
128,192,79977,1,0,0:0:0:70:1-scratch-28.mp3
128,192,80130,1,0,0:0:0:70:1-scratch-28.mp3
384,192,80283,1,0,0:0:0:70:1-scratch-28.mp3
384,192,80436,1,0,0:0:0:70:1-scratch-28.mp3
213,192,80589,1,0,0:0:0:70:1-scratch-29.mp3
128,192,80666,1,0,0:0:0:70:1-scratch-29.mp3
298,192,80742,1,0,0:0:0:70:1-scratch-29.mp3
384,192,80819,1,0,0:0:0:70:1-scratch-29.mp3
213,192,80895,1,0,0:0:0:70:1-scratch-29.mp3
128,192,80972,1,0,0:0:0:70:1-scratch-29.mp3
298,192,81048,1,0,0:0:0:70:1-scratch-29.mp3
384,192,81125,1,0,0:0:0:70:1-scratch-29.mp3
469,192,81201,1,0,0:0:0:100:1-string-01.mp3
42,192,81201,1,0,0:0:0:70:1-kick-01.mp3
42,192,81354,1,0,0:0:0:70:1-kick-01.mp3
469,192,81507,1,0,0:0:0:100:1-string-02.mp3
384,192,81660,1,0,0:0:0:100:1-string-03.mp3
128,192,81813,1,0,0:0:0:70:1-snare-02.mp3
384,192,81967,1,0,0:0:0:100:1-string-04.mp3
469,192,82120,1,0,0:0:0:100:1-string-05.mp3
42,192,82732,1,0,0:0:0:70:1-kick-01.mp3
469,192,82732,1,0,0:0:0:100:1-string-06.mp3
384,192,83038,1,0,0:0:0:100:1-string-07.mp3
128,192,83038,1,0,0:0:0:70:1-snare-02.mp3
42,192,83191,1,0,0:0:0:70:1-kick-01.mp3
469,192,83344,1,0,0:0:0:100:1-string-08.mp3
128,193,83650,1,0,0:0:0:100:1-scratch-44.mp3
469,192,83650,1,0,0:0:0:100:1-string-09.mp3
128,192,83803,1,0,0:0:0:100:1-scratch-45.mp3
128,192,83956,1,0,0:0:0:100:1-scratch-44.mp3
384,192,83956,1,0,0:0:0:100:1-string-10.mp3
128,192,84109,1,0,0:0:0:100:1-scratch-45.mp3
298,192,84109,1,0,0:0:0:100:1-string-11.mp3
42,192,84262,1,0,0:0:0:100:1-scratch-46.mp3
213,192,84415,1,0,0:0:0:100:1-scratch-47.mp3
384,192,84415,1,0,0:0:0:100:1-string-12.mp3
64,192,84568,1,0,0:0:0:100:1-scratch-48.mp3
469,192,84568,1,0,0:0:0:100:1-string-13.mp3
128,192,84875,1,0,0:0:0:100:1-scratch-46.mp3
213,192,85028,1,0,0:0:0:100:1-scratch-47.mp3
42,192,85181,1,0,0:0:0:100:1-scratch-48.mp3
384,192,85181,1,0,0:0:0:100:1-string-14.mp3
128,192,85487,128,0,85793:0:0:0:100:1-scratch-43.mp3
298,192,85487,1,0,0:0:0:100:1-string-15.mp3
469,192,85793,1,0,0:0:0:100:1-string-16.mp3
384,192,86099,1,0,0:0:0:100:1-string-01.mp3
42,192,86099,1,0,0:0:0:70:1-cym-01.mp3
469,192,86099,1,0,0:0:0:70:1-kick-01.mp3
469,192,86252,1,0,0:0:0:70:1-kick-01.mp3
298,192,86405,1,0,0:0:0:100:1-string-02.mp3
213,192,86558,1,0,0:0:0:100:1-string-03.mp3
42,192,86711,1,0,0:0:0:70:1-snare-02.mp3
213,192,86864,1,0,0:0:0:100:1-string-04.mp3
298,192,87017,1,0,0:0:0:100:1-string-05.mp3
213,192,87630,1,0,0:0:0:100:1-string-06.mp3
469,192,87630,1,0,0:0:0:70:1-kick-01.mp3
298,192,87936,1,0,0:0:0:100:1-string-07.mp3
42,192,87936,1,0,0:0:0:70:1-snare-02.mp3
469,192,88089,1,0,0:0:0:70:1-kick-01.mp3
128,192,88242,1,0,0:0:0:100:1-string-08.mp3
384,192,88548,128,0,89160:0:0:0:100:1-string-17.mp3
128,192,88854,128,0,89160:0:0:0:100:1-scratch-52.mp3
469,192,89160,128,0,90997:0:0:0:100:1-string-18.mp3
128,192,89313,128,0,89619:0:0:0:100:1-scratch-52.mp3
42,192,89772,1,0,0:0:0:100:1-scratch-46.mp3
213,192,89925,1,0,0:0:0:100:1-scratch-47.mp3
298,192,90079,1,0,0:0:0:100:1-scratch-48.mp3
213,192,90155,1,0,0:0:0:100:1-scratch-49.mp3
128,192,90232,1,0,0:0:0:100:1-scratch-50.mp3
64,192,90308,1,0,0:0:0:100:1-scratch-51.mp3
213,192,90385,128,0,90691:0:0:0:100:1-scratch-43.mp3
64,192,90997,1,0,0:0:0:100:1-scratch-61.mp3
384,192,90997,1,0,0:0:0:70:1-cym-01.mp3
64,192,91303,128,0,91609:0:0:0:100:1-scratch-59.mp3
384,192,91609,1,0,0:0:0:100:1-scratch-62.mp3
384,192,91762,1,0,0:0:0:100:1-scratch-63.mp3
384,192,91915,1,0,0:0:0:100:1-scratch-64.mp3
384,192,92068,1,0,0:0:0:100:1-scratch-65.mp3
128,192,92221,1,0,0:0:0:100:1-scratch-53.mp3
128,192,92374,1,0,0:0:0:100:1-scratch-54.mp3
128,192,92527,1,0,0:0:0:100:1-scratch-55.mp3
298,192,92604,1,0,0:0:0:100:1-scratch-56.mp3
213,192,92680,1,0,0:0:0:100:1-scratch-57.mp3
128,192,92757,1,0,0:0:0:100:1-scratch-58.mp3
42,192,92834,1,0,0:0:0:100:1-scratch-55.mp3
128,192,93140,128,0,93446:0:0:0:100:1-scratch-59.mp3
469,192,93446,128,0,93599:0:0:0:100:1-scratch-44.mp3
298,192,93599,128,0,93752:0:0:0:100:1-scratch-45.mp3
469,192,93752,128,0,93905:0:0:0:100:1-scratch-44.mp3
298,192,93905,128,0,94058:0:0:0:100:1-scratch-45.mp3
448,192,94058,128,0,94211:0:0:0:100:1-scratch-46.mp3
384,192,94211,128,0,94364:0:0:0:100:1-scratch-47.mp3
298,192,94364,1,0,0:0:0:100:1-scratch-48.mp3
213,192,94441,1,0,0:0:0:100:1-scratch-49.mp3
128,192,94517,1,0,0:0:0:100:1-scratch-50.mp3
42,192,94594,1,0,0:0:0:100:1-scratch-51.mp3
384,192,94670,1,0,0:0:0:100:1-scratch-46.mp3
298,192,94823,1,0,0:0:0:100:1-scratch-47.mp3
469,192,94976,1,0,0:0:0:100:1-scratch-48.mp3
384,192,95053,1,0,0:0:0:100:1-scratch-49.mp3
42,192,95129,1,0,0:0:0:100:1-scratch-50.mp3
128,192,95206,1,0,0:0:0:100:1-scratch-51.mp3
192,192,95282,1,0,0:0:0:100:1-scratch-63.mp3
192,192,95435,1,0,0:0:0:100:1-scratch-64.mp3
298,192,95589,1,0,0:0:0:100:1-scratch-65.mp3
298,192,95742,1,0,0:0:0:100:1-scratch-64.mp3
298,192,95895,1,0,0:0:0:70:1-cym-01.mp3
42,192,95895,1,0,0:0:0:100:1-scratch-53.mp3
384,192,96048,1,0,0:0:0:100:1-scratch-54.mp3
192,192,96201,1,0,0:0:0:100:1-scratch-55.mp3
320,192,96354,1,0,0:0:0:100:1-scratch-56.mp3
192,192,96507,1,0,0:0:0:100:1-scratch-57.mp3
384,192,96660,1,0,0:0:0:100:1-scratch-58.mp3
128,192,96813,128,0,96966:0:0:0:100:1-scratch-59.mp3
320,192,96966,1,0,0:0:0:100:1-scratch-53.mp3
384,192,97119,1,0,0:0:0:100:1-scratch-54.mp3
320,192,97272,1,0,0:0:0:100:1-scratch-66.mp3
320,192,97425,1,0,0:0:0:100:1-scratch-67.mp3
213,192,97578,1,0,0:0:0:100:1-scratch-68.mp3
384,192,97731,1,0,0:0:0:100:1-scratch-69.mp3
469,192,97884,128,0,98037:0:0:0:100:1-scratch-59.mp3
64,192,98344,1,0,0:0:0:100:1-scratch-60.mp3
469,192,98497,1,0,0:0:0:100:1-scratch-61.mp3
213,192,98650,1,0,0:0:0:100:1-scratch-55.mp3
298,192,98726,1,0,0:0:0:100:1-scratch-56.mp3
213,192,98803,1,0,0:0:0:100:1-scratch-57.mp3
320,192,98879,1,0,0:0:0:100:1-scratch-58.mp3
384,192,98956,1,0,0:0:0:100:1-scratch-55.mp3
128,192,99032,1,0,0:0:0:100:1-scratch-56.mp3
384,192,99109,1,0,0:0:0:100:1-scratch-57.mp3
128,192,99185,1,0,0:0:0:100:1-scratch-58.mp3
42,192,99262,1,0,0:0:0:100:1-scratch-53.mp3
128,192,99415,1,0,0:0:0:100:1-scratch-54.mp3
213,192,99491,1,0,0:0:0:100:1-scratch-55.mp3
298,192,99568,1,0,0:0:0:100:1-scratch-56.mp3
384,192,99645,1,0,0:0:0:100:1-scratch-57.mp3
469,192,99721,1,0,0:0:0:100:1-scratch-58.mp3
128,192,99874,1,0,0:0:0:100:1-scratch-53.mp3
128,192,100027,1,0,0:0:0:100:1-scratch-54.mp3
298,192,100180,1,0,0:0:0:100:1-scratch-66.mp3
469,192,100180,1,0,0:0:0:100:1-cym-01.mp3
213,192,100333,1,0,0:0:0:100:1-scratch-67.mp3
298,192,100486,1,0,0:0:0:100:1-scratch-68.mp3
128,192,100639,1,0,0:0:0:100:1-scratch-69.mp3
