osu file format v14

[General]
AudioFilename: audio.mp3
AudioLeadIn: 0
PreviewTime: 12632
Countdown: 0
SampleSet: None
StackLeniency: 0.7
Mode: 0
LetterboxInBreaks: 0
WidescreenStoryboard: 1

[Editor]
Bookmarks: -65,2836,10183,12632,22428,32223,42019,50590,51814,71406,78750,81201,90995,100790
DistanceSpacing: 1
BeatDivisor: 4
GridSize: 8
TimelineZoom: 1.900001

[Metadata]
Title:Sold On Your Love
TitleUnicode:Sold On Your Love
Artist:Mellow Funk Sound
ArtistUnicode:Mellow Funk Sound
Creator:DJBurbz
Version:Hard
Source:DJ Max Ray
Tags:DJMAX DJ Max Ray RnB Funky Smooth
BeatmapID:1510692
BeatmapSetID:714954

[Difficulty]
HPDrainRate:4
CircleSize:5
OverallDifficulty:6
ApproachRate:7
SliderMultiplier:0.999999904632566
SliderTickRate:1

[Events]
//Background and Video events
0,0,"bg.png",0,0
//Break Periods
2,71682,77852
//Storyboard Layer 0 (Background)
//Storyboard Layer 1 (Fail)
//Storyboard Layer 2 (Pass)
//Storyboard Layer 3 (Foreground)
//Storyboard Sound Samples
Sample,10183,0,"1- pianogt-01.mp3",70
Sample,10183,0,"1-brassstring-01.mp3",70
Sample,10183,0,"1-kick-01.mp3",70
Sample,10183,0,"1-cym-01.mp3",70
Sample,10336,0,"1- pianogt-02.mp3",70
Sample,10489,0,"1- pianogt-03.mp3",70
Sample,10642,0,"1- pianogt-04.mp3",70
Sample,10795,0,"1-kick-01.mp3",70
Sample,10795,0,"1-cym-01.mp3",70
Sample,10795,0,"1-brassstring-02.mp3",70
Sample,11407,0,"1-brassstring-03.mp3",70
Sample,11407,0,"1-cym-01.mp3",70
Sample,11407,0,"1- pianogt-05.mp3",70
Sample,11407,0,"1-kick-01.mp3",70
Sample,12020,0,"1-cym-01.mp3",70
Sample,12020,0,"1-brassstring-04.mp3",70
Sample,12020,0,"1-kick-01.mp3",70
Sample,12632,0,"1-kick-01.mp3",70
Sample,12632,0,"1-hh-01.mp3",70
Sample,12632,0,"1- pianogt-06.mp3",70
Sample,12785,0,"1- pianogt-07.mp3",70
Sample,12785,0,"1-kick-01.mp3",70
Sample,12938,0,"1- pianogt-08.mp3",70
Sample,12938,0,"1-hh-02.mp3",70
Sample,13091,0,"1- pianogt-09.mp3",70
Sample,13244,0,"1-snare-01.mp3",70
Sample,13244,0,"1-hh-01.mp3",70
Sample,13550,0,"1-hh-02.mp3",70
Sample,13856,0,"1- pianogt-10.mp3",70
Sample,13856,0,"1-hh-01.mp3",70
Sample,14009,0,"1- pianogt-11.mp3",70
Sample,14162,0,"1-kick-01.mp3",70
Sample,14162,0,"1-hh-02.mp3",70
Sample,14162,0,"1- pianogt-12.mp3",70
Sample,14316,0,"1- pianogt-13.mp3",70
Sample,14469,0,"1-hh-01.mp3",70
Sample,14469,0,"1-snare-01.mp3",70
Sample,14622,0,"1-kick-01.mp3",70
Sample,14775,0,"1-hh-02.mp3",70
Sample,15080,0,"1-kick-01.mp3",70
Sample,15080,0,"1-hh-01.mp3",70
Sample,15081,0,"1- pianogt-14.mp3",50
Sample,15081,0,"1- pianogt-14.mp3",70
Sample,15234,0,"1- pianogt-15.mp3",70
Sample,15234,0,"1-kick-01.mp3",70
Sample,15387,0,"1-hh-02.mp3",70
Sample,15387,0,"1- pianogt-16.mp3",70
Sample,15540,0,"1- pianogt-17.mp3",70
Sample,15693,0,"1-snare-01.mp3",70
Sample,15693,0,"1-hh-01.mp3",70
Sample,15999,0,"1-hh-02.mp3",70
Sample,16305,0,"1-hh-01.mp3",70
Sample,16610,0,"1-hh-03.mp3",70
Sample,16610,0,"1-kick-01.mp3",70
Sample,16611,0,"1- pianogt-19.mp3",70
Sample,16917,0,"1-snare-01.mp3",70
Sample,16917,0,"1-hh-01.mp3",70
Sample,17071,0,"1- pianogt-20.mp3",70
Sample,17224,0,"1-hh-02.mp3",70
Sample,17530,0,"1- pianogt-06.mp3",70
Sample,17530,0,"1-kick-01.mp3",70
Sample,17530,0,"1-hh-01.mp3",70
Sample,17683,0,"1- pianogt-07.mp3",70
Sample,17683,0,"1-kick-01.mp3",70
Sample,17836,0,"1-hh-02.mp3",70
Sample,17836,0,"1- pianogt-08.mp3",70
Sample,17989,0,"1- pianogt-09.mp3",70
Sample,18142,0,"1-snare-01.mp3",70
Sample,18142,0,"1-hh-01.mp3",70
Sample,18448,0,"1-hh-02.mp3",70
Sample,18754,0,"1- pianogt-10.mp3",70
Sample,18754,0,"1-hh-01.mp3",70
Sample,18907,0,"1- pianogt-11.mp3",70
Sample,19060,0,"1-hh-02.mp3",70
Sample,19060,0,"1- pianogt-12.mp3",70
Sample,19060,0,"1-kick-01.mp3",70
Sample,19213,0,"1- pianogt-13.mp3",70
Sample,19366,0,"1-snare-01.mp3",70
Sample,19366,0,"1-hh-01.mp3",70
Sample,19519,0,"1-kick-01.mp3",70
Sample,19673,0,"1-hh-02.mp3",70
Sample,19979,0,"1-pianogt-36.mp3",70
Sample,19979,0,"1-kick-01.mp3",70
Sample,19979,0,"1-hh-01.mp3",70
Sample,20132,0,"1-pianogt-37.mp3",70
Sample,20132,0,"1-kick-01.mp3",70
Sample,20285,0,"1-hh-03.mp3",70
Sample,20285,0,"1-pianogt-38.mp3",70
Sample,20438,0,"1-pianogt-39.mp3",70
Sample,20590,0,"1-snare-01.mp3",70
Sample,20591,0,"1-hh-01.mp3",70
Sample,20897,0,"1-hh-02.mp3",70
Sample,21050,0,"1-scratch-01.mp3",70
Sample,21127,0,"1-scratch-02.mp3",70
Sample,21165,0,"1-scratch-03.mp3",70
Sample,21203,0,"1-hh-01.mp3",70
Sample,21203,0,"1-scratch-04.mp3",70
Sample,21203,0,"1-pianogt-40.mp3",70
Sample,21356,0,"1-scratch-05.mp3",70
Sample,21509,0,"1-hh-02.mp3",70
Sample,21509,0,"1-scratch-04.mp3",70
Sample,21509,0,"1-hh-03.mp3",70
Sample,21662,0,"1-scratch-05.mp3",70
Sample,21815,0,"1-snare-01.mp3",70
Sample,21815,0,"1-scratch-06.mp3",70
Sample,21815,0,"1-hh-01.mp3",70
Sample,22121,0,"1-hh-02.mp3",70
Sample,22121,0,"1-kick-02.mp3",70
Sample,22428,0,"1- pianogt-06.mp3",70
Sample,22428,0,"1-cym-01.mp3",70
Sample,22428,0,"1-kick-01.mp3",70
Sample,22428,0,"1-hh-01.mp3",70
Sample,22580,0,"1-kick-01.mp3",70
Sample,22581,0,"1- pianogt-07.mp3",70
Sample,22734,0,"1-hh-02.mp3",70
Sample,22734,0,"1- pianogt-08.mp3",70
Sample,22887,0,"1- pianogt-09.mp3",70
Sample,23040,0,"1-hh-01.mp3",70
Sample,23040,0,"1-snare-01.mp3",70
Sample,23346,0,"1-hh-02.mp3",70
Sample,23652,0,"1- pianogt-10.mp3",70
Sample,23652,0,"1-hh-01.mp3",70
Sample,23805,0,"1- pianogt-11.mp3",70
Sample,23958,0,"1-hh-02.mp3",70
Sample,23958,0,"1-kick-01.mp3",70
Sample,23958,0,"1- pianogt-12.mp3",70
Sample,24111,0,"1- pianogt-13.mp3",70
Sample,24264,0,"1-hh-01.mp3",70
Sample,24264,0,"1-snare-01.mp3",70
Sample,24417,0,"1-kick-01.mp3",70
Sample,24570,0,"1-hh-02.mp3",70
Sample,24876,0,"1- pianogt-14.mp3",70
Sample,24876,0,"1-hh-01.mp3",70
Sample,24876,0,"1-kick-01.mp3",70
Sample,25029,0,"1-kick-01.mp3",70
Sample,25029,0,"1- pianogt-15.mp3",70
Sample,25183,0,"1- pianogt-16.mp3",70
Sample,25183,0,"1-hh-02.mp3",70
Sample,25336,0,"1- pianogt-17.mp3",70
Sample,25489,0,"1-hh-01.mp3",70
Sample,25489,0,"1-snare-01.mp3",70
Sample,25795,0,"1-hh-02.mp3",70
Sample,26100,0,"1-hh-01.mp3",70
Sample,26407,0,"1- pianogt-18.mp3",70
Sample,26407,0,"1-hh-03.mp3",70
Sample,26407,0,"1-kick-01.mp3",70
Sample,26713,0,"1-hh-01.mp3",70
Sample,26713,0,"1-snare-01.mp3",70
Sample,26866,0,"1- pianogt-19.mp3",70
Sample,27019,0,"1-hh-02.mp3",70
Sample,27325,0,"1- pianogt-06.mp3",70
Sample,27325,0,"1-hh-01.mp3",70
Sample,27325,0,"1-kick-01.mp3",70
Sample,27478,0,"1- pianogt-07.mp3",70
Sample,27478,0,"1-kick-01.mp3",70
Sample,27630,0,"1-hh-02.mp3",70
Sample,27631,0,"1- pianogt-08.mp3",70
Sample,27785,0,"1- pianogt-09.mp3",70
Sample,27938,0,"1-hh-01.mp3",70
Sample,27938,0,"1-snare-01.mp3",70
Sample,28244,0,"1-hh-02.mp3",70
Sample,28550,0,"1- pianogt-10.mp3",70
Sample,28550,0,"1-hh-01.mp3",70
Sample,28703,0,"1- pianogt-11.mp3",70
Sample,28856,0,"1- pianogt-12.mp3",70
Sample,28856,0,"1-kick-01.mp3",70
Sample,29009,0,"1- pianogt-13.mp3",70
Sample,29162,0,"1-hh-01.mp3",70
Sample,29162,0,"1-snare-01.mp3",70
Sample,29315,0,"1-kick-01.mp3",70
Sample,29468,0,"1-hh-02.mp3",70
Sample,29774,0,"1-hh-01.mp3",70
Sample,29774,0,"1-pianogt-36.mp3",70
Sample,29774,0,"1-kick-01.mp3",70
Sample,29927,0,"1-kick-01.mp3",70
Sample,29927,0,"1-pianogt-37.mp3",70
Sample,30080,0,"1-pianogt-38.mp3",70
Sample,30080,0,"1-hh-03.mp3",70
Sample,30233,0,"1-pianogt-39.mp3",70
Sample,30386,0,"1-snare-01.mp3",70
Sample,30386,0,"1-brassstring-21.mp3",70
Sample,30386,0,"1-hh-01.mp3",70
Sample,30386,0,"1-scratch-04.mp3",70
Sample,30540,0,"1-scratch-05.mp3",70
Sample,30693,0,"1-hh-02.mp3",70
Sample,30693,0,"1-scratch-01.mp3",70
Sample,30769,0,"1-scratch-02.mp3",100
Sample,30769,0,"1-scratch-03.mp3",70
Sample,30846,0,"1-scratch-03.mp3",100
Sample,30999,0,"1-scratch-04.mp3",70
Sample,30999,0,"1-hh-01.mp3",70
Sample,30999,0,"1-pianogt-40.mp3",70
Sample,31152,0,"1-scratch-05.mp3",70
Sample,31305,0,"1-hh-03.mp3",70
Sample,31305,0,"1-scratch-04.mp3",70
Sample,31458,0,"1-scratch-05.mp3",70
Sample,31611,0,"1-snare-01.mp3",70
Sample,31611,0,"1-kick-02.mp3",70
Sample,31611,0,"1-scratch-06.mp3",70
Sample,31611,0,"1-hh-01.mp3",70
Sample,31917,0,"1-kick-02.mp3",70
Sample,31917,0,"1-hh-02.mp3",70
Sample,32223,0,"1- pianogt-06.mp3",70
Sample,32223,0,"1-hh-01.mp3",70
Sample,32223,0,"1-kick-01.mp3",70
Sample,32376,0,"1- pianogt-07.mp3",70
Sample,32376,0,"1-kick-01.mp3",70
Sample,32529,0,"1- pianogt-08.mp3",70
Sample,32529,0,"1-hh-02.mp3",70
Sample,32682,0,"1- pianogt-09.mp3",70
Sample,32835,0,"1-hh-01.mp3",70
Sample,33141,0,"1-hh-02.mp3",70
Sample,33448,0,"1-hh-01.mp3",70
Sample,33448,0,"1- pianogt-10.mp3",70
Sample,33601,0,"1- pianogt-11.mp3",70
Sample,33754,0,"1-hh-02.mp3",70
Sample,33754,0,"1- pianogt-12.mp3",70
Sample,33907,0,"1- pianogt-13.mp3",70
Sample,34060,0,"1-hh-01.mp3",70
Sample,34366,0,"1-hh-02.mp3",70
Sample,34672,0,"1- pianogt-14.mp3",70
Sample,34672,0,"1-hh-01.mp3",70
Sample,34825,0,"1- pianogt-15.mp3",70
Sample,34978,0,"1- pianogt-16.mp3",70
Sample,34978,0,"1-hh-02.mp3",70
Sample,35131,0,"1- pianogt-17.mp3",70
Sample,35284,0,"1-hh-01.mp3",70
Sample,35590,0,"1- pianogt-18.mp3",70
Sample,36203,0,"1- pianogt-19.mp3",70
Sample,36203,0,"1-kick-01.mp3",70
Sample,36509,0,"1-hh-01.mp3",70
Sample,36662,0,"1- pianogt-20.mp3",70
Sample,36815,0,"1-hh-02.mp3",70
Sample,37121,0,"1-hh-01.mp3",70
Sample,37121,0,"1- pianogt-06.mp3",70
Sample,37274,0,"1- pianogt-07.mp3",70
Sample,37427,0,"1-hh-02.mp3",70
Sample,37427,0,"1- pianogt-08.mp3",70
Sample,37580,0,"1- pianogt-09.mp3",70
Sample,37733,0,"1-hh-01.mp3",70
Sample,38039,0,"1-hh-02.mp3",70
Sample,38345,0,"1- pianogt-10.mp3",70
Sample,38345,0,"1-hh-01.mp3",70
Sample,38498,0,"1- pianogt-11.mp3",70
Sample,38652,0,"1- pianogt-12.mp3",70
Sample,38652,0,"1-hh-02.mp3",70
Sample,38805,0,"1- pianogt-13.mp3",70
Sample,38958,0,"1-hh-01.mp3",70
Sample,39264,0,"1-hh-02.mp3",70
Sample,39570,0,"1-hh-01.mp3",70
Sample,39876,0,"1-hh-03.mp3",70
Sample,39876,0,"1-scratch-07.mp3",70
Sample,40182,0,"1-snare-01.mp3",70
Sample,40182,0,"1-hh-01.mp3",70
Sample,40182,0,"1-scratch-08.mp3",70
Sample,40335,0,"1-scratch-09.mp3",70
Sample,40488,0,"1-hh-02.mp3",70
Sample,40488,0,"1-scratch-10.mp3",70
Sample,40526,0,"1-scratch-11.mp3",70
Sample,40641,0,"1-scratch-12.mp3",70
Sample,40680,0,"1-scratch-16.mp3",70
Sample,40743,0,"1-scratch-17.mp3",100
Sample,40794,0,"1-scratch-13.mp3",70
Sample,40794,0,"1-hh-01.mp3",70
Sample,40947,0,"1-scratch-03.mp3",70
Sample,41100,0,"1-hh-03.mp3",70
Sample,41100,0,"1-kick-01.mp3",70
Sample,41100,0,"1-scratch-15.mp3",70
Sample,41253,0,"1-scratch-16.mp3",70
Sample,41253,0,"1-scratch-16.mp3",70
Sample,41407,0,"1-snare-01.mp3",70
Sample,41407,0,"1-hh-01.mp3",70
Sample,41560,0,"1-kick-01.mp3",70
Sample,41713,0,"1-hh-02.mp3",70
Sample,42019,0,"1-hh-01.mp3",70
Sample,42019,0,"1- pianogt-06.mp3",70
Sample,42172,0,"1- pianogt-07.mp3",70
Sample,42325,0,"1- pianogt-08.mp3",70
Sample,42325,0,"1-hh-02.mp3",70
Sample,42478,0,"1- pianogt-09.mp3",70
Sample,42631,0,"1-hh-01.mp3",70
Sample,42937,0,"1-hh-02.mp3",70
Sample,43243,0,"1-hh-01.mp3",70
Sample,43243,0,"1- pianogt-10.mp3",70
Sample,43396,0,"1- pianogt-11.mp3",70
Sample,43549,0,"1- pianogt-12.mp3",70
Sample,43549,0,"1-hh-02.mp3",70
Sample,43702,0,"1- pianogt-13.mp3",70
Sample,43855,0,"1-hh-01.mp3",70
Sample,44162,0,"1-hh-02.mp3",70
Sample,44468,0,"1- pianogt-14.mp3",70
Sample,44468,0,"1-hh-01.mp3",70
Sample,44621,0,"1- pianogt-15.mp3",70
Sample,44774,0,"1-hh-02.mp3",70
Sample,44774,0,"1- pianogt-16.mp3",70
Sample,44927,0,"1- pianogt-17.mp3",70
Sample,45080,0,"1-hh-01.mp3",70
Sample,45386,0,"1- pianogt-18.mp3",70
Sample,45998,0,"1-hh-01.mp3",70
Sample,45998,0,"1- pianogt-19.mp3",70
Sample,46304,0,"1-hh-01.mp3",70
Sample,46457,0,"1-kick-01.mp3",70
Sample,46457,0,"1- pianogt-20.mp3",70
Sample,46917,0,"1-hh-01.mp3",70
Sample,46917,0,"1- pianogt-06.mp3",70
Sample,47070,0,"1- pianogt-07.mp3",70
Sample,47223,0,"1-hh-02.mp3",70
Sample,47223,0,"1- pianogt-08.mp3",70
Sample,47376,0,"1- pianogt-09.mp3",70
Sample,47529,0,"1-hh-01.mp3",70
Sample,47835,0,"1-hh-02.mp3",70
Sample,48141,0,"1-hh-01.mp3",70
Sample,48141,0,"1- pianogt-10.mp3",70
Sample,48294,0,"1- pianogt-11.mp3",70
Sample,48447,0,"1-hh-02.mp3",70
Sample,48447,0,"1- pianogt-12.mp3",70
Sample,48600,0,"1- pianogt-13.mp3",70
Sample,48753,0,"1-hh-01.mp3",70
Sample,49059,0,"1-hh-02.mp3",70
Sample,49289,0,"1-pianogt-37.mp3",70
Sample,49365,0,"1-hh-01.mp3",70
Sample,49365,0,"1-pianogt-36.mp3",70
Sample,49365,0,"1-pianogt-36.mp3",100
Sample,49519,0,"1-pianogt-37.mp3",70
Sample,49519,0,"1-pianogt-37.mp3",100
Sample,49672,0,"1-scratch-07.mp3",70
Sample,49672,0,"1-pianogt-38.mp3",100
Sample,49672,0,"1-hh-02.mp3",70
Sample,49672,0,"1-pianogt-38.mp3",70
Sample,49825,0,"1-pianogt-39.mp3",70
Sample,49825,0,"1-pianogt-39.mp3",100
Sample,49978,0,"1-hh-01.mp3",70
Sample,49978,0,"1-scratch-08.mp3",70
Sample,50131,0,"1-scratch-09.mp3",70
Sample,50284,0,"1-hh-02.mp3",70
Sample,50284,0,"1-scratch-10.mp3",70
Sample,50284,0,"1-kick-02.mp3",70
Sample,50386,0,"1-scratch-11.mp3",70
Sample,50437,0,"1-scratch-12.mp3",70
Sample,50590,0,"1-hh-01.mp3",70
Sample,50590,0,"1-scratch-13.mp3",70
Sample,50590,0,"1-kick-02.mp3",70
Sample,50590,0,"1-pianogt-40.mp3",70
Sample,50590,0,"1-pianogt-40.mp3",70
Sample,50743,0,"1-scratch-14.mp3",70
Sample,50896,0,"1-scratch-15.mp3",70
Sample,50896,0,"1-kick-01.mp3",70
Sample,50896,0,"1-hh-02.mp3",70
Sample,50934,0,"1-scratch-16.mp3",70
Sample,50947,0,"1-scratch-17.mp3",70
Sample,51202,0,"1-hh-01.mp3",70
Sample,51202,0,"1-scratch-18.mp3",70
Sample,51202,0,"1-snare-01.mp3",70
Sample,51508,0,"1-hh-02.mp3",70
Sample,51814,0,"1-cym-01.mp3",70
Sample,51814,0,"1- pianogt-22.mp3",70
Sample,51814,0,"1-kick-01.mp3",70
Sample,51967,0,"1- pianogt-23.mp3",70
Sample,51967,0,"1-kick-01.mp3",70
Sample,52120,0,"1- pianogt-22.mp3",70
Sample,52274,0,"1- pianogt-25.mp3",70
Sample,52427,0,"1-snare-02.mp3",70
Sample,52733,0,"1-pianosolo2-01.mp3",70
Sample,52733,0,"1- pianogt-26.mp3",70
Sample,52886,0,"1- pianogt-27.mp3",70
Sample,53345,0,"1-kick-01.mp3",70
Sample,53651,0,"1-snare-02.mp3",70
Sample,53804,0,"1-kick-01.mp3",70
Sample,54110,0,"1- pianogt-28.mp3",70
Sample,54263,0,"1- pianogt-22.mp3",70
Sample,54263,0,"1-kick-01.mp3",70
Sample,54416,0,"1-kick-01.mp3",70
Sample,54416,0,"1- pianogt-23.mp3",70
Sample,54569,0,"1- pianogt-22.mp3",70
Sample,54722,0,"1- pianogt-25.mp3",70
Sample,54876,0,"1-snare-02.mp3",70
Sample,55182,0,"1- pianogt-26.mp3",70
Sample,55335,0,"1- pianogt-27.mp3",70
Sample,55794,0,"1-kick-01.mp3",70
Sample,56100,0,"1-snare-02.mp3",70
Sample,56559,0,"1- pianogt-28.mp3",70
Sample,56712,0,"1- pianogt-29.mp3",70
Sample,56712,0,"1-kick-01.mp3",70
Sample,56865,0,"1- pianogt-30.mp3",70
Sample,56865,0,"1-kick-01.mp3",70
Sample,57018,0,"1- pianogt-29.mp3",70
Sample,57171,0,"1- pianogt-31.mp3",70
Sample,57324,0,"1-snare-02.mp3",70
Sample,57631,0,"1- pianogt-32.mp3",70
Sample,57784,0,"1- pianogt-33.mp3",70
Sample,58243,0,"1-kick-01.mp3",70
Sample,58549,0,"1-snare-02.mp3",70
Sample,58549,0,"1- pianogt-34.mp3",70
Sample,58702,0,"1-kick-01.mp3",70
Sample,59008,0,"1- pianogt-35.mp3",100
Sample,59008,0,"1- pianogt-35.mp3",70
Sample,59008,0,"1- pianogt-35.mp3",100
Sample,59008,0,"1- pianogt-35.mp3",100
Sample,59161,0,"1- pianogt-29.mp3",70
Sample,59161,0,"1-kick-01.mp3",70
Sample,59314,0,"1-kick-01.mp3",70
Sample,59314,0,"1- pianogt-30.mp3",70
Sample,59467,0,"1- pianogt-29.mp3",70
Sample,59620,0,"1- pianogt-31.mp3",70
Sample,59773,0,"1-snare-02.mp3",70
Sample,60079,0,"1- pianogt-32.mp3",70
Sample,60232,0,"1- pianogt-33.mp3",70
Sample,60692,0,"1-kick-01.mp3",70
Sample,60998,0,"1- pianogt-34.mp3",50
Sample,60998,0,"1- pianogt-34.mp3",70
Sample,60998,0,"1-snare-02.mp3",70
Sample,61457,0,"1- pianogt-35.mp3",100
Sample,61457,0,"1- pianogt-35.mp3",70
Sample,61610,0,"1- pianogt-22.mp3",70
Sample,61610,0,"1-kick-01.mp3",70
Sample,61610,0,"1-pianosolo2-04.mp3",70
Sample,61763,0,"1-kick-01.mp3",70
Sample,61763,0,"1- pianogt-23.mp3",70
Sample,61916,0,"1- pianogt-22.mp3",70
Sample,62069,0,"1- pianogt-25.mp3",70
Sample,62222,0,"1-snare-02.mp3",70
Sample,62528,0,"1- pianogt-26.mp3",70
Sample,62681,0,"1- pianogt-27.mp3",70
Sample,63102,0,"1-kick-01.mp3",70
Sample,63408,0,"1-snare-02.mp3",70
Sample,63561,0,"1-kick-01.mp3",70
Sample,63906,0,"1- pianogt-28.mp3",70
Sample,63906,0,"1-pianosolo2-05.mp3",70
Sample,64059,0,"1-kick-01.mp3",70
Sample,64059,0,"1- pianogt-22.mp3",70
Sample,64212,0,"1-kick-01.mp3",70
Sample,64212,0,"1- pianogt-23.mp3",70
Sample,64365,0,"1- pianogt-22.mp3",70
Sample,64518,0,"1- pianogt-25.mp3",70
Sample,64671,0,"1-snare-02.mp3",70
Sample,64824,0,"1-pianosolo2-06.mp3",70
Sample,64977,0,"1- pianogt-26.mp3",70
Sample,65130,0,"1-pianosolo2-07.mp3",70
Sample,65130,0,"1- pianogt-27.mp3",70
Sample,65589,0,"1-kick-01.mp3",70
Sample,65896,0,"1-snare-02.mp3",70
Sample,66355,0,"1- pianogt-28.mp3",70
Sample,66355,0,"1-pianosolo2-08.mp3",70
Sample,66508,0,"1-kick-01.mp3",70
Sample,66508,0,"1- pianogt-29.mp3",70
Sample,66661,0,"1- pianogt-30.mp3",70
Sample,66661,0,"1-kick-01.mp3",70
Sample,66814,0,"1- pianogt-29.mp3",70
Sample,66967,0,"1- pianogt-31.mp3",70
Sample,67120,0,"1-snare-02.mp3",70
Sample,67426,0,"1- pianogt-32.mp3",70
Sample,67579,0,"1- pianogt-33.mp3",70
Sample,68038,0,"1-kick-01.mp3",70
Sample,68344,0,"1-snare-02.mp3",70
Sample,68344,0,"1- pianogt-34.mp3",70
Sample,68344,0,"1- pianogt-34.mp3",50
Sample,68498,0,"1-pianosolo2-09.mp3",70
Sample,68498,0,"1-kick-01.mp3",70
Sample,68804,0,"1- pianogt-35.mp3",100
Sample,68804,0,"1- pianogt-35.mp3",70
Sample,68957,0,"1-pianosolo2-10.mp3",70
Sample,68957,0,"1- pianogt-29.mp3",70
Sample,68957,0,"1-kick-01.mp3",70
Sample,69110,0,"1- pianogt-30.mp3",70
Sample,69110,0,"1-kick-01.mp3",70
Sample,69263,0,"1- pianogt-29.mp3",70
Sample,69263,0,"1-scratch-07.mp3",70
Sample,69416,0,"1- pianogt-31.mp3",70
Sample,69569,0,"1-scratch-08.mp3",70
Sample,69569,0,"1-snare-02.mp3",70
Sample,69722,0,"1-scratch-09.mp3",70
Sample,69875,0,"1- pianogt-32.mp3",70
Sample,69875,0,"1-scratch-10.mp3",70
Sample,69977,0,"1-scratch-11.mp3",70
Sample,70028,0,"1-pianosolo2-11.mp3",70
Sample,70028,0,"1-scratch-12.mp3",70
Sample,70028,0,"1- pianogt-33.mp3",70
Sample,70181,0,"1-scratch-13.mp3",70
Sample,70334,0,"1-scratch-14.mp3",70
Sample,70487,0,"1-kick-01.mp3",70
Sample,70487,0,"1-scratch-15.mp3",70
Sample,70526,0,"1-scratch-16.mp3",70
Sample,70589,0,"1-scratch-17.mp3",70
Sample,70793,0,"1- pianogt-34.mp3",50
Sample,70793,0,"1-snare-02.mp3",70
Sample,70793,0,"1-scratch-18.mp3",70
Sample,70793,0,"1- pianogt-34.mp3",70
Sample,71253,0,"1- pianogt-35.mp3",70
Sample,71253,0,"1- pianogt-35.mp3",50
Sample,71406,0,"1-guitar-01.mp3",70
Sample,71406,0,"1-pianosolo2-12.mp3",70
Sample,71406,0,"1-cym-02.mp3",70
Sample,71406,0,"1-synth-01.mp3",70
Sample,71406,0,"1-scratch-19.mp3",70
Sample,71559,0,"1-guitar-02.mp3",70
Sample,71712,0,"1-guitar-03.mp3",70
Sample,71712,0,"1-synth-01.mp3",70
Sample,71865,0,"1-synth-02.mp3",70
Sample,71865,0,"1-guitar-04.mp3",70
Sample,72018,0,"1-scratch-20.mp3",70
Sample,72171,0,"1-synth-02.mp3",70
Sample,72324,0,"1-synth-03.mp3",70
Sample,72630,0,"1-scratch-19.mp3",70
Sample,72630,0,"1-guitar-05.mp3",70
Sample,72783,0,"1-guitar-06.mp3",70
Sample,72936,0,"1-guitar-07.mp3",70
Sample,72936,0,"1-synth-01.mp3",70
Sample,73089,0,"1-guitar-05.mp3",70
Sample,73242,0,"1-guitar-06.mp3",70
Sample,73242,0,"1-synth-02.mp3",70
Sample,73242,0,"1-scratch-20.mp3",70
Sample,73395,0,"1-guitar-10.mp3",70
Sample,73472,0,"1-guitar-10.mp3",100
Sample,73548,0,"1-synth-03.mp3",70
Sample,73548,0,"1-guitar-10.mp3",100
Sample,73625,0,"1-guitar-13.mp3",70
Sample,73855,0,"1-guitar-14.mp3",70
Sample,73855,0,"1-synth-01.mp3",70
Sample,73855,0,"1-scratch-19.mp3",70
Sample,74008,0,"1-guitar-15.mp3",70
Sample,74161,0,"1-guitar-16.mp3",70
Sample,74161,0,"1-synth-01.mp3",70
Sample,74314,0,"1-guitar-17.mp3",70
Sample,74314,0,"1-synth-02.mp3",70
Sample,74467,0,"1-scratch-20.mp3",70
Sample,74620,0,"1-synth-02.mp3",70
Sample,74773,0,"1-guitar-18.mp3",70
Sample,74773,0,"1-synth-03.mp3",70
Sample,75079,0,"1-scratch-19.mp3",70
Sample,75079,0,"1- pianosolo-76.mp3",70
Sample,75385,0,"1-synth-01.mp3",70
Sample,75385,0,"1- pianosolo-77.mp3",70
Sample,75538,0,"1- pianosolo-78.mp3",70
Sample,75538,0,"1-guitar-19.mp3",70
Sample,75615,0,"1-guitar-20.mp3",100
Sample,75691,0,"1-scratch-20.mp3",70
Sample,75691,0,"1-guitar-19.mp3",70
Sample,75691,0,"1-synth-02.mp3",70
Sample,75768,0,"1-guitar-20.mp3",100
Sample,75844,0,"1-guitar-21.mp3",70
Sample,75844,0,"1- pianosolo-79.mp3",70
Sample,75997,0,"1-synth-03.mp3",70
Sample,76227,0,"1- pianosolo-80.mp3",70
Sample,76303,0,"1-guitar-01.mp3",70
Sample,76303,0,"1-synth-01.mp3",70
Sample,76303,0,"1- pianosolo-80.mp3",70
Sample,76303,0,"1-scratch-19.mp3",70
Sample,76456,0,"1-guitar-02.mp3",70
Sample,76610,0,"1-guitar-01.mp3",70
Sample,76610,0,"1-synth-01.mp3",70
Sample,76763,0,"1-guitar-02.mp3",70
Sample,76763,0,"1-synth-02.mp3",70
Sample,76916,0,"1-guitar-23.mp3",70
Sample,76916,0,"1-scratch-20.mp3",70
Sample,77069,0,"1-synth-02.mp3",70
Sample,77222,0,"1-synth-03.mp3",70
Sample,77528,0,"1-guitar-05.mp3",70
Sample,77528,0,"1-scratch-19.mp3",70
Sample,77681,0,"1-guitar-06.mp3",70
Sample,77834,0,"1-guitar-07.mp3",70
Sample,77834,0,"1-synth-01.mp3",70
Sample,77987,0,"1-guitar-05.mp3",70
Sample,78140,0,"1-synth-02.mp3",70
Sample,78140,0,"1-scratch-20.mp3",70
Sample,78140,0,"1-guitar-06.mp3",70
Sample,78293,0,"1-guitar-10.mp3",70
Sample,78370,0,"1-guitar-10.mp3",100
Sample,78446,0,"1-synth-03.mp3",70
Sample,78446,0,"1-guitar-10.mp3",100
Sample,78523,0,"1-guitar-13.mp3",70
Sample,78599,0,"1- pianosolo-88.mp3",70
Sample,78676,0,"1- pianosolo-89.mp3",70
Sample,78752,0,"1-synth-01.mp3",70
Sample,78752,0,"1-scratch-27.mp3",70
Sample,78752,0,"1-guitar-14.mp3",70
Sample,78752,0,"1- pianosolo-90.mp3",70
Sample,78829,0,"1- pianosolo-91.mp3",70
Sample,78905,0,"1-guitar-15.mp3",70
Sample,79058,0,"1-scratch-27.mp3",70
Sample,79058,0,"1-synth-01.mp3",70
Sample,79058,0,"1-guitar-16.mp3",70
Sample,79133,0,"1-scratch-56.mp3",100
Sample,79211,0,"1-guitar-17.mp3",70
Sample,79211,0,"1-synth-02.mp3",70
Sample,79286,0,"1-scratch-58.mp3",100
Sample,79365,0,"1-scratch-27.mp3",70
Sample,79518,0,"1-synth-02.mp3",70
Sample,79671,0,"1-scratch-27.mp3",70
Sample,79671,0,"1-guitar-22.mp3",70
Sample,79671,0,"1-synth-03.mp3",70
Sample,79977,0,"1-scratch-28.mp3",70
Sample,80130,0,"1-scratch-28.mp3",70
Sample,80283,0,"1-synth-01.mp3",70
Sample,80283,0,"1-scratch-28.mp3",70
Sample,80436,0,"1-scratch-28.mp3",70
Sample,80589,0,"1-scratch-29.mp3",70
Sample,80589,0,"1-synth-02.mp3",70
Sample,80666,0,"1-scratch-29.mp3",70
Sample,80742,0,"1-scratch-29.mp3",70
Sample,80819,0,"1-scratch-29.mp3",70
Sample,80895,0,"1-synth-03.mp3",70
Sample,80895,0,"1-scratch-29.mp3",70
Sample,80972,0,"1-scratch-29.mp3",70
Sample,81048,0,"1-scratch-29.mp3",70
Sample,81125,0,"1-scratch-29.mp3",70
Sample,81200,0,"1-kick-01.mp3",70
Sample,81201,0,"1-brass-01.mp3",70
Sample,81201,0,"1- pianogt-06.mp3",70
Sample,81201,0,"1-hh-01.mp3",70
Sample,81201,0,"1-cym-01.mp3",70
Sample,81354,0,"1-kick-01.mp3",70
Sample,81354,0,"1-brass-01.mp3",70
Sample,81354,0,"1- pianogt-07.mp3",70
Sample,81507,0,"1-hh-02.mp3",70
Sample,81507,0,"1- pianogt-08.mp3",70
Sample,81660,0,"1- pianogt-09.mp3",70
Sample,81813,0,"1-snare-02.mp3",70
Sample,81813,0,"1-hh-01.mp3",70
Sample,82120,0,"1-hh-02.mp3",70
Sample,82426,0,"1-hh-01.mp3",70
Sample,82426,0,"1- pianogt-10.mp3",70
Sample,82579,0,"1- pianogt-11.mp3",70
Sample,82732,0,"1-kick-01.mp3",70
Sample,82732,0,"1- pianogt-12.mp3",70
Sample,82732,0,"1-hh-02.mp3",70
Sample,82732,0,"1-brass-02.mp3",70
Sample,82885,0,"1- pianogt-13.mp3",70
Sample,83038,0,"1-hh-01.mp3",70
Sample,83038,0,"1-snare-02.mp3",70
Sample,83190,0,"1-kick-01.mp3",70
Sample,83191,0,"1-brass-02.mp3",70
Sample,83344,0,"1-hh-02.mp3",70
Sample,83650,0,"1-brass-03.mp3",70
Sample,83650,0,"1-string-09.mp3",70
Sample,83650,0,"1-string-09.mp3",70
Sample,83650,0,"1-hh-01.mp3",70
Sample,83650,0,"1- pianogt-14.mp3",70
Sample,83650,0,"1-kick-01.mp3",70
Sample,83803,0,"1-kick-01.mp3",70
Sample,83803,0,"1- pianogt-15.mp3",70
Sample,83956,0,"1- pianogt-16.mp3",70
Sample,83956,0,"1-string-10.mp3",70
Sample,83956,0,"1-hh-02.mp3",70
Sample,84109,0,"1- pianogt-16.mp3",70
Sample,84109,0,"1-string-11.mp3",70
Sample,84262,0,"1-snare-02.mp3",70
Sample,84262,0,"1-hh-01.mp3",70
Sample,84415,0,"1-string-12.mp3",70
Sample,84568,0,"1- pianogt-18.mp3",70
Sample,84568,0,"1-string-13.mp3",70
Sample,84568,0,"1-hh-02.mp3",70
Sample,84875,0,"1-hh-01.mp3",70
Sample,85180,0,"1-kick-01.mp3",70
Sample,85181,0,"1-string-14.mp3",70
Sample,85181,0,"1-brass-04.mp3",70
Sample,85181,0,"1-hh-03.mp3",70
Sample,85181,0,"1- pianogt-19.mp3",70
Sample,85487,0,"1-string-15.mp3",70
Sample,85487,0,"1-hh-01.mp3",70
Sample,85487,0,"1-snare-02.mp3",70
Sample,85640,0,"1-brass-05.mp3",70
Sample,85640,0,"1- pianogt-20.mp3",70
Sample,85793,0,"1-string-16.mp3",70
Sample,85793,0,"1-hh-02.mp3",70
Sample,86099,0,"1-brass-01.mp3",70
Sample,86099,0,"1-kick-01.mp3",70
Sample,86099,0,"1- pianogt-06.mp3",70
Sample,86099,0,"1-cym-01.mp3",70
Sample,86099,0,"1-hh-01.mp3",70
Sample,86252,0,"1-kick-01.mp3",70
Sample,86252,0,"1-brass-01.mp3",70
Sample,86252,0,"1- pianogt-07.mp3",70
Sample,86405,0,"1- pianogt-08.mp3",70
Sample,86405,0,"1-hh-02.mp3",70
Sample,86558,0,"1- pianogt-09.mp3",70
Sample,86710,0,"1-snare-02.mp3",70
Sample,86711,0,"1-hh-01.mp3",70
Sample,87017,0,"1-hh-02.mp3",70
Sample,87323,0,"1- pianogt-10.mp3",70
Sample,87323,0,"1-hh-01.mp3",70
Sample,87477,0,"1- pianogt-11.mp3",70
Sample,87630,0,"1-kick-01.mp3",70
Sample,87630,0,"1- pianogt-12.mp3",70
Sample,87630,0,"1-brass-02.mp3",70
Sample,87630,0,"1-hh-02.mp3",70
Sample,87783,0,"1- pianogt-13.mp3",70
Sample,87936,0,"1-snare-02.mp3",70
Sample,87936,0,"1-hh-01.mp3",70
Sample,88089,0,"1-brass-02.mp3",70
Sample,88089,0,"1-kick-01.mp3",70
Sample,88242,0,"1-hh-02.mp3",70
Sample,88548,0,"1-brass-06.mp3",70
Sample,88548,0,"1-string-17.mp3",70
Sample,88548,0,"1-pianogt-36.mp3",70
Sample,88548,0,"1-kick-01.mp3",70
Sample,88548,0,"1-hh-01.mp3",70
Sample,88700,0,"1-kick-01.mp3",70
Sample,88701,0,"1-pianogt-37.mp3",70
Sample,88854,0,"1-hh-02.mp3",70
Sample,88854,0,"1-pianogt-38.mp3",70
Sample,89007,0,"1-pianogt-39.mp3",70
Sample,89160,0,"1-hh-01.mp3",70
Sample,89160,0,"1-snare-02.mp3",70
Sample,89466,0,"1-string-18.mp3",70
Sample,89466,0,"1-hh-02.mp3",70
Sample,89466,0,"1-pianogt-40.mp3",70
Sample,89772,0,"1-hh-01.mp3",70
Sample,90079,0,"1-hh-03.mp3",70
Sample,90079,0,"1-kick-01.mp3",70
Sample,90115,0,"1-scratch-49.mp3",100
Sample,90191,0,"1-scratch-51.mp3",100
Sample,90385,0,"1-snare-02.mp3",70
Sample,90385,0,"1-hh-01.mp3",70
Sample,90691,0,"1-hh-02.mp3",70
Sample,90997,0,"1-string-01.mp3",70
Sample,90997,0,"1-brass-01.mp3",70
Sample,90997,0,"1-kick-01.mp3",70
Sample,90997,0,"1-hh-01.mp3",70
Sample,90997,0,"1- pianogt-06.mp3",70
Sample,90997,0,"1-cym-01.mp3",70
Sample,91150,0,"1- pianogt-07.mp3",70
Sample,91150,0,"1-kick-01.mp3",70
Sample,91150,0,"1-brass-01.mp3",70
Sample,91303,0,"1- pianogt-08.mp3",70
Sample,91303,0,"1-hh-02.mp3",70
Sample,91303,0,"1-string-02.mp3",70
Sample,91456,0,"1-string-02.mp3",70
Sample,91456,0,"1- pianogt-09.mp3",70
Sample,91609,0,"1-snare-02.mp3",70
Sample,91609,0,"1-hh-01.mp3",70
Sample,91762,0,"1-string-04.mp3",70
Sample,91915,0,"1-hh-02.mp3",70
Sample,91915,0,"1-string-05.mp3",70
Sample,92221,0,"1- pianogt-10.mp3",70
Sample,92221,0,"1-hh-01.mp3",70
Sample,92374,0,"1- pianogt-11.mp3",70
Sample,92527,0,"1-kick-01.mp3",70
Sample,92527,0,"1-hh-02.mp3",70
Sample,92527,0,"1-string-06.mp3",70
Sample,92527,0,"1-brass-02.mp3",70
Sample,92527,0,"1- pianogt-12.mp3",70
Sample,92680,0,"1- pianogt-13.mp3",70
Sample,92834,0,"1-snare-02.mp3",70
Sample,92834,0,"1-string-07.mp3",70
Sample,92834,0,"1-hh-01.mp3",70
Sample,92987,0,"1-kick-01.mp3",70
Sample,92987,0,"1-brass-02.mp3",70
Sample,93140,0,"1-hh-02.mp3",70
Sample,93140,0,"1-string-08.mp3",70
Sample,93446,0,"1-string-09.mp3",70
Sample,93446,0,"1-brass-03.mp3",70
Sample,93446,0,"1-hh-01.mp3",70
Sample,93446,0,"1- pianogt-14.mp3",70
Sample,93446,0,"1-kick-01.mp3",70
Sample,93599,0,"1-kick-01.mp3",70
Sample,93599,0,"1- pianogt-15.mp3",70
Sample,93752,0,"1- pianogt-16.mp3",70
Sample,93752,0,"1-string-10.mp3",70
Sample,93752,0,"1-hh-02.mp3",70
Sample,93905,0,"1- pianogt-16.mp3",70
Sample,93905,0,"1-string-11.mp3",70
Sample,94058,0,"1-hh-01.mp3",70
Sample,94058,0,"1-snare-02.mp3",70
Sample,94211,0,"1-string-12.mp3",70
Sample,94364,0,"1-hh-02.mp3",70
Sample,94364,0,"1- pianogt-18.mp3",70
Sample,94364,0,"1-string-13.mp3",70
Sample,94670,0,"1-hh-01.mp3",70
Sample,94976,0,"1-string-14.mp3",70
Sample,94976,0,"1-kick-01.mp3",70
Sample,94976,0,"1-hh-03.mp3",70
Sample,94976,0,"1- pianogt-19.mp3",70
Sample,94976,0,"1-brass-04.mp3",70
Sample,95127,0,"1-scratch-62.mp3",70
Sample,95280,0,"1-scratch-63.mp3",70
Sample,95282,0,"1-snare-02.mp3",70
Sample,95282,0,"1-hh-01.mp3",70
Sample,95282,0,"1-string-15.mp3",70
Sample,95356,0,"1-scratch-64.mp3",70
Sample,95435,0,"1-brass-05.mp3",70
Sample,95435,0,"1- pianogt-20.mp3",70
Sample,95586,0,"1-scratch-65.mp3",70
Sample,95589,0,"1-hh-02.mp3",70
Sample,95589,0,"1-string-16.mp3",70
Sample,95739,0,"1-scratch-64.mp3",70
Sample,95895,0,"1- pianogt-06.mp3",70
Sample,95895,0,"1-kick-01.mp3",70
Sample,95895,0,"1-brass-01.mp3",70
Sample,95895,0,"1-hh-01.mp3",70
Sample,95895,0,"1-string-01.mp3",70
Sample,95895,0,"1-cym-01.mp3",70
Sample,96048,0,"1-kick-01.mp3",70
Sample,96048,0,"1-brass-01.mp3",70
Sample,96048,0,"1- pianogt-07.mp3",70
Sample,96201,0,"1- pianogt-08.mp3",70
Sample,96201,0,"1-string-02.mp3",70
Sample,96201,0,"1-hh-02.mp3",70
Sample,96354,0,"1-string-02.mp3",70
Sample,96354,0,"1- pianogt-09.mp3",70
Sample,96507,0,"1-snare-02.mp3",70
Sample,96507,0,"1-hh-01.mp3",70
Sample,96660,0,"1-string-04.mp3",70
Sample,96813,0,"1-string-05.mp3",70
Sample,96813,0,"1-hh-02.mp3",70
Sample,97119,0,"1-hh-01.mp3",70
Sample,97119,0,"1- pianogt-10.mp3",70
Sample,97272,0,"1- pianogt-11.mp3",70
Sample,97425,0,"1- pianogt-12.mp3",70
Sample,97425,0,"1-kick-01.mp3",70
Sample,97425,0,"1-hh-02.mp3",70
Sample,97425,0,"1-brass-02.mp3",70
Sample,97425,0,"1-string-06.mp3",70
Sample,97578,0,"1- pianogt-13.mp3",70
Sample,97730,0,"1-snare-02.mp3",70
Sample,97731,0,"1-hh-01.mp3",70
Sample,97884,0,"1-kick-01.mp3",70
Sample,97884,0,"1-brass-02.mp3",70
Sample,98037,0,"1-string-08.mp3",70
Sample,98037,0,"1-hh-02.mp3",70
Sample,98344,0,"1-pianogt-36.mp3",70
Sample,98344,0,"1-hh-01.mp3",70
Sample,98344,0,"1-kick-01.mp3",70
Sample,98344,0,"1-brass-06.mp3",70
Sample,98344,0,"1-string-17.mp3",70
Sample,98497,0,"1-pianogt-37.mp3",70
Sample,98497,0,"1-kick-01.mp3",70
Sample,98650,0,"1-hh-02.mp3",70
Sample,98650,0,"1-pianogt-38.mp3",70
Sample,98803,0,"1-pianogt-39.mp3",70
Sample,98956,0,"1-snare-02.mp3",70
Sample,98956,0,"1-hh-01.mp3",70
Sample,99262,0,"1-string-18.mp3",70
Sample,99262,0,"1-hh-02.mp3",70
Sample,99262,0,"1-pianogt-40.mp3",70
Sample,99568,0,"1-hh-01.mp3",70
Sample,99874,0,"1-hh-03.mp3",70
Sample,99874,0,"1-kick-01.mp3",70
Sample,100180,0,"1-snare-02.mp3",70
Sample,100180,0,"1-hh-01.mp3",70
Sample,100180,0,"1-cym-01.mp3",70
Sample,100486,0,"1-hh-02.mp3",70
Sample,170710,0,"1-brassstring-11.mp3",70

[TimingPoints]
10183.5,612.226156342153,4,1,2,100,1,0
10490,-25,4,3,2,100,0,0
12632,-100,4,2,10,100,0,0
15080,-100,4,2,11,100,0,0
22427,-100,4,2,10,100,0,0
24876,-100,4,2,11,100,0,0
32223,-100,4,3,2,100,0,0
32835,-100,4,3,3,100,0,0
39569,-100,4,2,2,100,0,0
40182,-100,4,2,3,100,0,0
42018,-100,4,3,3,100,0,0
50590,-25,4,2,11,100,0,0
51202,-25,4,2,51,100,0,0
51814,-100,4,2,52,100,0,0
52732,-100,4,2,20,70,0,0
55486,-25,4,2,53,100,0,0
55792,-25,4,2,54,100,0,0
57629,-100,4,2,20,100,0,0
60996,-25,4,2,55,100,0,0
61608,-25,4,2,56,100,0,0
63291,-25,4,2,56,100,0,0
65893,-25,4,2,57,100,0,0
67118,-25,4,2,58,100,0,0
67322,-25,4,2,59,100,0,0
68189,-25,4,2,60,100,0,0
71403,-25,4,2,61,100,0,0
78750,-25,4,2,86,100,0,0
78903,-25,4,2,87,100,0,0
79745,-25,4,2,86,100,0,0
79821,-25,4,2,87,100,0,0
79975,-25,4,2,80,100,0,0
80051,-25,4,2,81,100,0,0
80281,-25,4,2,82,100,0,0
80510,-25,4,2,83,100,0,0
80587,-25,4,2,82,100,0,0
80816,-25,4,2,83,100,0,0
81201,-100,4,2,1,100,0,1
83648,-50,4,2,83,100,0,1
83801,-50,4,2,84,100,0,1
83954,-50,4,2,83,100,0,1
84107,-50,4,2,84,100,0,1
84872,-50,4,2,84,100,0,1
88852,-100,4,2,86,100,0,1
89770,-25,4,2,84,100,0,1
90076,-25,4,2,85,100,0,1
90382,-66.6666666666667,4,2,83,100,0,1
90995,-50,4,2,85,100,0,1
91300,-66.6666666666667,4,2,88,100,0,1
91301,-200,4,2,88,100,0,1
91607,-25,4,2,89,100,0,1
91759,-25,4,2,90,100,0,1
92218,-25,4,2,86,100,0,1
92294,-25,4,2,87,100,0,1
92524,-25,4,2,87,100,0,1
92601,-25,4,2,88,100,0,1
93442,-25,4,2,83,100,0,1
93595,-25,4,2,84,100,0,1
93749,-25,4,2,83,100,0,1
93902,-25,4,2,84,100,0,1
94361,-25,4,2,85,100,0,1
94667,-25,4,2,84,100,0,1
94973,-25,4,2,85,100,0,1
95203,-25,4,2,86,100,0,1
95892,-25,4,2,86,100,0,1
96198,-25,4,2,87,100,0,1
96504,-25,4,2,88,100,0,1
96810,-25,4,2,86,100,0,1
96963,-25,4,2,87,100,0,1
97116,-25,4,2,91,100,0,1
97575,-25,4,2,92,100,0,1
97729,-25,4,2,88,100,0,1
98188,-25,4,2,89,100,0,1
98800,-25,4,2,87,100,0,1
98953,-25,4,2,88,100,0,1
99106,-25,4,2,87,100,0,1
99259,-25,4,2,88,100,0,1
99565,-25,4,2,86,100,0,1
99718,-25,4,2,87,100,0,1
99871,-25,4,2,86,100,0,1
100024,-25,4,2,87,100,0,1
100177,-25,4,2,91,100,0,1
100639,-25,4,2,92,100,0,0

[Colours]
Combo1 : 255,128,255
Combo2 : 0,255,255
Combo3 : 0,242,0
Combo4 : 0,128,255

[HitObjects]
224,160,2836,5,0,0:0:0:70:1-loop-01.mp3
288,160,2989,1,0,0:0:0:70:1-loop-02.mp3
456,136,4367,1,0,0:0:0:70:1-loop-03.mp3
312,48,4826,1,0,0:0:0:70:1-loop-04.mp3
184,72,5285,2,0,P|104:152|184:232,1,249.999976158142,4|8,0:0|0:0,0:0:0:0:
320,280,7275,1,0,0:0:0:70:1-loop-07.mp3
184,168,7734,1,0,0:0:0:70:1-loop-01.mp3
240,128,7887,1,0,0:0:0:70:1-loop-02.mp3
376,192,9265,1,0,0:0:0:70:1-loop-03.mp3
256,192,9724,1,0,0:0:0:70:1-loop-04.mp3
104,192,10183,1,8,0:0:0:70:1-cym-01.mp3
160,88,10490,2,0,P|208:104|200:160,2,99.9999904632566,4|0|0,0:0|0:0|0:0,0:0:0:0:
64,160,11102,2,0,P|64:208|112:232,2,99.9999904632566,4|0|0,0:0|0:0|0:0,0:0:0:0:
224,224,11715,2,0,P|272:240|264:296,2,99.9999904632566,4|0|0,0:0|0:0|0:0,0:0:0:0:
136,152,12327,2,0,P|128:112|192:80,2,99.9999904632566,4|0|4,0:0|0:0|0:0,0:0:0:0:
208,152,12785,5,4,0:0:0:0:
480,88,14162,1,8,0:0:0:0:
368,104,14621,1,8,0:0:0:0:
400,48,15080,2,0,P|440:120|312:144,1,249.999976158142,4|8,0:0|0:0,0:0:0:0:
256,192,17070,1,0,0:0:0:70:1-brassstring-11.mp3
88,104,17529,1,0,0:0:0:70:1-brassstring-13.mp3
152,104,17682,1,0,0:0:0:70:1-brassstring-13.mp3
144,248,19060,5,0,0:0:0:70:1-brassstring-15.mp3
264,240,19519,1,0,0:0:0:70:1-brassstring-15.mp3
408,192,19979,2,0,P|232:104|32:160,1,399.999961853026,2|4,0:0|0:0,0:0:0:0:
40,160,22580,5,4,0:0:0:0:
168,240,23957,1,8,0:0:0:0:
248,272,24416,1,8,0:0:0:0:
216,328,24876,2,0,P|176:256|304:232,1,249.999976158142,4|8,0:0|0:0,0:0:0:0:
440,224,26865,1,0,0:0:0:70:1-brassstring-11.mp3
344,88,27324,1,0,0:0:0:70:1-brassstring-13.mp3
280,96,27477,1,0,0:0:0:70:1-brassstring-13.mp3
240,160,28855,1,0,0:0:0:70:1-brassstring-15.mp3
168,264,29314,1,0,0:0:0:70:1-brassstring-15.mp3
80,176,29774,2,0,P|232:128|432:240,1,399.999961853026,2|8,0:0|0:0,0:0:0:0:
256,192,32835,5,0,0:0:0:70:1-snare-01.mp3
72,240,33753,1,0,0:0:0:70:1-kick-01.mp3
160,192,34059,1,0,0:0:0:70:1-snare-01.mp3
208,248,34212,1,0,0:0:0:70:1-kick-01.mp3
376,192,34672,1,0,0:0:0:70:1-kick-01.mp3
368,192,34825,1,0,0:0:0:70:1-kick-01.mp3
376,88,35284,1,0,0:0:0:70:1-snare-01.mp3
280,152,35590,1,0,0:0:0:70:1-hh-02.mp3
208,72,35896,1,0,0:0:0:70:1-hh-01.mp3
152,152,36202,2,0,L|96:112,1,49.9999952316283,2|8,0:0|0:0,0:0:0:0:
48,184,36814,1,0,0:0:0:70:1-hh-02.mp3
168,288,37121,1,0,0:0:0:70:1-kick-01.mp3
176,288,37274,1,0,0:0:0:70:1-kick-01.mp3
256,224,37733,1,0,0:0:0:70:1-snare-01.mp3
280,104,38651,1,0,0:0:0:70:1-kick-01.mp3
368,96,38957,1,0,0:0:0:70:1-snare-01.mp3
416,136,39111,1,8,0:0:0:70:1-kick-01.mp3
488,208,39569,6,0,L|448:248,1,49.9999952316283,2|4,0:0|0:0,0:0:0:0:
368,264,40182,1,0,0:0:0:70:1-vox-03.mp3
320,192,40488,2,0,P|264:144|192:168,1,149.999985694885,8|4,0:0|0:0,0:0:0:0:
144,152,42018,5,0,0:0:0:70:1-kick-01.mp3
160,152,42171,1,8,0:0:0:70:1-kick-01.mp3
288,192,42631,1,0,0:0:0:70:1-snare-01.mp3
160,240,43549,1,0,0:0:0:70:1-kick-01.mp3
232,296,43855,1,0,0:0:0:70:1-snare-01.mp3
160,248,44009,1,8,0:0:0:70:1-kick-01.mp3
144,160,44467,1,0,0:0:0:70:1-kick-01.mp3
136,160,44620,1,8,0:0:0:70:1-kick-01.mp3
248,112,45080,1,0,0:0:0:70:1-snare-01.mp3
280,232,45386,1,0,0:0:0:70:1-hh-02.mp3
352,152,45692,1,0,0:0:0:70:1-hh-01.mp3
408,232,45998,2,0,L|464:192,1,49.9999952316283,2|8,0:0|0:0,0:0:0:0:
400,288,46610,1,0,0:0:0:70:1-hh-02.mp3
288,288,46916,1,0,0:0:0:70:1-kick-01.mp3
280,288,47069,1,8,0:0:0:70:1-kick-01.mp3
192,192,47529,1,0,0:0:0:70:1-snare-01.mp3
96,104,48447,1,0,0:0:0:70:1-kick-01.mp3
176,64,48753,1,0,0:0:0:70:1-snare-01.mp3
104,104,48907,1,8,0:0:0:70:1-kick-01.mp3
200,304,49365,1,0,0:0:0:70:1-kick-01.mp3
192,296,49518,1,8,0:0:0:70:1-kick-01.mp3
96,240,49978,1,0,0:0:0:70:1-snare-01.mp3
80,144,50590,5,0,0:0:0:100:1- pianosolo-01.mp3
112,216,50743,1,0,0:0:0:100:1- pianosolo-02.mp3
184,176,50896,1,0,0:0:0:100:1- pianosolo-03.mp3
216,240,51049,1,0,0:0:0:100:1- pianosolo-04.mp3
272,192,51202,2,0,L|288:168,1,24.9999976158142,2|4,0:0|0:0,0:0:0:0:
336,96,51508,1,0,0:0:0:100:1- pianosolo-07.mp3
280,48,51661,1,0,0:0:0:100:1- pianosolo-08.mp3
208,64,51814,2,0,L|192:64,1,12.4999988079071,2|4,0:0|0:0,0:0:0:0:
240,80,52732,2,0,P|352:80|424:168,1,224.999978542327,4|0,0:0|0:0,0:0:0:0:
328,88,54569,1,0,0:0:0:100:1- pianosolo-11.mp3
152,120,55028,1,0,0:0:0:100:1- pianosolo-12.mp3
112,208,55487,2,0,L|152:192,1,24.9999976158142,2|4,0:0|0:0,0:0:0:0:
208,232,55793,2,0,L|232:232,1,24.9999976158142,2|4,0:0|0:0,0:0:0:0:
344,272,56100,1,0,0:0:0:100:1- pianosolo-17.mp3
448,288,56406,1,0,0:0:0:100:1- pianosolo-18.mp3
440,184,56712,1,0,0:0:0:100:1- pianosolo-19.mp3
352,128,57018,1,0,0:0:0:100:1- pianosolo-20.mp3
304,176,57171,1,0,0:0:0:100:1- pianosolo-21.mp3
224,176,57477,1,0,0:0:0:100:1- pianosolo-22.mp3
176,128,57784,2,0,B|216:80|248:184|352:128,1,174.999983310699,8|0,0:0|0:0,0:0:0:0:
392,104,59008,5,0,0:0:0:100:1-pianosolo2-02.mp3
304,104,59314,1,0,0:0:0:100:1-pianosolo2-03.mp3
240,224,59620,1,0,0:0:0:100:1- pianosolo-24.mp3
192,168,59773,1,0,0:0:0:100:1- pianosolo-25.mp3
104,192,60079,1,0,0:0:0:100:1- pianosolo-26.mp3
40,192,60232,1,0,0:0:0:100:1- pianosolo-27.mp3
32,128,60386,1,0,0:0:0:100:1- pianosolo-28.mp3
104,56,60692,1,0,0:0:0:100:1- pianosolo-29.mp3
152,112,60846,1,0,0:0:0:100:1- pianosolo-30.mp3
200,152,60999,2,0,L|232:136,1,24.9999976158142,2|4,0:0|0:0,0:0:0:0:
336,112,61305,1,0,0:0:0:100:1- pianosolo-33.mp3
384,56,61457,1,0,0:0:0:100:1- pianosolo-34.mp3
408,120,61610,2,0,L|432:112,1,24.9999976158142,2|0,0:0|0:0,0:0:0:0:
424,208,62069,1,0,0:0:0:100:1- pianosolo-37.mp3
344,272,62375,1,0,0:0:0:100:1- pianosolo-38.mp3
256,224,62681,1,0,0:0:0:100:1- pianosolo-39.mp3
256,120,62987,1,0,0:0:0:100:1- pianosolo-40.mp3
160,168,63293,2,0,L|136:144,1,24.9999976158142,8|4,0:0|0:0,0:0:0:0:
80,176,64212,5,0,0:0:0:100:1- pianosolo-42.mp3
96,224,64365,1,0,0:0:0:100:1- pianosolo-43.mp3
152,200,64518,1,0,0:0:0:100:1- pianosolo-44.mp3
200,160,64671,1,0,0:0:0:100:1- pianosolo-45.mp3
304,104,64977,1,0,0:0:0:100:1- pianosolo-46.mp3
360,64,65130,1,0,0:0:0:100:1- pianosolo-47.mp3
416,96,65283,1,0,0:0:0:100:1- pianosolo-48.mp3
416,208,65589,1,0,0:0:0:100:1- pianosolo-49.mp3
368,224,65742,1,0,0:0:0:100:1- pianosolo-48.mp3
296,224,65895,1,0,0:0:0:100:1- pianosolo-51.mp3
280,224,66048,1,0,0:0:0:100:1- pianosolo-52.mp3
256,160,66201,1,0,0:0:0:100:1- pianosolo-53.mp3
280,112,66354,1,0,0:0:0:100:1- pianosolo-54.mp3
336,72,67120,1,0,0:0:0:100:1- pianosolo-55.mp3
336,72,67222,2,0,L|336:32,4,33.3333301544189,4|8|2|4|8,0:0|0:0|0:0|0:0|0:0,0:0:0:0:
280,152,67579,1,0,0:0:0:100:1- pianosolo-59.mp3
216,120,67732,1,0,0:0:0:100:1- pianosolo-60.mp3
176,176,67885,1,0,0:0:0:100:1- pianosolo-61.mp3
64,184,68191,2,0,L|64:224,1,33.3333301544189,2|0,0:0|0:0,0:0:0:0:
104,304,68497,1,0,0:0:0:100:1- pianosolo-63.mp3
168,272,68650,1,0,0:0:0:100:1- pianosolo-64.mp3
224,224,68803,1,0,0:0:0:100:1- pianosolo-65.mp3
288,184,68956,5,0,0:0:0:100:1- pianosolo-66.mp3
400,192,69263,1,0,0:0:0:100:1- pianosolo-67.mp3
368,136,69416,1,0,0:0:0:100:1- pianosolo-68.mp3
240,192,69722,1,0,0:0:0:100:1- pianosolo-69.mp3
160,104,70028,1,0,0:0:0:100:1- pianosolo-70.mp3
288,64,70334,1,0,0:0:0:100:1- pianosolo-71.mp3
416,40,70640,1,0,0:0:0:100:1- pianosolo-72.mp3
488,136,70946,1,0,0:0:0:100:1- pianosolo-73.mp3
376,208,71329,2,0,L|344:192,3,33.3333301544189,4|8|2|4,0:0|0:0|0:0|0:0,0:0:0:0:
88,48,78752,6,0,P|64:104|96:128,3,99.9999904632566,8|2|4|8,0:0|0:0|0:0|0:0,0:0:0:70:1-cym-01.mp3
168,192,79364,1,8,0:0:0:100:1-scratch-59.mp3
256,48,79747,2,0,L|312:16,1,49.9999952316283,8|2,0:0|0:0,0:0:0:0:
392,32,79977,2,0,P|400:64|440:48,3,49.9999952316283,8|2|4|8,0:0|0:0|0:0|0:0,0:0:0:0:
360,136,80283,2,0,P|336:128|352:88,3,49.9999952316283,2|4|8|2,0:0|0:0|0:0|0:0,0:0:0:0:
272,176,80589,2,0,P|288:200|328:176,3,49.9999952316283,2|4|8|2,0:0|0:0|0:0|0:0,0:0:0:0:
200,224,80895,1,0,0:0:0:100:1-scratch-43.mp3
40,104,81201,1,0,0:0:0:100:1-string-01.mp3
128,64,81507,1,0,0:0:0:100:1-string-02.mp3
176,88,81660,1,0,0:0:0:100:1-string-03.mp3
280,144,81966,1,0,0:0:0:100:1-string-04.mp3
248,184,82119,1,0,0:0:0:100:1-string-05.mp3
448,192,82732,1,0,0:0:0:100:1-string-06.mp3
384,112,83038,1,0,0:0:0:100:1-string-07.mp3
320,192,83344,1,0,0:0:0:100:1-string-08.mp3
224,152,83650,2,0,P|216:136|248:112,3,49.9999952316283,8|2|8|2,0:0|0:0|0:0|0:0,0:0:0:0:
296,192,84262,2,4,P|304:216|272:224,2,49.9999952316283,4|8|8,0:0|0:0|0:0,0:0:0:0:
368,144,84874,2,0,P|392:152|392:120,2,49.9999952316283,4|8|8,0:0|0:0|0:0,0:0:0:0:
288,64,85487,1,0,0:0:0:100:1-scratch-43.mp3
88,40,86099,5,0,0:0:0:100:1-string-01.mp3
112,136,86405,1,0,0:0:0:100:1-string-02.mp3
144,176,86558,1,0,0:0:0:100:1-string-03.mp3
280,184,86864,1,0,0:0:0:100:1-string-04.mp3
320,208,87017,1,0,0:0:0:100:1-string-05.mp3
136,288,87629,1,0,0:0:0:100:1-string-06.mp3
88,200,87935,1,0,0:0:0:100:1-string-07.mp3
176,144,88242,1,0,0:0:0:100:1-string-08.mp3
320,96,88854,2,0,L|352:120,1,37.4999978542326,4|0,0:0|0:0,0:0:0:0:
368,208,89313,2,0,L|408:240,1,37.4999978542326,4|0,0:0|0:0,0:0:0:0:
328,304,89772,2,0,P|312:328|272:280,1,99.9999904632566,4|8,0:0|0:0,0:0:0:0:
248,200,90078,2,0,P|224:160|272:136,1,99.9999904632566,2|8,0:0|0:0,0:0:0:0:
336,120,90384,2,0,P|392:128|432:168,1,112.499993562698,4|0,0:0|0:0,0:0:0:0:
200,216,90997,5,0,0:0:0:100:1-scratch-61.mp3
112,96,91302,1,8,0:0:0:0:
312,112,91609,2,0,P|336:144|296:184,3,99.9999904632566,8|2|4|8,0:0|0:0|0:0|0:0,0:0:0:0:
216,232,92220,2,0,P|168:232|184:184,1,99.9999904632566,8|2,0:0|0:0,0:0:0:0:
184,96,92527,2,0,P|200:80|240:112,4,49.9999952316283,4|8|2|4|8,0:0|0:0|0:0|0:0|0:0,0:0:0:0:
368,240,93446,6,0,P|392:256|360:304,3,99.9999904632566,8|2|8|2,0:0|0:0|0:0|0:0,0:0:0:0:
296,232,94057,2,0,P|296:192|360:192,1,99.9999904632566,4|8,0:0|0:0,0:0:0:0:
256,144,94364,2,0,P|256:112|224:112,3,49.9999952316283,2|4|8|0,0:0|0:0|0:0|0:0,0:0:0:0:
208,144,94669,2,0,P|160:160|160:112,1,99.9999904632566,4|8,0:0|0:0,0:0:0:0:
136,56,94976,2,0,P|104:56|104:88,3,49.9999952316283,2|4|8|2,0:0|0:0|0:0|0:0,0:0:0:0:
56,288,95894,6,0,P|112:328|168:328,1,99.9999904632566,8|2,0:0|0:0,0:0:0:0:
200,272,96200,2,0,P|216:240|208:216,4,49.9999952316283,4|8|2|4|8,0:0|0:0|0:0|0:0|0:0,0:0:0:0:
248,80,96812,2,8,P|304:72|320:144,3,99.9999904632566,8|2|2|4,0:0|0:0|0:0|0:0,0:0:0:0:
312,192,97424,2,0,P|368:232|424:216,2,99.9999904632566,8|2|8,0:0|0:0|0:0,0:0:0:0:
0,168,98343,6,0,B|48:104|72:176|72:176|128:128|144:224,1,199.999980926513,2|4,0:0|0:0,0:0:0:0:
280,200,98802,2,0,P|248:224|224:184,3,49.9999952316283,4|8|2|4,0:0|0:0|0:0|0:0,0:0:0:0:
248,136,99108,2,0,P|280:112|304:152,3,49.9999952316283,4|8|2|4,0:0|0:0|0:0|0:0,0:0:0:0:
320,104,99414,1,0,0:0:0:100:1-scratch-59.mp3
384,112,99567,2,0,P|440:160|432:224,1,99.9999904632566,8|2,0:0|0:0,0:0:0:0:
384,216,99873,2,0,L|288:248,1,99.9999904632566,8|2,0:0|0:0,0:0:0:0:
240,248,100179,2,0,P|184:224|184:168,1,99.9999904632566,2|4,0:0|0:0,0:0:0:0:
240,168,100486,2,0,P|216:112|160:112,1,99.9999904632566,8|2,0:0|0:0,0:0:0:0:
256,192,100792,12,0,105613,0:0:0:0:
