osu file format v14

[General]
AudioFilename: audio.mp3
AudioLeadIn: 0
PreviewTime: 66559
Countdown: 0
SampleSet: Soft
StackLeniency: 0.3
Mode: 0
LetterboxInBreaks: 0
WidescreenStoryboard: 0

[Editor]
Bookmarks: 5725,20963,36201,51440,66678,81916,97154,112392,127630,142868,152392,167630,182868,198106,213344,228582,244773,260011,275249,290487,305725
DistanceSpacing: 0.8
BeatDivisor: 4
GridSize: 4
TimelineZoom: 1.9

[Metadata]
Title:Hysteric Night Girl
TitleUnicode:ヒステリックナイトガール
Artist:Melissa Kinrenka
ArtistUnicode:メリッサ・キンレンカ
Creator:Kudou Chitose
Version:Dizzy
Source:
Tags:psyqui such cover vtuber virtual youtuber nijisanji にじさんじ ichikara anycolor えにから japanese j pop jpop j-pop mrrrk
BeatmapID:3469811
BeatmapSetID:1698262

[Difficulty]
HPDrainRate:7
CircleSize:4.5
OverallDifficulty:8
ApproachRate:9
SliderMultiplier:2.4
SliderTickRate:1

[Events]
//Background and Video events
0,0,"EdHtA5kU4AEzAVN.jpg",0,0
//Break Periods
//Storyboard Layer 0 (Background)
//Storyboard Layer 1 (Fail)
//Storyboard Layer 2 (Pass)
//Storyboard Layer 3 (Foreground)
//Storyboard Layer 4 (Overlay)
//Storyboard Sound Samples

[TimingPoints]
1892,476.190476190476,4,2,1,75,1,0
1892,-200,4,2,1,75,0,0
4213,-100,4,2,1,75,0,0
10701,-66.6666666666667,4,2,1,75,0,0
11415,-100,4,2,1,75,0,0
18558,-66.6666666666667,4,2,1,75,0,0
19035,-100,4,2,1,75,0,0
20939,-133.333333333333,4,2,1,70,0,0
27844,-90.9090909090909,4,2,1,70,0,0
28558,-133.333333333333,4,2,1,70,0,0
35463,-90.9090909090909,4,2,1,70,0,0
36177,-100,4,2,1,75,0,0
43082,-66.6666666666667,4,2,1,75,0,0
43558,-100,4,2,1,75,0,0
50463,-80,4,2,1,75,0,0
50701,-66.6666666666667,4,2,1,75,0,0
51415,-133.333333333333,4,2,1,70,0,0
53082,-100,4,2,1,70,0,0
53320,-133.333333333333,4,2,1,70,0,0
56891,-100,4,2,1,70,0,0
57130,-133.333333333333,4,2,1,70,0,0
57844,-100,4,2,1,70,0,0
58082,-133.333333333333,4,2,1,70,0,0
62844,-100,4,2,1,85,0,0
64511,-80,4,2,1,80,0,0
66653,-50,4,2,1,95,0,1
67606,-100,4,2,1,95,0,1
68320,-66.6666666666667,4,2,1,95,0,1
68558,-50,4,2,1,95,0,1
69511,-100,4,2,1,95,0,1
70225,-66.6666666666667,4,2,1,95,0,1
70463,-50,4,2,1,95,0,1
71415,-100,4,2,1,95,0,1
72368,-66.6666666666667,4,2,1,95,0,1
74272,-50,4,2,1,95,0,1
75225,-100,4,2,1,95,0,1
75939,-66.6666666666667,4,2,1,95,0,1
78082,-100,4,2,1,95,0,0
78558,-66.6666666666667,4,2,1,95,0,0
79034,-100,4,2,1,95,0,0
79511,-66.6666666666667,4,2,1,95,0,0
79987,-100,4,2,1,95,0,0
80463,-66.6666666666667,4,2,1,95,0,0
81891,-50,4,2,1,95,0,1
82844,-100,4,2,1,95,0,1
83558,-66.6666666666667,4,2,1,95,0,1
83796,-50,4,2,1,95,0,1
84749,-100,4,2,1,95,0,1
85463,-66.6666666666667,4,2,1,95,0,1
85701,-100,4,2,1,95,0,1
87606,-66.6666666666667,4,2,1,95,0,1
88082,-100,4,2,1,95,0,1
89511,-66.6666666666667,4,2,1,95,0,1
90939,-50,4,2,1,95,0,1
91415,-66.6666666666667,4,2,1,95,0,1
92844,-50,4,2,1,95,0,1
93320,-66.6666666666667,4,2,1,95,0,1
94273,-66.6666666666667,4,2,1,90,0,1
94749,-80,4,2,1,90,0,1
95225,-100,4,2,1,90,0,1
95344,-100,4,2,1,85,0,0
97130,-100,4,2,1,75,0,0
102130,-66.6666666666667,4,2,1,75,0,0
102844,-100,4,2,1,75,0,0
109987,-66.6666666666667,4,2,1,75,0,0
110463,-100,4,2,1,75,0,0
112368,-133.333333333333,4,2,1,65,0,0
127606,-200,4,2,1,65,0,0
128082,-66.6666666666667,4,2,1,75,0,0
128558,-100,4,2,1,75,0,0
134511,-66.6666666666667,4,2,1,75,0,0
134987,-100,4,2,1,75,0,0
142844,-133.333333333333,4,2,1,70,0,0
148558,-133.333333333333,4,2,1,75,0,0
149511,-133.333333333333,4,2,1,80,0,0
150463,-133.333333333333,4,2,1,85,0,0
151415,-133.333333333333,4,2,1,90,0,0
152368,-50,4,2,1,95,0,1
153320,-66.6666666666667,4,2,1,95,0,1
153796,-100,4,2,1,95,0,1
154272,-50,4,2,1,95,0,1
155225,-66.6666666666667,4,2,1,95,0,1
155701,-100,4,2,1,95,0,1
156177,-50,4,2,1,95,0,1
157130,-66.6666666666667,4,2,1,95,0,1
157606,-100,4,2,1,95,0,1
158082,-66.6666666666667,4,2,1,95,0,1
159034,-50,4,2,1,95,0,1
159511,-66.6666666666667,4,2,1,95,0,1
159749,-100,4,2,1,95,0,1
159987,-50,4,2,1,95,0,1
160939,-66.6666666666667,4,2,1,95,0,1
161415,-100,4,2,1,95,0,1
161891,-66.6666666666667,4,2,1,95,0,1
163796,-100,4,2,1,95,0,0
164272,-66.6666666666667,4,2,1,95,0,0
164749,-100,4,2,1,95,0,0
165225,-66.6666666666667,4,2,1,95,0,0
165701,-100,4,2,1,95,0,0
166177,-66.6666666666667,4,2,1,95,0,0
167606,-50,4,2,1,95,0,1
168558,-66.6666666666667,4,2,1,95,0,1
169034,-100,4,2,1,95,0,1
169511,-50,4,2,1,95,0,1
170463,-66.6666666666667,4,2,1,95,0,1
170939,-100,4,2,1,95,0,1
171416,-100,4,2,1,95,0,1
173320,-66.6666666666667,4,2,1,95,0,1
173796,-100,4,2,1,95,0,1
175225,-66.6666666666667,4,2,1,95,0,1
176653,-50,4,2,1,95,0,1
177844,-66.6666666666667,4,2,1,95,0,1
178558,-50,4,2,1,95,0,1
179034,-66.6666666666667,4,2,1,95,0,1
179987,-100,4,2,1,95,0,1
180463,-80,4,2,1,95,0,1
180939,-66.6666666666667,4,2,1,95,0,0
182844,-100,4,2,1,85,0,0
188558,-66.6666666666667,4,2,1,85,0,0
190463,-100,4,2,1,85,0,0
194749,-66.6666666666667,4,2,1,85,0,0
195225,-100,4,2,1,85,0,0
195701,-66.6666666666667,4,2,1,85,0,0
196177,-100,4,2,1,85,0,0
196653,-66.6666666666667,4,2,1,85,0,0
197130,-50,4,2,1,85,0,0
197606,-66.6666666666667,4,2,1,85,0,0
198082,-100,4,2,1,85,0,0
209511,-66.6666666666667,4,2,1,85,0,0
211416,-50,4,2,1,85,0,0
211534,-50,4,2,1,90,0,0
212606,-50,4,2,1,95,0,0
213320,-200,4,2,1,95,0,0
213439,-200,4,2,1,40,0,0
226653,-250,4,2,1,40,0,0
228558,-200,4,2,1,50,0,0
236177,-142.857142857143,4,2,1,50,0,0
239987,-100,4,2,1,80,0,0
240463,-66.6666666666667,4,2,1,80,0,0
240939,-50,4,2,1,85,0,0
241415,-100,4,2,1,85,0,0
241891,-100,4,2,1,70,0,0
244749,476.190476190476,4,2,1,95,1,0
244749,-100,4,2,1,95,0,1
245225,-66.6666666666667,4,2,1,95,0,1
245701,-50,4,2,1,95,0,1
246653,-100,4,2,1,95,0,1
247129,-66.6666666666667,4,2,1,95,0,1
247606,-50,4,2,1,95,0,1
248558,-100,4,2,1,95,0,1
249034,-66.6666666666667,4,2,1,95,0,1
249510,-50,4,2,1,95,0,1
250463,-100,4,2,1,95,0,1
250939,-66.6666666666667,4,2,1,95,0,1
251415,-50,4,2,1,95,0,1
252368,-100,4,2,1,95,0,1
252844,-66.6666666666667,4,2,1,95,0,1
253320,-50,4,2,1,95,0,1
254272,-66.6666666666667,4,2,1,95,0,1
256177,-100,4,2,1,95,0,0
256653,-66.6666666666667,4,2,1,95,0,0
257129,-100,4,2,1,95,0,0
257606,-66.6666666666667,4,2,1,95,0,0
258082,-100,4,2,1,95,0,0
258558,-66.6666666666667,4,2,1,95,0,0
259987,-100,4,2,1,95,0,1
260463,-66.6666666666667,4,2,1,95,0,1
260939,-50,4,2,1,95,0,1
261891,-100,4,2,1,95,0,1
262368,-66.6666666666667,4,2,1,95,0,1
262844,-50,4,2,1,95,0,1
263796,-100,4,2,1,95,0,1
265701,-66.6666666666667,4,2,1,95,0,1
266177,-100,4,2,1,95,0,1
267606,-66.6666666666667,4,2,1,95,0,1
269034,-50,4,2,1,95,0,1
269510,-66.6666666666667,4,2,1,95,0,1
270939,-50,4,2,1,95,0,1
271415,-66.6666666666667,4,2,1,95,0,1
272368,-100,4,2,1,95,0,1
275225,-100,4,2,1,90,0,0
275701,-133.333333333333,4,2,1,90,0,0
276177,-200,4,2,1,90,0,0
277129,-100,4,2,1,90,0,0
277606,-133.333333333333,4,2,1,90,0,0
278082,-200,4,2,1,90,0,0
279034,-100,4,2,1,90,0,0
279510,-133.333333333333,4,2,1,90,0,0
279987,-200,4,2,1,90,0,0
280939,-100,4,2,1,90,0,0
283320,-133.333333333333,4,2,1,90,0,0
283796,-200,4,2,1,90,0,0
284749,-100,4,2,1,90,0,0
286653,-100,4,2,1,90,0,1
290463,-100,4,2,1,90,0,0
290939,-133.333333333333,4,2,1,90,0,0
291415,-200,4,2,1,90,0,0
291891,-133.333333333333,4,2,1,90,0,0
292368,-100,4,2,1,90,0,0
292844,-133.333333333333,4,2,1,90,0,0
293320,-200,4,2,1,90,0,0
293796,-133.333333333333,4,2,1,90,0,0
294272,-100,4,2,1,90,0,0
296177,-133.333333333333,4,2,1,90,0,0
298082,-80,4,2,1,90,0,1
299510,-66.6666666666667,4,2,1,90,0,1
299987,-80,4,2,1,90,0,1
301415,-66.6666666666667,4,2,1,90,0,1
301891,-100,4,2,1,90,0,1
302368,-80,4,2,1,90,0,1
303796,-66.6666666666667,4,2,1,90,0,0
304868,-57.1428571428571,4,2,1,90,0,0

[Colours]
Combo1 : 185,255,68
Combo2 : 249,255,11
Combo3 : 96,208,191

[HitObjects]
123,137,3796,6,0,P|140:95|131:50,1,90,12|0,0:1|0:0,0:0:0:0:
37,2,4213,2,0,L|49:32,1,30,8|8,0:0|0:0,0:0:0:0:
133,53,4391,1,8,0:0:0:0:
379,53,4630,5,8,0:0:0:0:
133,53,4868,5,8,0:0:0:0:
151,63,4987,1,12,0:1:0:0:
194,39,5106,1,8,0:1:0:0:
256,80,5225,1,8,0:0:0:0:
318,39,5344,1,8,0:1:0:0:
361,63,5463,1,8,0:1:0:0:
379,53,5701,6,0,P|390:111|350:167,1,120,12|2,0:1|0:0,0:0:0:0:
351,270,6058,1,2,0:0:0:0:
363,274,6177,2,0,L|423:266,1,60,8|0,0:0|0:0,0:0:0:0:
467,328,6415,1,2,0:0:0:0:
456,337,6534,2,0,L|390:347,1,60,8|0,0:1|0:0,0:0:0:0:
256,180,6772,5,2,0:0:0:0:
256,192,6891,2,0,L|256:320,1,120,8|8,0:1|0:0,0:0:0:0:
167,358,7249,1,2,0:0:0:0:
148,349,7368,2,0,L|148:278,1,60,2|0,0:0|0:0,0:0:0:0:
364,155,7606,2,0,L|364:283,1,120,8|2,0:1|0:0,0:0:0:0:
163,223,7963,1,8,0:1:0:0:
149,218,8082,2,0,P|118:224|93:246,1,60,8|0,0:0|0:0,0:0:0:0:
15,179,8320,1,2,0:0:0:0:
29,184,8439,2,0,P|60:178|85:156,1,60,8|0,0:1|0:0,0:0:0:0:
203,100,8677,5,2,0:0:0:0:
200,89,8796,2,0,B|256:113|256:113|312:90,1,120,8|8,0:1|0:0,0:0:0:0:
255,37,9153,2,0,B|200:14|200:14|144:38,1,120,8|2,0:1|0:0,0:0:0:0:
48,51,9511,5,8,0:1:0:0:
39,52,9570,1,8,0:1:0:0:
31,53,9630,2,0,L|30:128,1,60,8|0,0:1|0:0,0:0:0:0:
145,134,9868,1,2,0:0:0:0:
205,168,9987,2,0,L|149:145,1,60,8|0,0:0|0:0,0:0:0:0:
64,240,10225,1,8,0:0:0:0:
0,270,10344,2,0,L|65:233,1,60,8|0,0:1|0:0,0:0:0:0:
175,251,10582,5,2,0:0:0:0:
176,266,10701,2,2,B|202:281|225:266|225:266|285:219|285:219|310:205|339:220,2,180.000006866455,8|8|2,0:1|0:0|0:0,0:0:0:0:
484,86,11415,6,0,B|511:125|511:125|489:202,1,120,8|2,0:1|0:0,0:0:0:0:
408,335,11772,1,2,0:0:0:0:
388,360,11891,2,0,L|451:326,1,60,8|0,0:0|0:0,0:0:0:0:
294,374,12130,1,8,0:0:0:0:
284,366,12249,2,0,B|269:358|274:340|274:340|284:308,1,60,8|0,0:1|0:0,0:0:0:0:
393,197,12487,1,8,0:1:0:0:
403,205,12606,2,0,B|418:213|413:231|413:231|403:263,1,60,8|0,0:1|0:0,0:0:0:0:
355,72,12844,5,8,0:0:0:0:
319,17,12963,1,8,0:1:0:0:
255,1,13082,1,8,0:1:0:0:
191,17,13201,1,8,0:1:0:0:
155,72,13320,6,0,P|149:131|96:183,1,120,12|2,0:1|0:0,0:0:0:0:
86,283,13677,1,2,0:0:0:0:
101,295,13796,2,0,B|123:292|123:292|147:291|158:304,1,60,8|0,0:0|0:0,0:0:0:0:
78,361,14034,1,2,0:0:0:0:
62,351,14153,2,0,B|39:353|39:353|15:354|4:341,1,60,8|0,0:1|0:0,0:0:0:0:
256,361,14391,5,2,0:0:0:0:
256,344,14511,2,0,L|256:224,1,120,8|8,0:1|0:0,0:0:0:0:
345,320,14868,1,2,0:0:0:0:
354,324,14987,2,0,L|354:394,1,60,2|0,0:0|0:0,0:0:0:0:
158,304,15225,2,0,L|158:184,1,120,8|2,0:1|0:0,0:0:0:0:
369,247,15582,1,2,0:0:0:0:
381,250,15701,2,0,P|406:264|426:304,1,60,8|0,0:0|0:0,0:0:0:0:
512,200,15939,1,2,0:0:0:0:
500,197,16058,6,0,B|469:187|458:158|458:158|486:96,1,120,8|2,0:1|0:0,0:0:0:0:
355,0,16415,2,0,L|330:54,1,60,8|2,0:1|0:0,0:0:0:0:
368,135,16653,1,8,0:0:0:0:
382,131,16772,2,0,L|406:76,1,60,8|0,1:0|0:0,0:0:0:0:
271,131,17011,5,8,0:1:0:0:
264,129,17070,1,8,0:1:0:0:
256,128,17130,2,2,B|210:120|210:120|167:115|138:153,1,120,8|2,0:1|0:0,0:0:0:0:
59,303,17487,1,8,0:1:0:0:
0,341,17606,2,0,P|20:320|69:320,1,60,8|0,0:0|0:0,0:0:0:0:
143,243,17844,1,8,0:0:0:0:
205,275,17963,2,0,P|176:268|152:225,1,60,8|0,0:1|0:0,0:0:0:0:
48,200,18201,1,8,0:1:0:0:
45,130,18320,2,0,P|53:157|28:200,1,60,8|0,0:1|0:0,0:0:0:0:
213,205,18558,6,2,B|256:192|256:192|298:206,2,90.0000034332277,8|2|2,0:0|0:0|0:0,0:0:0:0:
404,360,18915,1,8,0:1:0:0:
377,374,19034,1,8,0:0:0:0:
311,336,19153,2,0,P|334:311|364:299,1,60,8|0,0:1|0:0,0:0:0:0:
401,160,19391,5,8,0:1:0:0:
401,235,19511,1,8,0:0:0:0:
385,237,19630,1,8,0:1:0:0:
401,160,19749,5,8,0:0:0:0:
465,122,19868,1,12,0:1:0:0:
478,128,19987,1,2,0:0:0:0:
336,123,20106,5,8,0:1:0:0:
327,95,20225,1,8,0:1:0:0:
309,76,20344,1,8,0:1:0:0:
292,61,20463,1,8,0:0:0:0:
285,41,20582,2,2,L|228:26,1,60,8|0,0:1|0:0,0:0:0:0:
90,22,20820,5,2,0:0:0:0:
39,33,20939,2,2,B|84:38|126:63,1,90.0000034332277,12|2,0:1|0:0,0:0:0:0:
14,101,21415,2,2,B|59:106|101:131,1,90.0000034332277,8|2,0:0|0:0,0:0:0:0:
0,172,21772,1,2,0:0:0:0:
13,174,21891,2,0,P|35:179|56:188,1,45.0000017166138,2|2,0:0|0:0,0:0:0:0:
133,208,22130,5,8,0:1:0:0:
142,216,22249,1,2,0:0:0:0:
151,224,22368,2,0,P|167:239|181:257,1,45.0000017166138,8|2,0:0|0:0,0:0:0:0:
242,309,22606,1,2,0:0:0:0:
246,321,22725,1,2,0:0:0:0:
250,333,22844,2,0,P|256:354|259:377,1,45.0000017166138,2|2,0:0|0:0,0:0:0:0:
160,339,23082,1,2,0:0:0:0:
251,165,23320,5,8,0:0:0:0:
274,172,23439,1,2,0:0:0:0:
336,136,23558,1,2,0:0:0:0:
387,183,23677,2,0,L|399:201,1,22.5000008583069,2|2,0:0|0:0,0:0:0:0:
327,219,23796,2,0,P|317:175|343:129,1,90.0000034332277,2|8,0:0|0:1,0:0:0:0:
408,310,24272,5,8,0:0:0:0:
379,272,24391,2,0,P|392:314|398:371,1,90.0000034332277,2|0,0:0|0:0,0:0:0:0:
330,376,24749,2,0,P|324:331|310:288,1,90.0000034332277,8|0,0:1|0:0,0:0:0:0:
256,192,25225,5,8,0:0:0:0:
227,178,25344,2,0,P|209:138|213:90,1,90.0000034332277,2|2,0:0|0:0,0:0:0:0:
188,22,25641,1,2,0:0:0:0:
196,18,25701,2,0,P|236:0|284:4,1,90.0000034332277,2|8,0:0|0:1,0:0:0:0:
381,63,26058,1,2,0:0:0:0:
413,105,26177,2,0,P|373:85|327:74,1,90.0000034332277,8|2,0:0|0:0,0:0:0:0:
369,157,26534,2,0,P|347:148|318:140,1,45.0000017166138,2|8,0:0|0:1,0:0:0:0:
436,171,26891,5,8,0:1:0:0:
256,272,27130,1,8,0:0:0:0:
76,171,27368,5,8,0:1:0:0:
71,160,27447,5,8,0:1:0:0:
67,148,27526,5,8,0:1:0:0:
62,137,27606,6,0,L|115:107,1,45.0000017166138,8|2,0:1|0:0,0:0:0:0:
152,248,27844,6,2,L|65:297,2,66.0000020141602,12|2|2,0:1|0:0|0:0,0:0:0:0:
190,74,28320,5,8,0:1:0:0:
256,47,28439,1,8,0:1:0:0:
322,74,28558,2,0,P|366:87|415:86,1,90.0000034332277,12|2,1:1|0:0,0:0:0:0:
304,194,29034,5,8,0:0:0:0:
297,180,29153,2,0,P|290:159|275:130,1,45.0000017166138,2|2,0:0|0:0,0:0:0:0:
423,162,29391,1,2,0:0:0:0:
411,173,29511,2,0,P|395:189|383:208,2,45.0000017166138,2|2|8,0:0|0:0|0:1,0:0:0:0:
337,70,29868,1,2,0:0:0:0:
322,74,29987,2,0,P|366:87|415:86,1,90.0000034332277,8|2,0:0|0:0,0:0:0:0:
495,178,30344,5,2,0:0:0:0:
510,174,30463,2,0,P|466:161|417:162,1,90.0000034332277,8|2,0:1|0:0,0:0:0:0:
321,229,30939,1,8,0:0:0:0:
300,229,31058,2,0,P|256:242|209:237,1,90.0000034332277,2|0,0:0|0:0,0:0:0:0:
152,297,31356,1,2,0:0:0:0:
141,292,31415,2,0,P|96:288|53:301,1,90.0000034332277,2|8,0:0|0:1,0:0:0:0:
100,211,31891,5,8,0:0:0:0:
111,205,32011,2,0,P|132:197|151:185,1,45.0000017166138,8|2,0:1|0:0,0:0:0:0:
37,88,32249,2,0,P|27:131|31:176,1,90.0000034332277,2|2,0:0|0:0,0:0:0:0:
168,109,32606,1,2,0:0:0:0:
159,101,32725,1,2,0:0:0:0:
149,94,32844,2,0,P|132:79|112:68,2,45.0000017166138,8|2|2,0:0|0:0|0:0,0:0:0:0:
100,211,33201,1,2,0:0:0:0:
111,205,33320,2,0,P|132:197|151:185,1,45.0000017166138,2|2,0:0|0:0,0:0:0:0:
256,192,33558,5,8,0:1:0:0:
267,199,33677,1,2,0:0:0:0:
277,205,33796,2,0,P|297:217|310:234,1,45.0000017166138,8|2,0:0|0:0,0:0:0:0:
389,279,34034,1,2,0:0:0:0:
395,289,34153,2,0,P|406:310|409:330,1,45.0000017166138,2|8,0:0|0:1,0:0:0:0:
220,384,34511,5,8,0:1:0:0:
384,192,34749,1,8,0:0:0:0:
220,0,34987,5,8,0:1:0:0:
209,9,35066,5,8,0:1:0:0:
199,17,35145,5,8,0:1:0:0:
190,25,35225,6,0,L|135:20,1,45.0000017166138,8|2,0:1|0:0,0:0:0:0:
287,106,35463,6,2,L|296:36,2,66.0000020141602,12|2|2,0:1|0:0|0:0,0:0:0:0:
0,192,35939,5,8,0:1:0:0:
46,255,36058,1,8,0:1:0:0:
46,129,36177,2,0,B|77:196|77:196|140:210,1,120,12|2,0:1|0:0,0:0:0:0:
123,281,36534,1,2,0:0:0:0:
129,292,36653,2,0,L|157:354,2,60,8|2|2,0:0|0:0|0:0,0:0:0:0:
199,204,37130,5,2,0:0:0:0:
222,229,37249,1,2,0:0:0:0:
256,240,37368,1,8,0:1:0:0:
290,251,37487,1,2,0:0:0:0:
313,276,37606,2,0,P|335:295|352:337,1,60,8|2,0:0|0:0,0:0:0:0:
467,330,37844,5,2,0:0:0:0:
464,284,37963,1,2,0:0:0:0:
417,280,38082,2,0,P|395:261|378:219,1,60,8|0,0:1|0:0,0:0:0:0:
465,163,38320,5,2,0:0:0:0:
449,118,38439,1,2,0:0:0:0:
403,126,38558,2,0,P|376:113|349:77,1,60,8|0,0:0|0:0,0:0:0:0:
283,13,38796,5,2,0:0:0:0:
274,14,38876,5,2,0:0:0:0:
265,15,38955,5,2,0:0:0:0:
256,16,39034,6,0,L|150:33,2,60,2|2|8,0:0|0:0|0:1,0:0:0:0:
290,78,39391,1,2,0:0:0:0:
222,92,39511,5,8,0:0:0:0:
185,92,39630,2,0,L|116:63,1,60
63,132,39868,1,2,0:0:0:0:
100,132,39987,2,0,L|169:161,1,60,8|0,0:1|0:0,0:0:0:0:
200,296,40225,1,2,0:0:0:0:
256,316,40344,1,2,0:0:0:0:
314,336,40463,2,0,L|192:378,1,120,8|2,0:0|0:0,0:0:0:0:
122,336,40820,5,2,0:0:0:0:
50,317,40939,2,0,L|118:335,1,60,2|2,0:0|0:0,0:0:0:0:
108,252,41177,2,0,L|49:236,1,60,8|2,0:1|0:0,0:0:0:0:
190,225,41415,5,8,0:0:0:0:
229,217,41534,1,2,0:0:0:0:
256,192,41653,1,2,0:0:0:0:
283,167,41772,1,2,0:0:0:0:
322,159,41891,2,0,B|341:169|336:187|336:187|326:223,1,60,8|2,0:1|0:0,0:0:0:0:
376,287,42130,2,0,B|400:280|405:262|405:262|415:226,1,60,8|2,0:1|0:0,0:0:0:0:
479,166,42308,1,2,0:0:0:0:
471,160,42368,6,0,L|495:94,1,60,8|2,0:0|0:0,0:0:0:0:
463,15,42606,5,2,0:0:0:0:
454,12,42685,5,2,0:0:0:0:
445,9,42765,5,2,0:0:0:0:
437,6,42844,6,0,L|413:72,1,60,2|2,0:0|0:0,0:0:0:0:
298,49,43082,6,2,L|212:75,2,90.0000034332277,12|2|8,0:1|0:0|0:0,0:0:0:0:
448,249,43558,5,2,0:0:0:0:
488,308,43677,1,2,0:0:0:0:
442,363,43796,2,0,B|414:385|385:375|385:375|322:352,1,120,12|2,0:1|0:0,0:0:0:0:
199,293,44153,1,2,0:0:0:0:
184,285,44272,2,0,B|128:264|128:264|99:254|71:276,1,120,8|2,0:0|0:0,0:0:0:0:
118,344,44630,5,2,0:0:0:0:
134,350,44749,2,0,L|200:376,1,60,2|2,0:0|0:0,0:0:0:0:
311,265,44987,1,8,0:1:0:0:
328,273,45106,1,2,0:0:0:0:
344,279,45225,2,0,L|410:305,2,60,8|2|2,0:0|0:0|0:0,0:0:0:0:
205,202,45582,5,2,0:0:0:0:
192,192,45701,2,0,P|184:133|196:69,1,120,8|2,0:1|0:0,0:0:0:0:
17,18,46177,2,0,P|76:10|140:22,1,120,8|2,0:0|0:0,0:0:0:0:
120,89,46534,1,2,0:0:0:0:
104,82,46653,2,0,P|74:77|34:85,2,60,2|2|8,0:0|0:0|0:1,0:0:0:0:
25,147,47011,5,2,0:0:0:0:
53,209,47130,1,8,0:0:0:0:
112,175,47249,1,2,0:0:0:0:
141,237,47368,1,2,0:0:0:0:
241,233,47487,5,2,0:0:0:0:
256,240,47606,2,0,L|242:300,1,60,8|2,0:1|0:0,0:0:0:0:
178,102,47844,5,2,0:0:0:0:
193,109,47963,1,2,0:0:0:0:
208,116,48082,2,0,L|194:176,2,60,8|2|2,0:0|0:0|0:0,0:0:0:0:
296,32,48439,1,2,0:0:0:0:
311,39,48558,2,0,L|282:162,1,120,2|8,0:0|0:1,0:0:0:0:
329,222,48915,5,2,0:0:0:0:
344,229,49034,2,0,L|330:289,2,60,8|2|2,0:0|0:0|0:0,0:0:0:0:
360,359,49511,6,2,P|387:344|404:309,1,60
413,179,49749,5,8,0:1:0:0:
426,185,49868,1,8,0:1:0:0:
437,191,49987,2,0,L|437:264,1,60,8|0,0:0|0:0,0:0:0:0:
224,231,50225,5,8,0:1:0:0:
241,259,50344,2,0,L|283:259,1,30,8|8,0:1|0:1,0:0:0:0:
256,288,50463,2,0,L|331:288,1,75,8|2,0:1|0:0,0:0:0:0:
256,64,50701,6,2,L|256:176,2,90.0000034332277,12|2|2,0:1|0:0|0:0,0:0:0:0:
51,123,51177,5,8,0:1:0:0:
32,192,51296,1,8,0:1:0:0:
51,261,51415,2,0,P|92:316|152:352,1,135.000005149841,12|2,1:1|0:0,0:0:0:0:
175,290,51891,2,0,P|137:267|108:227,1,90.0000034332277,2|2,0:0|0:0,0:0:0:0:
171,192,52249,1,2,0:0:0:0:
169,201,52368,2,0,P|183:219|211:233,1,45.0000017166138,8|2,0:0|0:0,0:0:0:0:
282,307,52606,1,8,0:0:0:0:
292,320,52725,1,8,0:0:0:0:
303,331,52844,2,0,P|325:333|355:323,1,45.0000017166138,8|2,0:1|0:0,0:0:0:0:
506,189,53082,6,0,P|466:227|400:215,1,120,12|2,0:1|0:0,0:0:0:0:
356,149,53439,1,2,0:0:0:0:
363,139,53558,2,0,P|386:130|443:161,1,90.0000034332277,8|2,0:0|0:0,0:0:0:0:
249,171,54034,1,2,0:0:0:0:
234,167,54153,2,0,B|221:164|225:144|225:144|234:107,1,45.0000017166138,8|0,0:1|0:0,0:0:0:0:
264,33,54391,1,8,0:0:0:0:
279,37,54511,2,0,B|292:40|288:60|288:60|279:97,1,45.0000017166138,8|0,0:1|0:0,0:0:0:0:
138,38,54749,5,8,0:1:0:0:
71,24,54868,1,8,0:1:0:0:
28,78,54987,2,0,P|23:101|31:134,1,45.0000017166138,8|2,0:1|0:0,0:0:0:0:
131,145,55225,5,8,0:1:0:0:
164,273,55463,1,8,0:1:0:0:
36,306,55701,1,8,0:0:0:0:
210,192,55939,5,8,0:0:0:0:
210,192,56058,1,8,0:1:0:0:
243,320,56296,1,8,0:1:0:0:
243,320,56415,1,8,0:1:0:0:
115,353,56653,1,8,0:1:0:0:
397,207,56891,6,0,L|511:247,1,120,12|2,0:1|0:0,0:0:0:0:
470,318,57249,1,2,0:0:0:0:
453,302,57368,2,0,L|410:287,1,45.0000017166138,8|2,0:1|0:0,0:0:0:0:
323,261,57546,1,2,0:0:0:0:
317,255,57606,2,0,P|306:235|306:207,1,45.0000017166138,8|2,0:0|0:0,0:0:0:0:
400,121,57844,6,2,B|443:123|466:155|466:155|475:104|391:62|402:6,1,240,12|2,0:1|0:0,0:0:0:0:
256,29,58499,1,8,0:1:0:0:
256,32,58558,1,8,0:0:0:0:
290,97,58677,1,8,0:0:0:0:
222,128,58796,6,2,P|203:169|207:218,2,90.0000034332277,8|2|2,0:1|0:0|0:0,0:0:0:0:
155,72,59511,1,8,0:1:0:0:
128,218,59749,6,2,P|143:260|181:292,2,90.0000034332277
41,225,60463,1,8,0:1:0:0:
125,348,60701,6,0,P|165:367|215:363,1,90.0000034332277,2|8,0:0|0:1,0:0:0:0:
231,359,61058,1,2,0:0:0:0:
253,354,61177,1,2,0:0:0:0:
275,349,61296,1,2,0:0:0:0:
360,380,61415,5,8,0:1:0:0:
352,344,61534,1,2,0:0:0:0:
344,308,61653,1,2,0:0:0:0:
336,272,61772,1,2,0:0:0:0:
272,206,61891,5,8,0:1:0:0:
316,196,62011,1,2,0:0:0:0:
360,187,62130,1,2,0:0:0:0:
404,178,62249,1,2,0:0:0:0:
421,205,62368,2,0,L|478:196,1,45.0000017166138,8|2,0:1|0:0,0:0:0:0:
279,128,62606,2,0,L|222:119,1,45.0000017166138,2|2,0:0|0:0,0:0:0:0:
89,177,62844,5,12,0:1:0:0:
351,54,63082,1,8,0:1:0:0:
326,342,63320,1,8,0:0:0:0:
184,40,63558,5,8,0:1:0:0:
421,205,63796,1,8,0:1:0:0:
159,328,64034,1,8,0:1:0:0:
176,312,64153,1,8,0:1:0:0:
242,346,64272,1,8,0:0:0:0:
129,115,64511,6,2,B|168:102|197:137|197:137|226:171|256:190|290:177|324:148|324:148|359:119|395:138,1,300,12|0,0:1|0:0,0:0:0:0:
113,244,66415,5,2,0:0:0:0:
113,235,66495,5,2,0:0:0:0:
113,226,66574,5,2,0:0:0:0:
113,219,66653,6,0,L|-12:-13,3,240,12|2|8|2,0:1|0:0|0:0|0:0,0:0:0:0:
113,219,67606,2,0,L|74:147,1,60,8|0,0:1|0:0,0:0:0:0:
185,69,67844,1,2,0:0:0:0:
180,55,67963,1,2,0:0:0:0:
113,37,68082,2,0,L|83:121,1,60,8|0,0:0|0:0,0:0:0:0:
256,128,68320,2,0,L|350:153,1,90.0000034332277,8|0,0:1|0:0,0:0:0:0:
399,219,68558,6,0,L|524:-13,3,240,8|2|8|2,0:1|0:0|0:0|0:0,0:0:0:0:
399,219,69511,2,0,L|432:158,1,60,8|0,0:1|0:0,0:0:0:0:
327,69,69749,1,2,0:0:0:0:
332,55,69868,1,2,0:0:0:0:
399,37,69987,2,0,L|429:121,1,60,8|0,0:0|0:0,0:0:0:0:
256,128,70225,2,0,L|162:153,1,90.0000034332277,8|0,0:1|0:0,0:0:0:0:
256,368,70463,6,0,L|256:125,3,240,8|2|8|2,0:1|0:0|0:0|0:0,0:0:0:0:
256,368,71415,2,0,L|256:286,1,60,8|0,0:1|0:0,0:0:0:0:
169,201,71653,6,0,L|112:181,1,60,2|0,0:0|0:0,0:0:0:0:
328,197,71891,1,8,0:0:0:0:
343,201,72011,2,0,L|399:181,2,60,2|2|2,0:0|0:0|0:0,0:0:0:0:
157,300,72368,6,0,L|64:267,1,90.0000034332277,8|0,0:1|0:0,0:0:0:0:
326,293,72606,1,2,0:0:0:0:
341,296,72725,1,2,0:0:0:0:
355,300,72844,2,0,L|448:267,1,90.0000034332277,8|0,0:0|0:0,0:0:0:0:
256,192,73082,5,8,0:1:0:0:
256,272,73201,1,8,0:1:0:0:
256,352,73320,2,0,B|239:378|215:375|215:375|153:359,1,90.0000034332277,8|2,0:0|0:0,0:0:0:0:
59,183,73558,5,8,0:0:0:0:
24,192,73677,1,8,0:1:0:0:
88,205,73796,5,8,0:0:0:0:
149,156,73915,1,8,0:1:0:0:
211,108,74034,1,8,0:1:0:0:
241,108,74153,5,8,0:1:0:0:
363,139,74272,6,0,L|144:245,3,240,12|2|8|2,0:1|0:0|0:0|0:0,0:0:0:0:
363,139,75225,2,0,L|295:172,1,60,8|0,0:1|0:0,0:0:0:0:
381,268,75463,1,2,0:0:0:0:
372,283,75582,1,2,0:0:0:0:
304,303,75701,2,0,L|217:244,1,60,8|0,0:0|0:0,0:0:0:0:
264,113,75939,2,0,L|365:64,1,90.0000034332277,8|0,0:1|0:0,0:0:0:0:
32,35,76177,6,0,B|2:39|5:69|5:69|11:117,1,90.0000034332277,8|0,0:1|0:0,0:0:0:0:
113,149,76415,1,2,0:0:0:0:
131,156,76534,1,2,0:0:0:0:
168,169,76653,2,0,B|138:173|141:203|141:203|147:251,1,90.0000034332277,8|0,0:0|0:0,0:0:0:0:
249,283,76891,1,2,0:0:0:0:
267,290,77011,1,2,0:0:0:0:
304,303,77130,2,0,B|274:307|277:337|277:337|283:385,2,90.0000034332277,8|8|2,0:1|0:1|0:0,0:0:0:0:
419,172,77487,5,8,0:1:0:0:
485,145,77606,1,8,0:0:0:0:
512,211,77725,1,8,0:1:0:0:
446,238,77844,1,8,0:1:0:0:
302,157,78082,6,0,P|360:174|422:171,1,120,12|2,0:1|0:0,0:0:0:0:
298,83,78439,1,2,0:0:0:0:
325,92,78558,2,0,P|369:90|415:104,2,90.0000034332277,8|2|2,0:0|0:0|0:0,0:0:0:0:
193,348,79034,6,0,P|251:365|313:362,1,120,8|2,0:1|0:0,0:0:0:0:
189,273,79392,1,2,0:0:0:0:
216,282,79511,2,0,P|260:280|306:294,2,90.0000034332277,8|2|2,0:0|0:0|0:0,0:0:0:0:
93,151,79987,5,8,0:1:0:0:
121,140,80106,1,2,0:0:0:0:
149,131,80225,2,0,P|164:106|154:67,1,60,2|0,0:0|0:0,0:0:0:0:
37,108,80463,6,2,B|17:136|22:161|22:161|42:226|42:226|47:251|30:279,1,180.000006866455,12|2,0:1|0:0,0:0:0:0:
130,231,80939,5,8,0:0:0:0:
189,198,81058,1,8,0:1:0:0:
256,192,81177,1,8,0:1:0:0:
323,186,81296,1,8,0:1:0:0:
382,153,81415,5,8,0:0:0:0:
366,110,81534,1,8,0:1:0:0:
306,68,81653,5,8,0:0:0:0:
294,41,81772,1,8,0:1:0:0:
222,47,81891,6,0,B|208:17|112:1|16:17|0:49,3,240,12|2|8|2,0:1|0:0|0:0|0:0,0:0:0:0:
222,47,82844,2,0,B|215:32|184:19|159:21,1,60,8|0,0:1|0:0,0:0:0:0:
138,180,83082,1,2,0:0:0:0:
130,153,83201,1,2,0:0:0:0:
198,130,83320,2,0,P|188:103|148:88,1,60,8|0,0:0|0:0,0:0:0:0:
217,213,83558,2,0,P|201:254|213:299,1,90.0000034332277,8|0,0:1|0:0,0:0:0:0:
289,336,83796,6,0,B|304:367|400:383|496:367|512:335,3,240,8|2|8|2,0:1|0:0|0:0|0:0,0:0:0:0:
290,337,84749,2,0,B|297:352|328:365|353:363,1,60,8|0,0:1|0:0,0:0:0:0:
374,204,84987,1,2,0:0:0:0:
382,231,85106,1,2,0:0:0:0:
314,254,85225,2,0,P|324:281|364:296,1,60,8|0,0:0|0:0,0:0:0:0:
295,171,85463,2,0,P|311:130|299:85,1,90.0000034332277,8|0,0:1|0:0,0:0:0:0:
222,47,85701,5,8,0:1:0:0:
48,304,85939,5,2,0:0:0:0:
75,317,86058,1,2,0:0:0:0:
102,330,86177,2,0,L|166:308,1,60,8|2,0:0|0:0,0:0:0:0:
16,192,86415,1,2,0:0:0:0:
48,80,86653,5,8,0:1:0:0:
75,67,86772,1,2,0:0:0:0:
102,54,86891,2,0,L|166:76,1,60,2|2,0:0|0:0,0:0:0:0:
228,285,87130,2,0,L|292:263,1,60,8|2,0:0|0:0,0:0:0:0:
328,133,87368,5,2,0:0:0:0:
341,139,87487,1,2,0:0:0:0:
354,144,87606,2,0,L|478:185,2,90.0000034332277,8|2|2,0:1|0:0|0:0,0:0:0:0:
249,208,87963,5,2,0:0:0:0:
226,215,88082,2,0,L|107:256,1,120,8|2,0:0|0:0,0:0:0:0:
157,26,88558,5,8,0:1:0:0:
169,374,88796,1,8,0:0:0:0:
138,357,88915,1,8,0:1:0:0:
187,304,89034,2,0,L|255:280,1,60,8|8,0:0|0:0,0:0:0:0:
464,190,89272,5,8,0:1:0:0:
480,192,89391,1,8,0:1:0:0:
495,194,89511,2,0,B|485:232|485:232|474:256|446:259,2,90.0000034332277,12|2|2,0:1|0:0|0:0,0:0:0:0:
464,64,89868,1,2,0:0:0:0:
438,53,89987,2,0,B|410:56|399:80|399:80|389:118,1,90.0000034332277,8|2,0:0|0:0,0:0:0:0:
271,224,90225,5,2,0:0:0:0:
282,240,90344,1,2,0:0:0:0:
306,272,90463,2,0,B|296:310|296:310|285:334|257:337,1,90.0000034332277,8|0,0:1|0:0,0:0:0:0:
374,263,90701,2,0,B|384:225|384:225|387:199|365:182,1,90.0000034332277,8|0,0:1|0:0,0:0:0:0:
240,112,90939,6,2,B|231:96|240:80|240:80|272:32|272:32|283:17|272:0,2,120,12|2|2,0:1|0:0|0:0,0:0:0:0:
0,192,91415,6,0,B|14:170|35:175|35:175|80:192,2,90.0000034332277,8|2|2,0:1|0:0|0:0,0:0:0:0:
141,327,91772,1,2,0:0:0:0:
148,356,91891,2,0,B|134:378|113:373|113:373|68:356,1,90.0000034332277,8|2,0:0|0:0,0:0:0:0:
235,198,92130,5,2,0:0:0:0:
256,192,92249,1,2,0:0:0:0:
288,182,92368,2,0,B|243:165|243:165|222:160|208:182,1,90.0000034332277,8|2,0:1|0:0,0:0:0:0:
79,191,92606,2,0,B|123:208|123:208|142:218|138:244,1,90.0000034332277,8|2,0:1|0:0,0:0:0:0:
272,272,92844,6,2,B|281:288|272:304|272:304|240:352|240:352|229:367|240:384,2,120,12|2|2,0:1|0:0|0:0,0:0:0:0:
464,112,93320,6,0,B|496:128|512:192|496:256|464:272,1,180.000006866455,8|2,0:1|0:0,0:0:0:0:
353,157,93677,1,2,0:0:0:0:
344,136,93796,2,0,P|390:141|424:171,1,90.0000034332277,12|2,0:0|0:0,0:0:0:0:
357,54,94034,2,0,P|311:59|277:89,1,90.0000034332277,8|2,0:1|0:0,0:0:0:0:
0,192,94272,6,0,B|89:217|89:217|141:226|168:184,1,180.000006866455,8|8,0:1|0:1,0:0:0:0:
108,150,94630,1,8,0:1:0:0:
157,93,94749,5,8,0:1:0:0:
218,134,94868,1,8,0:1:0:0:
256,192,94987,1,8,0:1:0:0:
294,250,95106,1,8,0:1:0:0:
355,291,95225,5,8,0:0:0:0:
382,285,95344,2,0,P|406:301|427:338,2,60,12|2|2,0:1|0:0|0:0,0:0:0:0:
384,176,95701,5,8,0:0:0:0:
411,177,95820,2,0,P|430:198|440:239,1,60,8|2,0:0|0:0,0:0:0:0:
467,79,96058,6,0,P|479:104|479:147,1,60,8|2,0:0|0:0,0:0:0:0:
393,48,96296,5,8,0:0:0:0:
343,53,96415,1,8,0:1:0:0:
322,34,96534,1,8,0:1:0:0:
256,64,96653,1,8,0:0:0:0:
190,34,96772,1,8,0:1:0:0:
169,53,96891,1,8,0:1:0:0:
157,56,97011,1,8,0:1:0:0:
119,48,97130,6,0,P|98:105|106:173,1,120,12|2,0:1|0:0,0:0:0:0:
77,260,97487,1,2,0:0:0:0:
90,278,97606,2,0,P|119:290|140:311,1,60,8|2,0:0|0:0,0:0:0:0:
76,372,97844,1,2,0:0:0:0:
63,354,97963,2,0,P|34:342|13:321,1,60,8|0,0:1|0:0,0:0:0:0:
252,182,98201,1,2,0:0:0:0:
256,192,98320,6,0,B|248:224|248:224|264:280|264:280|256:312,1,120,8|8,0:1|0:0,0:0:0:0:
315,378,98677,1,2,0:0:0:0:
326,373,98796,2,0,B|318:341|318:341|326:309,1,60,2|0,0:0|0:0,0:0:0:0:
186,135,99034,2,0,B|194:167|194:167|178:223|178:223|186:255,1,120,8|2,0:1|0:0,0:0:0:0:
364,247,99391,1,8,0:1:0:0:
389,246,99511,2,0,B|358:226|358:226|332:222,1,60,8|0,0:0|0:0,0:0:0:0:
474,205,99749,1,2,0:0:0:0:
449,206,99868,2,0,B|480:226|480:226|506:230,1,60,8|0,0:1|0:0,0:0:0:0:
332,81,100106,1,2,0:0:0:0:
312,89,100225,6,0,B|256:113|256:113|200:90,1,120,8|8,0:1|0:0,0:0:0:0:
256,32,100582,2,0,B|309:11|309:11|342:1|380:24,1,120,8|2,0:1|0:0,0:0:0:0:
474,104,100939,5,8,0:1:0:0:
481,106,100999,1,8,0:1:0:0:
488,110,101058,2,0,B|458:138|458:138|431:138,1,60,8|2,0:1|0:0,0:0:0:0:
377,242,101296,1,2,0:0:0:0:
324,191,101415,2,0,B|363:202|363:202|376:226,1,60,8|2,0:0|0:0,0:0:0:0:
488,220,101653,1,8,0:0:0:0:
470,291,101772,2,0,B|460:251|460:251|474:227,1,60,8|2,0:1|0:0,0:0:0:0:
356,333,102011,1,2,0:0:0:0:
336,345,102130,6,2,B|310:360|287:345|287:345|227:298|227:298|202:284|173:299,2,180.000006866455,8|8|2,1:1|0:0|0:0,0:0:0:0:
24,80,102844,6,0,B|8:96|0:136|8:176|24:192,1,120,8|2,0:1|0:0,0:0:0:0:
45,359,103201,1,2,0:0:0:0:
57,336,103320,2,0,P|38:312|9:294,1,60,8|0,0:0|0:0,0:0:0:0:
165,359,103558,1,8,0:0:0:0:
175,351,103677,2,0,B|190:343|185:325|185:325|175:293,1,60,8|0,0:1|0:0,0:0:0:0:
127,157,103915,1,8,0:1:0:0:
117,165,104034,2,0,B|102:173|107:191|107:191|117:223,1,60,8|0,0:1|0:0,0:0:0:0:
145,68,104272,5,8,0:0:0:0:
190,16,104391,1,8,0:1:0:0:
256,0,104511,1,8,0:1:0:0:
322,16,104630,1,8,0:1:0:0:
367,68,104749,6,0,P|397:119|452:157,1,120,12|2,0:1|0:0,0:0:0:0:
399,250,105106,1,2,0:0:0:0:
419,262,105225,2,0,L|488:276,1,60,8|0,0:0|0:0,0:0:0:0:
483,358,105463,1,2,0:0:0:0:
463,346,105582,2,0,L|394:332,1,60,8|0,0:1|0:0,0:0:0:0:
260,182,105820,1,2,0:0:0:0:
256,192,105939,6,0,B|264:224|264:224|248:280|248:280|256:312,1,120,8|8,0:1|0:0,0:0:0:0:
197,378,106296,1,2,0:0:0:0:
186,373,106415,2,0,B|194:341|194:341|186:309,1,60,2|2,0:0|0:0,0:0:0:0:
326,135,106653,2,0,B|318:167|318:167|334:223|334:223|326:255,1,120,8|2,0:1|0:0,0:0:0:0:
106,267,107011,1,2,0:0:0:0:
133,273,107130,2,0,P|155:253|192:246,1,60,8|2,0:0|0:0,0:0:0:0:
105,195,107368,1,2,0:0:0:0:
78,189,107487,6,0,B|64:214|27:216|27:216|-4:157,1,120,8|2,0:1|0:0,0:0:0:0:
106,0,107844,2,0,L|137:56,1,60,8|0,0:1|0:0,0:0:0:0:
104,119,108082,1,8,0:0:0:0:
70,115,108201,2,0,L|40:62,1,60,8|0,0:1|0:0,0:0:0:0:
236,142,108439,5,8,0:1:0:0:
247,147,108499,1,8,0:1:0:0:
256,152,108558,2,0,B|322:137|322:137|355:131|381:161,1,120,8|2,0:1|0:0,0:0:0:0:
328,277,108915,1,2,0:0:0:0:
317,267,109034,2,0,P|332:240|329:207,1,60,8|0,0:0|0:0,0:0:0:0:
452,321,109272,1,8,0:0:0:0:
448,335,109391,2,0,P|417:335|390:354,1,60,8|0,0:1|0:0,0:0:0:0:
427,191,109630,1,8,0:1:0:0:
441,187,109749,2,0,P|456:213|486:227,1,60,8|0,0:1|0:0,0:0:0:0:
296,348,109987,6,2,B|256:368|256:368|204:348,2,90.0000034332277,8|2|2,0:0|0:0|0:0,0:0:0:0:
118,243,110344,1,2,0:0:0:0:
98,259,110463,1,8,0:0:0:0:
110,330,110582,2,0,P|139:318|163:286,1,60,8|0,0:1|0:0,0:0:0:0:
38,140,110820,5,8,0:1:0:0:
87,89,110939,2,0,L|150:76,1,60,8|8,0:0|0:1,0:0:0:0:
195,150,111177,5,8,0:0:0:0:
126,133,111296,2,0,L|83:84,1,60,12|10,0:1|0:0,0:0:0:0:
103,2,111534,5,8,0:1:0:0:
132,7,111653,1,8,0:1:0:0:
161,11,111772,1,8,0:1:0:0:
190,16,111891,2,2,L|264:26,2,60,8|2|0,0:0|0:0|0:0,0:0:0:0:
301,186,112368,6,0,L|195:201,1,90.0000034332277,4|2,0:1|0:0,0:0:0:0:
127,195,112725,1,2,0:0:0:0:
118,209,112844,2,0,L|89:262,1,45.0000017166138,2|0,0:0|0:0,0:0:0:0:
88,264,113082,5,2,0:0:0:0:
79,278,113201,1,2,0:0:0:0:
71,294,113320,1,2,0:0:0:0:
71,294,113558,5,2,0:0:0:0:
74,312,113677,1,2,0:0:0:0:
78,331,113796,2,0,L|125:363,1,45.0000017166138,2|2,0:0|0:0,0:0:0:0:
133,365,114034,5,2,0:0:0:0:
149,373,114153,1,2,0:0:0:0:
166,383,114272,1,2,0:0:0:0:
166,383,114511,5,2,0:0:0:0:
184,383,114630,1,2,0:0:0:0:
203,384,114749,1,2,0:0:0:0:
203,384,114987,5,2,0:0:0:0:
218,374,115106,1,2,0:0:0:0:
236,366,115225,1,2,0:0:0:0:
236,366,115463,5,2,0:0:0:0:
245,350,115582,1,2,0:0:0:0:
255,334,115701,1,2,0:0:0:0:
319,311,115820,1,8,0:0:0:0:
193,73,116058,5,12,0:1:0:0:
266,23,116415,5,2,0:0:0:0:
285,25,116534,1,2,0:0:0:0:
304,26,116653,1,2,0:0:0:0:
304,26,116891,5,2,0:0:0:0:
321,32,117011,1,2,0:0:0:0:
339,38,117130,1,2,0:0:0:0:
339,38,117368,5,2,0:0:0:0:
353,48,117487,1,2,0:0:0:0:
369,58,117606,2,0,L|408:99,2,45.0000017166138,2|2|2,0:0|0:0|0:0,0:0:0:0:
322,108,117963,1,8,0:0:0:0:
400,192,118320,5,8,0:1:0:0:
400,192,118558,1,2,0:0:0:0:
400,192,118796,2,0,L|400:241,2,45.0000017166138,2|2|2,0:0|0:0|0:0,0:0:0:0:
400,192,119272,2,0,L|400:143,2,45.0000017166138,2|2|2,0:0|0:0|0:0,0:0:0:0:
330,179,119630,1,8,0:0:0:0:
182,205,119868,5,2,0:0:0:0:
179,191,119987,2,0,L|83:182,1,90.0000034332277,12|2,0:1|0:0,0:0:0:0:
85,172,120344,1,2,0:0:0:0:
81,162,120463,2,0,L|170:170,1,90.0000034332277,2|2,0:0|0:0,0:0:0:0:
166,160,120820,1,2,0:0:0:0:
161,149,120939,2,0,L|77:141,2,45.0000017166138,2|2|2,0:0|0:0|0:0,0:0:0:0:
157,139,121296,1,2,0:0:0:0:
152,128,121415,2,0,L|63:120,1,90.0000034332277,2|0,0:0|0:0,0:0:0:0:
63,40,121772,5,12,0:1:0:0:
186,11,122130,5,2,0:0:0:0:
239,89,122368,1,2,0:0:0:0:
317,36,122606,5,2,0:0:0:0:
317,36,122725,1,2,0:0:0:0:
317,36,122844,1,2,0:0:0:0:
370,114,123082,5,2,0:0:0:0:
370,114,123201,1,2,0:0:0:0:
370,114,123320,1,2,0:0:0:0:
394,44,123439,5,8,0:0:0:0:
294,162,123677,5,12,0:1:0:0:
294,162,123915,2,0,L|293:235,1,45.0000017166138,2|2,0:0|0:0,0:0:0:0:
310,222,124153,1,2,0:0:0:0:
326,237,124272,1,2,0:0:0:0:
326,237,124511,5,2,0:0:0:0:
327,259,124630,1,2,0:0:0:0:
327,283,124749,2,0,L|376:323,1,45.0000017166138,2|2,0:0|0:0,0:0:0:0:
379,328,124987,5,2,0:0:0:0:
380,350,125106,1,2,0:0:0:0:
380,374,125225,1,2,0:0:0:0:
380,374,125463,5,8,0:0:0:0:
380,350,125582,2,0,B|380:327|380:327|319:276,2,90.0000034332277,2|2|2,0:0|0:0|0:0,0:0:0:0:
416,228,126415,2,0,L|430:196,3,22.5000008583069,2|2|2|2,0:0|0:0|0:0|0:0,0:0:0:0:
432,192,126653,5,8,0:1:0:0:
432,192,127130,1,8,0:1:0:0:
512,192,127606,6,0,L|485:254,1,60,2|0,0:0|0:0,0:0:0:0:
462,83,128082,6,0,B|512:192|512:192|482:263,1,180.000006866455,12|0,1:1|0:0,0:0:0:0:
256,296,128558,1,2,0:0:0:0:
212,239,128717,5,2,0:0:0:0:
199,229,128796,2,0,P|170:223|134:237,1,60,8|2,0:1|0:0,0:0:0:0:
87,276,129034,2,0,P|58:284|29:278,2,60,8|2|2,0:0|0:0|0:0,0:0:0:0:
56,192,129391,5,2,0:0:0:0:
74,176,129511,2,0,P|91:120|66:51,2,120,8|2|8,0:1|0:0|0:0,0:0:0:0:
158,65,130225,1,2,0:0:0:0:
163,90,130344,2,0,P|165:119|161:154,1,60,2|8,0:0|0:1,0:0:0:0:
230,174,130582,1,2,0:0:0:0:
235,149,130701,2,0,P|237:119|234:85,1,60,8|2,0:1|0:0,0:0:0:0:
173,225,130939,1,8,0:0:0:0:
198,245,131058,6,0,P|256:257|313:243,1,120,2|2,0:0|0:0,0:0:0:0:
379,196,131356,1,2,0:0:0:0:
384,192,131415,2,0,P|442:179|499:193,1,120,8|2,0:1|0:0,0:0:0:0:
441,257,131772,1,2,0:0:0:0:
406,290,131891,2,0,P|440:249|477:287,1,120,8|0,0:0|0:0,0:0:0:0:
338,360,132249,5,2,0:0:0:0:
361,351,132368,2,0,P|387:364|423:363,1,60,2|2,0:0|0:0,0:0:0:0:
275,329,132606,2,0,P|249:316|213:317,1,60,8|2,0:1|0:0,0:0:0:0:
241,238,132844,5,8,0:0:0:0:
238,213,132963,1,2,0:0:0:0:
256,192,133082,1,2,0:0:0:0:
274,171,133201,1,2,0:0:0:0:
271,146,133320,2,0,B|266:126|281:110|281:110|300:85,1,60,8|2,0:1|0:0,0:0:0:0:
390,67,133558,2,0,B|395:87|380:103|380:103|361:128,1,60,8|2,0:1|0:0,0:0:0:0:
324,10,133796,6,0,P|294:5|246:15,1,60,8|0,0:0|0:0,0:0:0:0:
161,101,134034,5,2,0:0:0:0:
152,87,134114,5,2,0:0:0:0:
143,73,134193,5,2,0:0:0:0:
135,58,134272,6,0,P|105:53|57:63,1,60,2|2,0:0|0:0,0:0:0:0:
7,148,134511,6,0,L|22:253,2,90.0000034332277,12|2|2,0:1|0:0|0:0,0:0:0:0:
80,130,134868,1,2,0:0:0:0:
92,161,134987,2,0,L|102:232,1,60,2|2,0:0|0:0,0:0:0:0:
81,325,135225,6,0,P|125:363|184:363,1,120,8|2,0:1|0:0,0:0:0:0:
327,242,135701,2,0,P|385:241|430:279,1,120,8|2,0:0|0:0,0:0:0:0:
326,329,136058,5,2,0:0:0:0:
333,314,136177,2,0,P|362:308|381:333,1,60,8|2,0:1|0:0,0:0:0:0:
193,259,136415,1,2,0:0:0:0:
184,277,136534,1,2,0:0:0:0:
177,292,136653,2,0,P|148:298|129:273,2,60,8|2|2,0:0|0:0|0:0,0:0:0:0:
265,155,137130,6,0,P|261:126|265:93,1,60,8|2,0:1|0:0,0:0:0:0:
275,73,137368,1,2,0:0:0:0:
323,59,137487,5,2,0:0:0:0:
362,25,137606,2,0,P|421:35|480:26,1,120,8|2,0:0|0:0,0:0:0:0:
451,102,137963,2,0,P|419:105|385:100,1,60,8|2,0:1|0:0,0:0:0:0:
456,215,138201,2,0,P|468:186|489:159,1,60,8|2,3:1|0:0,3:0:0:0:
333,188,138439,5,8,0:1:0:0:
354,163,138558,2,0,P|372:188|385:220,1,60,12|2,0:0|0:0,0:0:0:0:
419,276,138796,2,0,P|422:307|417:341,1,60,2|2,0:0|0:0,0:0:0:0:
291,329,139034,6,0,L|350:309,1,60,8|2,0:1|0:0,0:0:0:0:
141,238,139272,1,2,0:0:0:0:
151,235,139391,1,2,0:0:0:0:
163,231,139511,2,0,L|222:211,2,60,8|2|2,0:0|0:0|0:0,0:0:0:0:
326,246,139868,1,2,0:0:0:0:
312,251,139987,2,0,L|198:289,1,120,2|8,0:0|0:1,0:0:0:0:
147,339,140344,1,2,0:0:0:0:
135,343,140463,2,0,P|107:336|82:312,1,60,8|2,0:0|0:0,0:0:0:0:
72,192,140701,5,2,0:0:0:0:
64,159,140820,1,2,0:0:0:0:
32,152,140939,5,8,0:1:0:0:
8,232,141058,1,8,0:0:0:0:
161,80,141296,5,8,0:1:0:0:
137,160,141415,1,8,0:0:0:0:
269,232,141653,5,8,0:1:0:0:
245,152,141772,1,8,0:0:0:0:
398,304,142011,5,8,0:0:0:0:
374,224,142130,1,8,0:1:0:0:
388,192,142249,1,8,0:0:0:0:
398,159,142368,5,8,0:0:0:0:
374,79,142487,1,12,0:1:0:0:
388,47,142606,1,8,0:0:0:0:
414,23,142725,1,8,0:0:0:0:
452,22,142844,6,0,P|463:65|430:111,1,90.0000034332277,12|2,0:1|0:0,0:0:0:0:
329,139,143320,2,0,P|306:177|250:186,1,90.0000034332277,2|2,0:0|0:0,0:0:0:0:
159,134,143796,6,0,P|115:144|70:112,1,90.0000034332277,12|2,0:1|0:0,0:0:0:0:
260,68,144272,1,2,0:0:0:0:
196,193,144511,6,0,P|177:204|151:212,1,45.0000017166138,2|2,0:0|0:0,0:0:0:0:
90,191,144749,2,0,P|51:208|22:350,1,180.000006866455,12|2,0:1|0:0,0:0:0:0:
142,338,145463,5,0,0:0:0:0:
114,346,145582,1,0,0:0:0:0:
98,324,145701,2,0,P|79:289|121:262,2,90.0000034332277,12|2|2,0:1|0:0|0:0,0:0:0:0:
256,360,146415,1,2,0:0:0:0:
414,324,146653,2,0,B|435:314|446:287|427:261|398:260|398:260|370:260|352:226|371:198|397:192,1,180.000006866455,12|2,0:1|0:0,0:0:0:0:
494,236,147487,5,2,0:0:0:0:
494,245,147546,1,2,0:0:0:0:
495,253,147606,2,0,P|506:295|486:347,2,90.0000034332277,12|2|2,0:1|0:0|0:0,0:0:0:0:
366,328,148320,1,2,0:0:0:0:
304,248,148558,6,0,P|300:204|308:153,1,90.0000034332277,8|2,0:1|0:0,0:0:0:0:
208,136,149034,2,0,P|212:180|204:231,1,90.0000034332277,8|2,0:1|0:0,0:0:0:0:
244,302,149511,5,8,0:1:0:0:
145,180,149749,1,8,0:1:0:0:
267,81,149987,1,8,0:1:0:0:
366,203,150225,1,8,0:1:0:0:
366,328,150463,5,8,0:0:0:0:
392,81,150701,1,8,0:0:0:0:
145,55,150939,1,8,0:0:0:0:
119,302,151177,1,8,0:0:0:0:
244,302,151415,5,8,0:0:0:0:
27,321,151653,5,8,0:0:0:0:
76,323,151772,1,8,0:0:0:0:
119,302,151891,1,8,0:1:0:0:
156,219,152130,5,8,0:1:0:0:
200,197,152249,1,8,0:1:0:0:
227,157,152368,6,0,B|215:175|119:207|15:175|0:151,1,240,12|2,0:1|0:0,0:0:0:0:
1,139,152725,1,2,0:0:0:0:
0,127,152844,6,0,B|15:150|119:182|215:150|227:132,1,240,8|2,0:0|0:0,0:0:0:0:
153,27,153201,1,2,0:0:0:0:
202,0,153320,6,0,P|174:34|170:87,1,90.0000034332277,8|0,0:1|0:0,0:0:0:0:
256,69,153558,1,2,0:0:0:0:
290,49,153677,1,2,0:0:0:0:
323,73,153796,2,0,P|317:98|288:129,2,60,8|2|8,0:0|0:0|0:1,0:0:0:0:
284,227,154272,6,0,B|295:208|391:176|495:208|511:232,1,240,8|2,0:1|0:0,0:0:0:0:
510,245,154630,1,2,0:0:0:0:
511,257,154749,6,0,B|495:233|391:201|295:233|283:251,1,240,8|2,0:0|0:0,0:0:0:0:
358,357,155106,1,2,0:0:0:0:
309,384,155225,6,0,P|336:349|340:296,1,90.0000034332277,8|0,0:1|0:0,0:0:0:0:
255,315,155463,1,2,0:0:0:0:
221,335,155582,1,2,0:0:0:0:
188,311,155701,2,0,P|194:286|223:255,2,60,8|2|8,0:0|0:0|0:1,0:0:0:0:
210,96,156058,5,8,0:1:0:0:
216,95,156118,1,8,0:1:0:0:
222,95,156177,2,0,B|255:90|280:110|280:110|356:201|356:201|378:221|424:225,1,240,8|2,0:1|0:0,0:0:0:0:
418,213,156534,1,2,0:0:0:0:
424,202,156653,6,0,B|392:199|369:179|369:179|294:88|294:88|269:68|235:72,1,240,8|2,0:0|0:0,0:0:0:0:
212,181,157011,1,2,0:0:0:0:
170,160,157130,6,0,P|214:172|261:166,1,90.0000034332277,8|0,0:1|0:0,0:0:0:0:
375,126,157368,1,2,0:0:0:0:
407,114,157487,1,2,0:0:0:0:
439,132,157606,2,0,P|467:144|491:178,2,60,8|2|8,0:0|0:0|0:1,0:0:0:0:
369,39,157963,5,2,0:0:0:0:
344,43,158082,2,0,P|306:17|261:6,2,90.0000034332277,8|2|2,0:1|0:0|0:0,0:0:0:0:
294,235,158439,1,2,0:0:0:0:
319,231,158558,2,0,P|357:257|402:268,1,90.0000034332277,8|2,0:0|0:0,0:0:0:0:
217,186,158796,5,8,0:1:0:0:
256,128,158915,1,8,0:1:0:0:
217,70,159034,2,0,B|185:65|165:39|165:39|147:14|117:3,1,120,8|2,0:0|0:0,0:0:0:0:
38,91,159272,1,8,0:0:0:0:
80,92,159391,1,8,0:1:0:0:
22,128,159511,5,8,0:0:0:0:
43,206,159630,1,8,0:1:0:0:
116,241,159749,1,8,0:1:0:0:
147,235,159868,5,8,0:1:0:0:
213,280,159987,6,0,B|214:313|239:340|295:370|418:369,1,240,12|2,0:1|0:0,0:0:0:0:
419,359,160344,1,2,0:0:0:0:
424,349,160463,6,0,B|303:349|247:319|222:292|221:259,1,240,8|2,0:0|0:0,0:0:0:0:
312,227,160820,1,2,0:0:0:0:
340,185,160939,6,0,P|326:227|341:270,1,90.0000034332277,8|0,0:1|0:0,0:0:0:0:
403,227,161177,1,2,0:0:0:0:
436,201,161296,1,2,0:0:0:0:
477,212,161415,2,0,P|478:243|466:271,2,60,8|2|8,0:0|0:0|0:1,0:0:0:0:
336,18,161891,6,0,B|367:34|367:34|401:50|433:24,1,90.0000034332277,8|0,0:1|0:0,0:0:0:0:
228,60,162130,1,2,0:0:0:0:
202,66,162249,1,2,0:0:0:0:
171,105,162368,2,0,B|202:121|202:121|236:137|268:111,1,90.0000034332277,8|0,0:0|0:0,0:0:0:0:
63,147,162606,1,2,0:0:0:0:
37,153,162725,1,2,0:0:0:0:
6,192,162844,2,0,B|37:208|37:208|71:224|103:198,2,90.0000034332277,8|8|2,0:1|0:1|0:0,0:0:0:0:
209,351,163201,5,8,0:1:0:0:
284,370,163320,1,8,0:0:0:0:
228,276,163439,1,8,0:1:0:0:
303,295,163558,1,8,0:1:0:0:
93,363,163796,6,0,B|140:342|140:342|223:352,1,120,8|2,0:1|0:0,0:0:0:0:
148,272,164153,1,2,0:0:0:0:
122,272,164272,2,0,B|75:293|75:293|6:285,2,90.0000034332277,8|2|2,0:0|0:0|0:0,0:0:0:0:
242,91,164749,6,0,B|289:70|289:70|372:80,1,120,8|2,0:1|0:0,0:0:0:0:
297,0,165106,1,2,0:0:0:0:
271,0,165225,2,0,B|224:21|224:21|150:12,2,90.0000034332277,8|2|2,0:0|0:0|0:0,0:0:0:0:
390,261,165701,5,8,0:1:0:0:
380,289,165820,1,2,0:0:0:0:
398,312,165939,2,0,P|387:339|359:345,1,60,2|0,0:0|0:0,0:0:0:0:
475,276,166177,6,2,B|495:248|490:223|490:223|470:158|470:158|465:133|482:105,1,180.000006866455,12|2,0:1|0:0,0:0:0:0:
384,168,166653,5,8,0:0:0:0:
316,157,166772,1,8,0:1:0:0:
256,192,166891,1,8,0:1:0:0:
196,227,167011,1,8,0:1:0:0:
128,216,167130,5,8,0:0:0:0:
112,182,167249,1,8,0:1:0:0:
65,129,167368,5,8,0:0:0:0:
75,74,167487,1,8,0:1:0:0:
147,45,167606,6,0,P|262:13|382:29,1,240,12|2,0:1|0:0,0:0:0:0:
381,43,167963,1,2,0:0:0:0:
383,56,168082,6,0,P|264:41|149:72,1,240,8|2,0:0|0:0,0:0:0:0:
316,157,168439,1,2,0:0:0:0:
346,174,168558,6,0,P|352:217|392:248,1,90.0000034332277,8|0,0:1|0:0,0:0:0:0:
417,181,168796,1,2,0:0:0:0:
450,202,168915,1,2,0:0:0:0:
488,199,169034,2,0,P|489:166|464:126,1,60,8|0,0:0|0:0,0:0:0:0:
476,271,169272,2,0,P|468:303|433:335,1,60,8|0,0:1|0:0,0:0:0:0:
365,339,169511,6,0,P|249:370|129:354,1,240,8|2,0:1|0:0,0:0:0:0:
131,341,169868,1,2,0:0:0:0:
129,328,169987,6,0,P|247:342|362:311,1,240,8|2,0:0|0:0,0:0:0:0:
196,227,170344,1,2,0:0:0:0:
166,210,170463,6,0,P|160:167|120:136,1,90.0000034332277,8|0,0:1|0:0,0:0:0:0:
95,203,170701,1,2,0:0:0:0:
62,182,170820,1,2,0:0:0:0:
24,185,170939,2,0,P|23:218|48:258,1,60,8|0,0:0|0:0,0:0:0:0:
36,113,171177,2,0,P|43:80|78:48,1,60,8|0,0:1|0:0,0:0:0:0:
147,45,171415,5,8,0:1:0:0:
343,24,171653,5,2,0:0:0:0:
350,67,171772,1,2,0:0:0:0:
391,79,171891,2,0,P|420:79|456:105,1,60,8|2,0:0|0:0,0:0:0:0:
392,192,172130,5,2,0:0:0:0:
343,360,172368,5,8,0:1:0:0:
350,317,172487,1,2,0:0:0:0:
391,305,172606,2,0,P|420:305|456:279,1,60,2|2,0:0|0:0,0:0:0:0:
275,166,172844,2,0,P|300:151|344:156,1,60,8|2,0:0|0:0,0:0:0:0:
208,274,173082,1,2,0:0:0:0:
189,277,173201,1,2,0:0:0:0:
171,279,173320,2,0,P|101:316|155:373,1,180.000006866455,8|2,0:1|0:0,0:0:0:0:
283,280,173677,5,2,0:0:0:0:
290,263,173796,2,0,P|266:211|194:197,1,120,8|2,0:0|0:0,0:0:0:0:
81,277,174272,5,8,0:1:0:0:
269,0,174511,1,8,0:1:0:0:
231,56,174630,1,8,0:1:0:0:
256,72,174749,2,0,B|282:87|282:87|295:133,1,60,8|2,0:0|0:0,0:0:0:0:
416,300,174987,2,0,B|431:325|431:325|419:372,1,60,8|2,0:1|0:0,0:0:0:0:
504,192,175225,6,0,B|481:158|481:158|467:137|478:112,2,90.0000034332277,12|2|2,0:1|0:0|0:0,0:0:0:0:
400,60,175582,1,2,0:0:0:0:
368,55,175701,2,0,B|391:89|391:89|405:110|394:135,1,90.0000034332277,8|2,0:0|0:0,0:0:0:0:
310,252,175939,5,2,0:0:0:0:
270,246,176058,1,2,0:0:0:0:
246,213,176177,2,0,B|280:190|280:190|301:176|326:187,1,90.0000034332277,8|2,0:1|0:0,0:0:0:0:
212,145,176415,2,0,B|178:168|178:168|157:182|132:171,1,90.0000034332277,8|2,0:1|0:0,0:0:0:0:
280,112,176653,6,2,B|248:60|248:60|280:0,2,120,12|2|2,0:1|0:0|0:0,0:0:0:0:
20,246,177130,6,0,B|0:219|20:192|20:192|36:165|21:134,2,120,12|2|2,0:1|0:0|0:0,0:0:0:0:
119,327,177487,1,2,0:0:0:0:
75,346,177606,2,0,B|104:365|133:355|133:355|193:322,1,120,8|2,0:0|0:0,0:0:0:0:
166,151,177844,5,2,0:0:0:0:
146,161,177963,1,2,0:0:0:0:
131,170,178082,2,0,B|115:146|128:117|128:117|144:86,1,90.0000034332277,8|2,0:1|0:0,0:0:0:0:
237,190,178320,2,0,B|260:174|289:187|289:187|320:203,1,90.0000034332277,8|2,0:1|0:0,0:0:0:0:
232,272,178558,6,2,B|264:324|264:324|232:384,2,120,12|2|2,0:1|0:0|0:0,0:0:0:0:
464,112,179034,6,0,B|496:128|512:192|496:256|465:271,1,180.000006866455,8|2,0:1|0:0,0:0:0:0:
381,156,179391,1,2,0:0:0:0:
344,136,179511,2,0,P|390:141|424:171,1,90.0000034332277,8|0,0:0|0:0,0:0:0:0:
294,75,179749,1,2,0:0:0:0:
269,78,179868,1,2,0:0:0:0:
240,83,179987,2,0,P|290:50|353:67,1,120,8|8,0:1|0:1,0:0:0:0:
187,243,180344,5,8,0:1:0:0:
182,269,180463,2,0,P|158:296|96:298,1,75,8|8,0:1|0:1,0:0:0:0:
107,180,180701,5,8,0:0:0:0:
124,142,180820,1,8,0:1:0:0:
192,129,180939,1,8,0:1:0:0:
256,192,181058,6,0,L|436:163,1,180.000006866455,12|8,0:1|0:0,0:0:0:0:
369,100,181415,6,0,L|191:128,1,180.000006866455,12|8,0:1|0:0,0:0:0:0:
107,180,181772,1,12,0:1:0:0:
39,192,181891,5,8,0:1:0:0:
15,219,182011,1,8,0:0:0:0:
20,255,182130,1,8,0:1:0:0:
20,325,182249,5,8,0:1:0:0:
46,345,182368,1,8,0:0:0:0:
119,346,182487,5,8,0:1:0:0:
145,366,182606,1,8,0:0:0:0:
201,326,182725,5,8,0:1:0:0:
256,368,182844,6,0,P|312:348|368:368,1,120,12|2,0:1|0:0,0:0:0:0:
440,304,183320,2,0,P|460:248|440:192,1,120,8|2,0:0|0:0,0:0:0:0:
254,190,183796,6,0,P|248:219|250:249,1,60,8|0,0:1|0:0,0:0:0:0:
325,224,184034,2,0,P|334:252|351:277,1,60,2|0,0:0|0:0,0:0:0:0:
365,87,184272,6,0,P|371:58|369:28,1,60,8|0,0:0|0:0,0:0:0:0:
294,53,184511,2,0,P|284:24|267:-1,1,60,2|0,0:0|0:0,0:0:0:0:
191,135,184749,5,8,0:1:0:0:
151,122,184868,1,2,0:0:0:0:
151,80,184987,1,2,0:0:0:0:
191,67,185106,1,2,0:0:0:0:
215,101,185225,5,8,0:0:0:0:
258,125,185344,1,2,0:0:0:0:
306,136,185463,1,2,0:0:0:0:
353,150,185582,1,2,0:0:0:0:
394,177,185701,5,8,0:1:0:0:
429,184,185820,1,2,0:0:0:0:
463,173,185939,1,2,0:0:0:0:
482,142,186058,1,2,0:0:0:0:
482,103,186177,5,8,0:0:0:0:
463,83,186296,1,2,0:0:0:0:
438,83,186415,1,2,0:0:0:0:
422,96,186534,1,2,0:0:0:0:
421,117,186653,6,0,P|396:102|387:67,1,60,8|2,0:1|0:0,0:0:0:0:
302,137,186891,1,2,0:0:0:0:
281,140,187011,1,2,0:0:0:0:
270,157,187130,2,0,P|255:131|265:96,1,60,8|2,0:0|0:0,0:0:0:0:
157,105,187368,1,2,0:0:0:0:
137,97,187487,1,2,0:0:0:0:
119,107,187606,6,0,P|119:79|201:88,1,120,8|2,0:1|0:0,0:0:0:0:
196,176,187963,5,2,0:0:0:0:
202,197,188082,1,8,0:0:0:0:
188,227,188201,1,2,0:0:0:0:
141,234,188320,1,2,0:0:0:0:
99,176,188439,1,2,0:0:0:0:
0,255,188558,6,0,B|28:238|36:212|36:212|29:258|50:306|92:328,1,180.000006866455,12|2,0:1|0:0,0:0:0:0:
163,369,188915,1,2,0:0:0:0:
180,345,189034,6,0,B|188:313|175:289|175:289|203:326|252:345|297:331,2,180.000006866455,8|2|12,0:0|0:0|1:1,0:0:0:0:
332,39,189749,5,12,1:1:0:0:
180,158,189987,5,8,1:1:0:0:
230,144,190106,1,2,0:0:0:0:
256,99,190225,1,2,0:0:0:0:
282,54,190344,1,2,0:0:0:0:
332,39,190463,6,0,P|391:43|438:86,1,120,12|2,0:1|0:0,0:0:0:0:
359,122,190820,1,2,0:0:0:0:
336,109,190939,2,0,P|366:108|385:138,2,60,8|2|2,0:0|0:0|0:0,0:0:0:0:
474,175,191415,5,8,0:1:0:0:
504,212,191534,1,2,0:0:0:0:
488,257,191653,1,2,0:0:0:0:
472,302,191772,1,2,0:0:0:0:
424,305,191891,2,0,P|396:304|361:320,1,60,8|2,0:0|0:0,0:0:0:0:
217,244,192130,5,2,0:0:0:0:
232,198,192249,1,2,0:0:0:0:
280,198,192368,1,8,0:1:0:0:
294,243,192487,1,2,0:0:0:0:
256,272,192606,2,0,P|249:301|256:330,1,60,2|2,0:0|0:0,0:0:0:0:
88,305,192844,5,8,0:0:0:0:
40,302,192963,1,2,0:0:0:0:
24,257,193082,1,2,0:0:0:0:
8,212,193201,1,2,0:0:0:0:
38,175,193320,5,8,0:1:0:0:
71,162,193439,1,8,0:1:0:0:
139,151,193558,5,8,0:0:0:0:
172,138,193677,1,8,0:1:0:0:
163,68,193796,5,8,0:1:0:0:
211,45,193915,1,8,0:0:0:0:
256,72,194034,1,8,0:1:0:0:
301,99,194153,1,8,0:1:0:0:
349,76,194272,6,0,B|385:77|394:110|394:110|404:168,1,120,12|2,0:1|0:0,0:0:0:0:
447,245,194630,1,2,0:0:0:0:
470,232,194749,6,0,B|489:221|486:192|486:192|477:138,2,90.0000034332277,8|2|2,0:0|0:0|0:0,0:0:0:0:
298,291,195106,1,2,0:0:0:0:
256,283,195225,6,0,B|257:247|290:238|290:238|348:228,1,120,8|2,0:1|0:0,0:0:0:0:
361,337,195582,1,2,0:0:0:0:
342,354,195701,6,2,B|314:374|289:369|289:369|224:349|224:349|199:344|171:361,1,180.000006866455,8|2,0:0|0:0,0:0:0:0:
101,318,196058,1,2,0:0:0:0:
126,310,196177,2,0,P|151:293|185:283,2,60,8|2|2,0:1|0:0|0:0,0:0:0:0:
4,192,196653,6,0,B|8:228|36:228|36:228|68:228|72:192|72:192|72:120,1,180.000006866455,12|2,0:1|0:0,0:0:0:0:
165,170,197011,1,2,0:0:0:0:
154,161,197130,2,0,B|154:107|154:107|159:70|201:60,1,120,8|2,0:0|0:0,0:0:0:0:
220,228,197368,5,8,0:0:0:0:
256,192,197487,1,8,0:1:0:0:
292,156,197606,2,0,P|336:155|377:176,1,90.0000034332277,8|2,0:1|0:0,0:0:0:0:
440,125,197844,2,0,P|471:155|485:199,1,90.0000034332277,12|2,0:1|0:0,0:0:0:0:
403,328,198082,6,0,P|421:352|452:359,1,60,12|0,0:1|0:0,0:0:0:0:
365,271,198320,2,0,P|347:247|316:240,1,60,2|0,0:0|0:0,0:0:0:0:
384,299,198558,1,8,0:0:0:0:
249,226,198796,6,0,P|244:255|261:282,1,60,2|0,0:0|0:0,0:0:0:0:
262,158,199034,2,0,P|266:128|249:101,1,60,8|0,0:1|0:0,0:0:0:0:
256,192,199272,1,2,0:0:0:0:
147,113,199511,6,0,P|165:137|196:144,1,60,8|0,0:0|0:0,0:0:0:0:
109,56,199749,2,0,P|91:32|60:25,1,60,2|0,0:0|0:0,0:0:0:0:
156,66,199987,2,0,P|180:48|187:17,1,60,8|0,0:1|0:0,0:0:0:0:
99,104,200225,2,0,P|75:122|68:153,1,60,2|0,0:0|0:0,0:0:0:0:
128,85,200463,1,8,0:0:0:0:
12,192,200701,6,0,P|7:221|24:248,1,60,2|0,0:0|0:0,0:0:0:0:
12,315,200939,2,0,P|30:339|61:346,2,60,8|2|2,0:1|0:0|0:0,0:0:0:0:
111,240,201415,6,0,P|141:233|165:216,1,60,8|0,0:0|0:0,0:0:0:0:
237,198,201653,1,2,0:0:0:0:
255,159,201772,1,8,0:1:0:0:
319,124,201891,6,0,P|328:97|288:22,1,120,8|0,0:1|0:0,0:0:0:0:
203,42,202249,1,2,0:0:0:0:
202,51,202308,1,2,0:0:0:0:
204,60,202368,2,0,P|225:80|266:87,1,60,8|2,0:0|0:0,0:0:0:0:
512,167,202725,5,2,0:0:0:0:
512,192,202844,2,0,P|491:212|450:219,2,60,8|2|2,0:0|0:0|0:0,0:0:0:0:
444,144,203201,5,2,0:0:0:0:
399,153,203320,1,8,0:1:0:0:
376,192,203439,1,2,0:0:0:0:
353,231,203558,1,2,0:0:0:0:
308,240,203677,1,2,0:0:0:0:
282,236,203796,1,8,0:1:0:0:
256,232,203915,1,2,0:0:0:0:
224,297,204034,6,0,P|226:326|217:355,1,60,2|2,0:0|0:0,0:0:0:0:
149,373,204272,2,0,P|145:315|166:257,1,120,8|2,0:0|0:0,0:0:0:0:
197,193,204630,1,2,0:0:0:0:
184,174,204749,2,0,P|159:158|128:155,1,60,8|0,0:1|0:0,0:0:0:0:
51,59,204987,5,8,0:1:0:0:
58,101,205106,1,8,0:1:0:0:
91,74,205225,5,8,0:0:0:0:
133,82,205344,1,8,0:1:0:0:
184,34,205463,5,8,0:1:0:0:
226,42,205582,1,8,0:1:0:0:
256,104,205701,6,0,P|317:108|354:61,1,120,12|2,0:1|0:0,0:0:0:0:
426,216,206177,5,8,0:0:0:0:
436,263,206296,1,2,0:0:0:0:
483,268,206415,1,2,0:0:0:0:
503,224,206534,1,2,0:0:0:0:
467,192,206653,5,8,0:1:0:0:
414,172,206772,1,2,0:0:0:0:
362,192,206891,1,2,0:0:0:0:
310,212,207011,1,2,0:0:0:0:
257,192,207130,5,8,0:0:0:0:
233,173,207249,1,2,0:0:0:0:
233,143,207368,2,0,P|240:115|227:86,1,60,2|2,0:0|0:0,0:0:0:0:
171,0,207606,6,0,P|178:28|98:56,1,120,12|2,0:1|0:0,0:0:0:0:
90,57,207963,1,2,0:0:0:0:
72,50,208082,5,8,0:0:0:0:
42,80,208201,1,2,0:0:0:0:
52,120,208320,1,2,0:0:0:0:
62,160,208439,1,2,0:0:0:0:
33,190,208558,5,8,0:1:0:0:
80,174,208677,1,2,0:0:0:0:
129,183,208796,2,0,P|154:166|163:137,1,60,2|2,0:0|0:0,0:0:0:0:
237,19,209034,5,8,0:0:0:0:
278,18,209153,1,2,0:0:0:0:
302,52,209272,1,2,0:0:0:0:
285,90,209391,1,2,0:0:0:0:
238,148,209511,6,0,P|238:193|259:231,2,90.0000034332277,8|2|2,0:1|0:0|0:0,0:0:0:0:
369,285,209868,1,2,0:0:0:0:
364,321,209987,6,0,P|402:298|425:261,2,90.0000034332277,12|2|2,0:1|0:0|0:0,0:0:0:0:
437,129,210344,1,2,0:0:0:0:
445,127,210403,1,2,0:0:0:0:
452,125,210463,6,0,P|413:102|369:101,1,90.0000034332277,8|2,0:1|0:0,0:0:0:0:
347,203,210701,5,2,0:0:0:0:
362,202,210820,1,2,0:0:0:0:
375,201,210939,5,8,0:0:0:0:
318,167,211058,1,2,0:0:0:0:
256,192,211177,1,2,0:0:0:0:
194,217,211296,1,2,0:0:0:0:
137,183,211415,5,8,0:1:0:0:
204,93,211534,6,0,L|162:336,1,240,12|2,0:1|0:0,0:0:0:0:
98,357,211832,1,2,0:0:0:0:
91,352,211891,6,0,L|131:115,1,240,8|2,0:1|0:0,0:0:0:0:
70,67,212249,6,0,L|44:224,1,120,8|0,0:1|0:0,0:0:0:0:
235,309,212606,6,0,L|473:372,1,240,12|2,0:1|0:0,0:0:0:0:
512,319,212903,1,2,0:0:0:0:
510,310,212963,6,0,L|395:280,2,120,8|2|2,0:1|0:0|0:0,0:0:0:0:
320,259,213320,5,12,0:1:0:0:
256,192,213439,12,2,219034,0:0:0:0:
24,90,220939,6,0,P|5:144|55:184,1,120,2|2,0:0|0:0,0:0:0:0:
134,156,221772,1,2,0:0:0:0:
131,150,221891,2,0,P|114:126|79:129,1,60,2|2,0:0|0:0,0:0:0:0:
105,218,222368,2,0,P|122:242|157:239,1,60,2|2,0:0|0:0,0:0:0:0:
206,187,222844,6,0,P|262:180|298:228,1,120,2|2,0:0|0:0,0:0:0:0:
230,310,223677,1,2,0:0:0:0:
220,309,223796,2,0,P|212:281|230:257,1,60,2|2,0:0|0:0,0:0:0:0:
319,295,224272,2,0,P|346:284|363:260,1,60,2|2,0:0|0:0,0:0:0:0:
358,187,224749,6,0,P|335:134|365:85,1,120,2|2,0:0|0:0,0:0:0:0:
472,120,225582,1,2,0:0:0:0:
467,133,225701,2,0,P|439:142|401:135,1,60,2|2,0:0|0:0,0:0:0:0:
401,23,226177,2,0,P|373:14|335:21,1,60,2|2,0:0|0:0,0:0:0:0:
294,74,226653,6,0,L|245:81,3,48,2|2|2|2,0:0|0:0|0:0|0:0,0:0:0:0:
190,36,227606,2,0,L|141:29,3,48,2|2|2|2,0:0|0:0|0:0|0:0,0:0:0:0:
79,62,228439,1,2,0:0:0:0:
66,76,228558,6,0,P|61:107|65:142,1,60,2|2,0:0|0:0,0:0:0:0:
127,200,229034,2,0,P|132:231|128:266,1,60,2|2,0:0|0:0,0:0:0:0:
73,302,229391,1,2,0:0:0:0:
42,287,229511,2,0,P|39:257|44:227,2,60,2|2|2,0:0|0:0|0:0,0:0:0:0:
205,360,230463,6,0,P|235:359|267:346,1,60,2|2,0:0|0:0,0:0:0:0:
298,256,230939,2,0,P|325:245|355:244,1,60,2|2,0:0|0:0,0:0:0:0:
419,298,231296,1,2,0:0:0:0:
408,319,231415,2,0,P|380:329|350:330,1,60,2|2,0:0|0:0,0:0:0:0:
210,276,231891,2,0,P|193:221|214:163,1,120,2|2,0:0|0:0,0:0:0:0:
297,134,232606,5,2,0:0:0:0:
363,132,232844,2,0,P|336:143|298:140,1,60,2|2,0:0|0:0,0:0:0:0:
256,73,233320,2,0,P|259:44|281:12,1,60,2|2,0:0|0:0,0:0:0:0:
360,9,233796,2,0,P|383:26|399:61,1,60,2|2,0:0|0:0,0:0:0:0:
448,123,234272,6,0,P|439:182|469:242,1,120,2|2,0:0|0:0,0:0:0:0:
377,353,235225,2,0,P|348:354|317:365,1,60,2|2,0:0|0:0,0:0:0:0:
255,330,235701,2,0,P|226:339|196:340,1,60,2|2,0:0|0:0,0:0:0:0:
170,269,236177,6,0,P|212:271|251:256,2,83.9999974365235,2|2|2,0:0|0:0|0:0,0:0:0:0:
98,290,236891,1,2,0:0:0:0:
112,215,237130,2,0,P|148:195|199:197,1,83.9999974365235,2|2,0:0|0:0,0:0:0:0:
266,180,237606,2,0,P|326:201|396:197,1,125.999996154785,2|2,0:0|0:0,0:0:0:0:
381,132,238082,6,0,P|337:135|292:118,1,83.9999974365235,2|2,0:0|0:0,0:0:0:0:
300,53,238558,1,2,0:0:0:0:
370,59,238796,2,0,P|412:65|454:102,2,83.9999974365235,2|2|2,0:0|0:0|0:0,0:0:0:0:
300,53,239511,2,0,P|237:48|183:14,1,125.999996154785,2|2,0:0|0:0,0:0:0:0:
102,39,239987,5,8,0:0:0:0:
184,15,240106,2,0,L|181:90,2,60,8|2|2,0:1|0:0|0:0,0:0:0:0:
160,151,240463,5,8,0:0:0:0:
242,127,240582,2,0,L|238:217,2,90.0000034332277,8|2|8,0:1|0:0|0:1,0:0:0:0:
373,225,240939,6,0,B|387:245|410:245|435:225|435:225|417:230|404:229|374:219,1,120,12|0,0:1|0:0,0:0:0:0:
373,225,241177,6,0,B|348:227|337:247|342:278|342:278|346:260|354:249|377:228,1,120,12|0,0:1|0:0,0:0:0:0:
373,225,241415,6,0,B|383:202|371:182|342:171|342:171|355:184|360:196|366:228,1,120,12|2,0:1|0:0,0:0:0:0:
238,216,241891,5,8,0:1:0:0:
230,220,241971,6,0,L|187:221,1,40,8|8,0:1|0:1,0:0:0:0:
203,324,242130,5,8,0:1:0:0:
190,325,242209,5,8,0:1:0:0:
177,326,242288,5,8,0:0:0:0:
166,327,242368,6,0,L|95:327,1,60,8|8,0:0|0:1,0:0:0:0:
0,293,242606,1,8,0:1:0:0:
41,354,242725,1,8,0:0:0:0:
120,259,242844,5,8,0:0:0:0:
5,219,243003,5,8,0:1:0:0:
10,97,243161,5,8,0:1:0:0:
100,27,243320,5,8,0:1:0:0:
175,68,243479,5,8,0:1:0:0:
161,140,243637,5,12,1:1:0:0:
161,140,244749,6,0,P|207:111|175:68,1,120,12|2,0:1|0:0,0:0:0:0:
97,113,245106,1,2,0:0:0:0:
96,183,245225,6,0,P|192:209|258:167,1,180.000006866455,8|2,0:0|0:0,0:0:0:0:
100,27,245582,1,2,0:0:0:0:
21,63,245701,6,0,P|13:182|100:267,1,240,8|2,0:1|0:0,0:0:0:0:
256,169,246058,1,2,0:0:0:0:
297,99,246177,2,0,P|239:88|191:120,2,120,8|2|8,0:0|0:0|0:1,0:0:0:0:
370,238,246653,6,0,P|395:286|346:307,1,120,8|2,0:1|0:0,0:0:0:0:
301,229,247010,1,2,0:0:0:0:
335,168,247129,6,0,P|431:193|467:262,1,180.000006866455,8|2,0:0|0:0,0:0:0:0:
260,305,247487,1,2,0:0:0:0:
210,234,247606,6,0,P|262:126|380:96,1,240,8|2,0:1|0:0,0:0:0:0:
466,260,247963,1,2,0:0:0:0:
467,341,248082,2,0,P|411:321|385:269,2,120,8|2|8,0:0|0:0|0:1,0:0:0:0:
273,185,248439,1,8,0:1:0:0:
266,184,248499,1,8,0:1:0:0:
260,182,248558,6,0,P|205:161|149:195,1,120,8|2,0:1|0:0,0:0:0:0:
119,254,248915,1,2,0:0:0:0:
70,196,249034,6,0,P|117:123|203:91,1,180.000006866455,8|2,0:0|0:0,0:0:0:0:
270,104,249391,1,2,0:0:0:0:
328,61,249510,6,0,P|221:23|95:54,1,240,8|2,0:1|0:0,0:0:0:0:
49,269,249868,1,2,0:0:0:0:
60,341,249987,2,0,P|109:310|118:253,2,120,8|2|8,0:0|0:0|0:1,0:0:0:0:
37,133,250463,6,0,P|67:125|98:129,1,60,8|2,0:1|0:0,0:0:0:0:
181,106,250701,5,2,0:0:0:0:
221,116,250820,1,2,0:0:0:0:
227,157,250939,2,0,P|256:165|299:223,1,90.0000034332277,8|0,0:0|0:0,0:0:0:0:
384,211,251177,5,8,0:1:0:0:
413,239,251296,1,8,0:1:0:0:
398,278,251415,2,0,P|419:299|414:392,1,120,8|0,0:1|0:0,0:0:0:0:
357,343,251653,5,8,0:0:0:0:
332,382,251772,1,8,0:1:0:0:
329,307,251891,5,8,0:0:0:0:
256,282,252010,1,8,0:1:0:0:
221,214,252129,1,8,0:1:0:0:
247,189,252249,5,8,0:1:0:0:
264,119,252368,6,0,P|274:69|218:67,1,120,12|2,0:1|0:0,0:0:0:0:
191,134,252725,1,2,0:0:0:0:
247,189,252844,6,0,P|327:153|343:55,1,180.000006866455,8|2,0:0|0:0,0:0:0:0:
114,61,253201,1,2,0:0:0:0:
89,143,253320,6,0,P|153:224|299:249,1,240,8|2,0:1|0:0,0:0:0:0:
428,189,253677,1,2,0:0:0:0:
512,193,253796,2,0,P|491:245|434:274,2,120,8|2|8,0:0|0:0|0:1,0:0:0:0:
418,36,254153,1,2,0:0:0:0:
393,12,254272,6,0,B|357:4|357:4|326:1|308:17,1,90.0000034332277,8|2,0:1|0:0,0:0:0:0:
259,116,254510,1,2,0:0:0:0:
279,128,254629,1,2,0:0:0:0:
292,171,254749,2,0,B|256:163|256:163|225:160|207:176,2,90.0000034332277,8|2|2,0:0|0:0|0:0,0:0:0:0:
178,287,255106,1,2,0:0:0:0:
191,330,255225,2,0,B|155:322|155:322|124:319|106:335,2,90.0000034332277,8|8|2,0:1|0:1|0:0,0:0:0:0:
69,146,255582,5,8,0:1:0:0:
22,237,255701,1,8,0:0:0:0:
0,168,255820,1,8,0:1:0:0:
91,215,255939,1,8,0:1:0:0:
180,113,256177,6,0,P|120:117|53:162,1,120,8|2,0:1|0:0,0:0:0:0:
170,37,256534,1,2,0:0:0:0:
143,33,256653,2,0,P|106:52|49:55,2,90.0000034332277,8|2|2,0:0|0:0|0:0,0:0:0:0:
326,274,257129,6,0,P|266:270|199:225,1,120,8|2,0:1|0:0,0:0:0:0:
315,349,257487,1,2,0:0:0:0:
288,353,257606,2,0,P|251:334|194:331,2,90.0000034332277,8|2|2,0:0|0:0|0:0,0:0:0:0:
398,166,258082,1,8,0:1:0:0:
383,124,258201,1,2,0:0:0:0:
409,89,258320,2,0,P|399:62|356:54,1,60,2|0,0:0|0:0,0:0:0:0:
482,105,258558,6,2,B|465:133|470:158|470:158|490:223|490:223|495:248|475:276,1,180.000006866455,12|2,0:1|0:0,0:0:0:0:
374,263,259034,5,8,0:0:0:0:
324,210,259153,1,8,0:1:0:0:
256,192,259272,1,8,0:1:0:0:
188,174,259391,1,8,0:1:0:0:
138,121,259510,5,8,0:0:0:0:
158,87,259629,1,8,0:1:0:0:
160,14,259749,5,8,0:0:0:0:
200,13,259868,1,8,0:1:0:0:
220,49,259987,6,0,P|277:58|340:41,2,120,12|2|8,0:1|0:0|0:0,0:0:0:0:
313,127,260582,1,2,0:0:0:0:
343,121,260701,6,0,P|384:102|418:69,1,90.0000034332277,2|0,0:0|0:0,0:0:0:0:
503,74,260939,6,0,P|431:162|313:200,1,240,8|2,0:1|0:0,0:0:0:0:
503,74,261415,2,0,P|472:125|411:176,1,120,8|0,0:0|0:0,0:0:0:0:
274,263,261653,1,2,0:0:0:0:
264,305,261772,1,2,0:0:0:0:
292,335,261891,6,0,P|235:326|172:343,2,120,8|2|8,0:1|0:0|0:0,0:0:0:0:
199,257,262487,1,2,0:0:0:0:
169,263,262606,6,0,P|128:282|94:315,1,90.0000034332277,2|0,0:0|0:0,0:0:0:0:
9,310,262844,6,0,P|80:221|198:183,1,240,8|2,0:1|0:0,0:0:0:0:
9,310,263320,2,0,P|40:259|101:208,1,120,8|0,0:0|0:0,0:0:0:0:
238,121,263558,1,2,0:0:0:0:
248,79,263677,1,2,0:0:0:0:
220,49,263796,1,8,0:1:0:0:
42,60,264034,5,2,0:0:0:0:
29,102,264153,1,2,0:0:0:0:
62,132,264272,2,0,P|90:143|130:135,1,60,8|2,0:0|0:0,0:0:0:0:
256,192,264510,1,2,0:0:0:0:
470,240,264749,5,8,0:1:0:0:
483,282,264868,1,2,0:0:0:0:
450,312,264987,2,0,P|422:323|382:315,1,60,2|2,0:0|0:0,0:0:0:0:
183,208,265225,2,0,P|180:178|194:147,1,60,8|2,0:0|0:0,0:0:0:0:
344,264,265463,5,2,0:0:0:0:
316,304,265582,1,2,0:0:0:0:
268,304,265701,2,0,P|230:328|183:336,1,90.0000034332277,8|2,0:1|0:0,0:0:0:0:
114,289,265939,2,0,P|70:279|31:251,1,90.0000034332277,8|2,0:1|0:0,0:0:0:0:
119,139,266177,6,0,P|125:81|101:19,1,120,8|2,0:0|0:0,0:0:0:0:
75,198,266653,5,8,0:1:0:0:
351,344,266891,1,8,0:1:0:0:
340,32,267129,1,8,0:0:0:0:
317,38,267249,1,8,0:1:0:0:
299,19,267368,1,8,0:1:0:0:
281,0,267487,1,8,0:1:0:0:
256,8,267606,6,0,P|225:39|209:84,1,90.0000034332277,8|2,0:1|0:0,0:0:0:0:
131,90,267844,1,2,0:0:0:0:
129,63,267963,1,2,0:0:0:0:
104,45,268082,2,0,P|92:87|101:134,1,90.0000034332277,8|2,0:0|0:0,0:0:0:0:
43,200,268320,1,2,0:0:0:0:
60,232,268439,1,2,0:0:0:0:
92,242,268558,2,0,P|80:284|49:320,1,90.0000034332277,8|2,0:1|0:0,0:0:0:0:
190,186,268796,2,0,P|201:228|192:275,1,90.0000034332277,8|2,0:1|0:0,0:0:0:0:
216,384,269034,6,2,B|238:372|238:372|278:310|278:310|300:299,2,120,12|2|2,0:1|0:0|0:0,0:0:0:0:
370,312,269510,6,0,P|376:269|339:242,2,90.0000034332277,12|2|2,0:1|0:0|0:0,0:0:0:0:
463,300,269868,1,2,0:0:0:0:
467,313,269987,2,0,P|461:356|498:383,1,90.0000034332277,8|2,0:0|0:0,0:0:0:0:
439,216,270225,1,2,0:0:0:0:
462,188,270344,1,2,0:0:0:0:
497,184,270463,2,0,P|512:143|488:106,1,90.0000034332277,8|2,0:1|0:0,0:0:0:0:
417,62,270701,2,0,P|409:18|370:-1,1,90.0000034332277,8|2,0:1|0:0,0:0:0:0:
296,82,270939,6,2,B|278:73|278:73|238:11|238:11|216:0,2,120,12|2|2,0:1|0:0|0:0,0:0:0:0:
258,176,271296,5,2,0:0:0:0:
240,191,271415,2,0,B|224:223|160:239|96:223|81:192,1,180.000006866455,8|2,0:1|0:0,0:0:0:0:
196,108,271772,1,2,0:0:0:0:
216,71,271891,2,0,P|211:117|181:151,1,90.0000034332277,12|2,0:0|0:0,0:0:0:0:
27,155,272129,5,2,0:0:0:0:
8,192,272249,1,2,0:0:0:0:
27,229,272368,2,0,B|49:264|88:283|129:288,1,120,8|2,0:1|0:0,0:0:0:0:
204,319,272725,1,2,0:0:0:0:
228,342,272844,2,0,P|256:350|286:343,1,60,8|0,0:0|0:0,0:0:0:0:
365,323,273082,1,8,0:0:0:0:
401,302,273201,1,8,0:1:0:0:
438,320,273320,5,12,0:1:0:0:
446,328,273439,1,8,0:1:0:0:
454,336,273558,1,8,0:1:0:0:
462,344,273677,1,8,0:1:0:0:
470,352,273796,5,8,0:0:0:0:
508,323,273915,1,8,0:1:0:0:
495,276,274034,1,8,0:1:0:0:
480,230,274153,1,8,0:1:0:0:
512,192,274272,5,8,0:1:0:0:
509,144,274391,1,8,0:1:0:0:
488,100,274510,1,8,0:1:0:0:
446,75,274629,1,8,0:1:0:0:
397,77,274749,5,8,0:0:0:0:
368,102,274868,1,8,0:1:0:0:
305,70,274987,5,8,0:0:0:0:
272,53,275106,1,8,0:1:0:0:
256,128,275225,6,0,L|280:254,1,120,12|2,0:1|0:0,0:0:0:0:
223,297,275582,1,2,0:0:0:0:
203,290,275701,6,0,L|183:184,1,90.0000034332277,8|2,0:0|0:0,0:0:0:0:
138,143,276058,1,2,0:0:0:0:
123,132,276177,6,0,L|110:65,2,60,8|2|8,0:1|0:0|0:0,0:0:0:0:
43,190,276891,5,2,0:0:0:0:
24,186,277010,1,2,0:0:0:0:
9,183,277129,2,0,L|33:309,1,120,8|2,0:1|0:0,0:0:0:0:
109,343,277487,1,2,0:0:0:0:
125,328,277606,6,0,L|108:239,1,90.0000034332277,8|2,0:0|0:0,0:0:0:0:
138,143,277963,1,2,0:0:0:0:
123,132,278082,6,0,L|110:65,2,60,8|2|8,0:1|0:0|0:0,0:0:0:0:
257,217,278796,5,2,0:0:0:0:
266,231,278915,2,0,L|293:225,1,15,2|2,0:0|0:0,0:0:0:0:
278,245,279034,2,0,L|416:218,1,120,8|2,0:1|0:0,0:0:0:0:
464,276,279391,1,2,0:0:0:0:
457,296,279510,6,0,L|362:316,1,90.0000034332277,8|2,0:0|0:0,0:0:0:0:
291,342,279868,1,2,0:0:0:0:
285,369,279987,6,0,L|225:379,2,60,8|2|8,0:1|0:0|0:0,0:0:0:0:
190,293,280701,1,2,0:0:0:0:
89,137,280939,5,8,0:1:0:0:
58,117,281058,1,2,0:0:0:0:
24,135,281177,2,0,P|29:164|53:191,1,60,2|2,0:0|0:0,0:0:0:0:
170,137,281415,5,8,0:0:0:0:
200,117,281534,1,2,0:0:0:0:
235,135,281653,2,0,P|230:164|206:191,1,60,2|2,0:0|0:0,0:0:0:0:
131,214,281891,5,12,0:1:0:0:
381,170,282129,5,8,0:1:0:0:
254,294,282368,5,8,0:0:0:0:
266,306,282487,1,8,0:1:0:0:
278,317,282606,1,8,0:1:0:0:
234,67,282844,6,0,P|272:25|331:41,1,120,12|2,0:1|0:0,0:0:0:0:
404,69,283201,1,2,0:0:0:0:
439,54,283320,6,0,P|458:92|439:137,1,90.0000034332277,8|2,0:0|0:0,0:0:0:0:
359,160,283677,1,2,0:0:0:0:
340,171,283796,6,0,P|310:173|282:157,2,60,8|2|8,0:1|0:0|0:0,0:0:0:0:
434,253,284510,5,2,0:0:0:0:
441,269,284629,1,2,0:0:0:0:
448,284,284749,2,0,P|406:309|336:304,1,120,8|2,0:1|0:0,0:0:0:0:
280,360,285106,1,2,0:0:0:0:
256,368,285225,2,0,P|227:372|192:363,2,60,8|2|2,0:0|0:0|0:0,0:0:0:0:
256,288,285701,5,8,0:1:0:0:
232,267,285820,1,8,0:1:0:0:
224,240,285939,1,8,0:1:0:0:
232,208,286058,1,8,0:1:0:0:
256,192,286177,5,12,1:0:0:0:
290,155,286296,1,8,0:1:0:0:
296,104,286415,1,8,0:1:0:0:
290,54,286534,1,8,0:1:0:0:
256,16,286653,6,0,P|227:8|192:12,1,60,12|2,0:1|0:0,0:0:0:0:
162,148,286891,2,0,P|183:126|197:94,1,60,2|2,0:0|0:0,0:0:0:0:
94,0,287129,1,8,0:0:0:0:
103,111,287368,6,0,P|93:138|106:189,1,60,8|2,0:1|0:0,0:0:0:0:
167,286,287606,2,0,P|159:258|118:224,1,60,8|2,0:1|0:0,0:0:0:0:
12,182,287844,2,0,P|34:199|87:203,1,60,2|2,0:0|0:0,0:0:0:0:
198,175,288082,2,0,P|169:173|124:201,1,60,8|2,0:0|0:0,0:0:0:0:
51,289,288320,1,2,0:0:0:0:
175,375,288558,5,8,0:1:0:0:
210,369,288677,1,8,0:1:0:0:
236,344,288796,2,0,P|236:318|211:289,1,60,8|0,0:1|0:0,0:0:0:0:
270,234,289034,1,12,0:0:0:0:
296,209,289153,1,8,0:1:0:0:
331,203,289272,2,0,P|357:203|386:178,1,60,8|0,0:1|0:0,0:0:0:0:
418,268,289510,5,8,0:0:0:0:
463,284,289629,1,8,0:1:0:0:
482,328,289749,1,8,0:1:0:0:
452,290,289868,1,8,0:1:0:0:
460,242,289987,5,8,0:0:0:0:
474,219,290106,1,8,0:1:0:0:
446,156,290225,5,12,0:0:0:0:
442,127,290344,1,8,0:1:0:0:
496,88,290463,6,0,P|464:42|387:31,1,120,12|2,0:1|0:0,0:0:0:0:
361,82,290820,1,2,0:0:0:0:
338,93,290939,6,0,P|320:108|310:144,2,45.0000017166138,8|2|2,0:0|0:0|0:0,0:0:0:0:
301,24,291415,6,0,P|271:17|227:31,1,60,8|2,0:1|0:0,0:0:0:0:
160,44,291772,1,2,0:0:0:0:
156,70,291891,2,0,P|153:92|169:123,1,45.0000017166138,8|0,0:0|0:0,0:0:0:0:
226,157,292129,5,2,0:0:0:0:
235,180,292249,1,2,0:0:0:0:
256,192,292368,6,0,P|224:238|147:249,1,120,8|2,0:1|0:0,0:0:0:0:
121,198,292725,1,2,0:0:0:0:
98,187,292844,6,0,P|80:172|70:136,2,45.0000017166138,8|2|2,0:0|0:0|0:0,0:0:0:0:
90,298,293320,6,0,P|108:321|137:335,1,60,8|2,0:1|0:0,0:0:0:0:
232,358,293677,1,2,0:0:0:0:
253,343,293796,2,0,P|266:323|272:291,1,45.0000017166138,8|0,0:0|0:0,0:0:0:0:
286,227,294034,5,2,0:0:0:0:
277,204,294153,1,2,0:0:0:0:
256,192,294272,1,8,0:1:0:0:
107,124,294510,5,2,0:0:0:0:
78,114,294629,1,2,0:0:0:0:
65,86,294749,2,0,P|68:54|92:27,1,60,8|0,0:0|0:0,0:0:0:0:
15,192,294987,1,8,0:1:0:0:
107,260,295225,5,8,0:1:0:0:
78,270,295344,1,2,0:0:0:0:
65,298,295463,2,0,P|68:330|92:357,1,60,2|0,0:0|0:0,0:0:0:0:
176,192,295701,1,8,0:0:0:0:
181,183,295820,1,2,0:0:0:0:
185,175,295939,1,2,0:0:0:0:
211,69,296177,6,0,P|256:64|302:70,1,90.0000034332277,8|2,0:1|0:0,0:0:0:0:
390,111,296653,1,8,0:0:0:0:
409,119,296772,2,0,P|425:122|455:124,1,45.0000017166138,2|2,0:0|0:0,0:0:0:0:
368,192,297129,5,8,0:1:0:0:
200,288,297368,1,8,0:1:0:0:
234,278,297487,1,8,0:1:0:0:
258,258,297606,1,8,0:0:0:0:
266,221,297725,1,8,0:1:0:0:
256,192,297844,2,0,P|245:172|202:163,1,45.0000017166138,8|0,0:1|0:0,0:0:0:0:
200,95,298082,6,0,P|163:90|124:94,2,75,12|2|2,0:1|0:0|0:0,0:0:0:0:
159,188,298439,1,2,0:0:0:0:
140,194,298558,2,0,P|103:199|65:191,1,75,8|2,0:0|0:0,0:0:0:0:
29,103,298796,1,2,0:0:0:0:
22,279,299034,6,0,P|25:315|-7:355,1,75,8|2,0:1|0:0,0:0:0:0:
128,317,299272,2,0,P|149:348|150:391,1,75,8|2,0:1|0:0,0:0:0:0:
241,345,299510,6,2,L|271:259,2,90.0000034332277,12|2|2,0:1|0:0|0:0,0:0:0:0:
362,193,299987,6,0,P|373:158|361:120,2,75,8|2|2,0:1|0:0|0:0,0:0:0:0:
403,293,300344,1,2,0:0:0:0:
428,302,300463,2,0,P|464:308|503:297,1,75,8|2,0:0|0:0,0:0:0:0:
477,193,300701,5,2,0:0:0:0:
500,168,300820,1,2,0:0:0:0:
480,128,300939,2,0,P|457:99|457:62,1,75,8|2,0:1|0:0,0:0:0:0:
358,71,301177,2,0,P|352:35|368:-6,1,75,8|2,0:1|0:0,0:0:0:0:
271,39,301415,6,2,L|241:125,2,90.0000034332277,12|2|2,0:1|0:0|0:0,0:0:0:0:
302,154,301772,1,2,0:0:0:0:
292,188,301891,6,0,B|292:209|264:244|217:256|200:248,1,120,8|2,0:1|0:0,0:0:0:0:
92,182,302249,1,2,0:0:0:0:
63,192,302368,2,0,P|48:224|67:275,1,75,8|2,0:0|0:0,0:0:0:0:
160,192,302606,5,8,0:1:0:0:
182,163,302725,1,8,0:1:0:0:
167,133,302844,5,8,0:1:0:0:
159,90,302963,1,8,0:1:0:0:
179,52,303082,1,8,0:1:0:0:
213,29,303201,1,8,0:1:0:0:
256,24,303320,5,8,0:0:0:0:
301,40,303439,1,8,0:1:0:0:
339,102,303558,5,8,0:0:0:0:
384,118,303677,1,8,0:1:0:0:
452,96,303796,5,8,0:0:0:0:
491,157,303915,2,0,L|475:256,1,90.0000034332277,8|0,0:1|0:0,0:0:0:0:
393,298,304153,2,0,L|407:209,1,90.0000034332277,8|0,0:1|0:0,0:0:0:0:
337,171,304391,2,0,L|319:269,1,90.0000034332277,8|2,0:0|0:0,0:0:0:0:
309,267,304590,5,2,0:0:0:0:
299,274,304669,6,0,L|288:335,1,60.0000022888184,2|2,0:0|0:0,0:0:0:0:
188,280,304868,6,0,L|77:266,1,105.000001001358,8|0,0:1|0:0,0:0:0:0:
16,180,305106,2,0,L|120:193,1,105.000001001358,8|0,0:1|0:0,0:0:0:0:
157,120,305344,2,0,L|52:106,1,105.000001001358,8|0,0:1|0:0,0:0:0:0:
0,0,305582,5,12,1:1:0:0:
256,192,305701,12,8,307606,0:1:0:0:
