osu file format v14

[General]
AudioFilename: audio.mp3
AudioLeadIn: 0
PreviewTime: 141100
Countdown: 0
SampleSet: Drum
StackLeniency: 0.7
Mode: 3
LetterboxInBreaks: 0
SpecialStyle: 0
WidescreenStoryboard: 0

[Editor]
DistanceSpacing: 0.1
BeatDivisor: 4
GridSize: 32
TimelineZoom: 1.7

[Metadata]
Title:Cynical Night Plan
TitleUnicode:シニカルナイトプラン
Artist:Melissa Kinrenka
ArtistUnicode:メリッサ・キンレンカ
Creator:Xinhong1003
Version:Cynical
Source:
Tags:Ayase 初音ミク Hatsune Miku vocaloid Vtuber virtual youtuber バーチャルyoutuber 2434 Nijisanji にじさんじ japanese pop jpop j pop j-pop cover anycolor Ilham
BeatmapID:3869026
BeatmapSetID:1879379

[Difficulty]
HPDrainRate:7.5
CircleSize:4
OverallDifficulty:7.3
ApproachRate:5
SliderMultiplier:1.4
SliderTickRate:1

[Events]
//Background and Video events
0,0,"tumblr_8dc452d7e9c0b4a2fdd8ba36ebafb443_0c65217f_1280.jpg",0,0
//Break Periods
//Storyboard Layer 0 (Background)
//Storyboard Layer 1 (Fail)
//Storyboard Layer 2 (Pass)
//Storyboard Layer 3 (Foreground)
//Storyboard Layer 4 (Overlay)
//Storyboard Sound Samples

[TimingPoints]
1100,500,4,3,1,50,1,0
59100,-100,4,3,1,50,0,1
75100,-100,4,3,1,50,0,0
143100,-100,4,3,1,50,0,1
158350,-100,4,3,1,50,0,0
159100,-100,4,3,1,50,0,1
175100,-100,4,3,1,50,0,0

[HitObjects]
320,192,850,128,0,975:0:0:0:0:
192,192,975,128,0,1100:0:0:0:0:
64,192,1100,128,0,1475:0:0:0:0:
448,192,1100,128,0,1350:0:0:0:0:
320,192,1350,128,0,1600:0:0:0:0:
192,192,1475,1,0,0:0:0:0:
448,192,1600,128,0,1850:0:0:0:0:
64,192,1725,1,0,0:0:0:0:
192,192,1850,128,0,2100:0:0:0:0:
320,192,1850,1,0,0:0:0:0:
320,192,2100,128,0,2350:0:0:0:0:
448,192,2350,128,0,2475:0:0:0:0:
192,192,2350,128,0,2475:0:0:0:0:
64,192,2475,128,0,2725:0:0:0:0:
448,192,2725,128,0,2850:0:0:0:0:
192,192,2725,1,0,0:0:0:0:
320,192,2850,128,0,2975:0:0:0:0:
192,192,2975,128,0,3100:0:0:0:0:
64,192,3100,128,0,3475:0:0:0:0:
320,192,3100,128,0,3350:0:0:0:0:
448,192,3350,128,0,3600:0:0:0:0:
192,192,3475,1,0,0:0:0:0:
320,192,3600,128,0,3850:0:0:0:0:
64,192,3850,128,0,4100:0:0:0:0:
448,192,3850,128,0,3975:0:0:0:0:
192,192,4100,128,0,4350:0:0:0:0:
320,192,4350,128,0,4475:0:0:0:0:
64,192,4350,128,0,4600:0:0:0:0:
320,192,4600,128,0,4850:0:0:0:0:
448,192,4600,1,0,0:0:0:0:
192,192,4725,128,0,4850:0:0:0:0:
64,192,4725,1,0,0:0:0:0:
448,192,4850,128,0,5100:0:0:0:0:
64,192,5100,128,0,5600:0:0:0:0:
192,192,5100,128,0,5350:0:0:0:0:
448,192,5475,1,0,0:0:0:0:
320,192,5600,128,0,5850:0:0:0:0:
448,192,5850,128,0,5975:0:0:0:0:
192,192,5850,128,0,6100:0:0:0:0:
320,192,6100,128,0,6600:0:0:0:0:
64,192,6100,128,0,6350:0:0:0:0:
192,192,6350,128,0,6600:0:0:0:0:
64,192,6600,128,0,6725:0:0:0:0:
448,192,6600,128,0,6850:0:0:0:0:
192,192,6850,128,0,7100:0:0:0:0:
64,192,6850,128,0,7350:0:0:0:0:
320,192,6850,1,0,0:0:0:0:
448,192,7100,128,0,7225:0:0:0:0:
320,192,7350,128,0,7475:0:0:0:0:
448,192,7475,1,0,0:0:0:0:
192,192,7600,1,0,0:0:0:0:
320,192,7683,1,0,0:0:0:0:
448,192,7766,1,0,0:0:0:0:
64,192,7850,1,8,0:0:0:0:
192,192,7933,1,8,0:0:0:0:
320,192,8016,1,8,0:0:0:0:
448,192,8100,1,0,0:0:0:70:LR_J Hit.wav
64,192,8225,1,0,0:0:0:70:LR_J Hit.wav
320,192,8350,1,0,0:0:0:70:LR_J Hit.wav
192,192,8412,1,0,0:0:0:70:LR_J Hit.wav
64,192,8475,1,0,0:0:0:70:LR_J Hit.wav
448,192,8600,128,0,8850:0:0:0:70:LR_J Hit.wav
320,192,8850,1,8,0:0:0:0:
64,192,9100,128,0,9225:0:0:0:70:LR_J Hit.wav
448,192,9100,1,4,0:0:0:0:
320,192,9225,1,0,0:0:0:0:
192,192,9350,128,0,9475:0:0:0:0:
448,192,9475,1,0,0:0:0:0:
192,192,9600,128,8,9725:0:0:0:0:
64,192,9600,1,0,0:0:0:0:
320,192,9850,1,0,0:0:0:0:
192,192,9975,1,0,0:0:0:0:
448,192,10100,128,0,10225:0:0:0:70:kick.wav
64,192,10100,1,0,0:0:0:0:
192,192,10350,1,0,0:0:0:0:
320,192,10475,128,0,10600:0:0:0:0:
64,192,10600,1,8,0:0:0:0:
448,192,10600,1,0,0:0:0:0:
320,192,10725,128,0,10850:0:0:0:0:
192,192,10850,1,0,0:0:0:0:
320,192,10975,128,0,11100:0:0:0:0:
64,192,11100,128,0,11225:0:0:0:70:kick.wav
448,192,11225,1,0,0:0:0:0:
192,192,11350,128,0,11475:0:0:0:0:
320,192,11475,1,0,0:0:0:0:
192,192,11600,128,8,11725:0:0:0:0:
448,192,11600,1,0,0:0:0:0:
64,192,11850,1,0,0:0:0:0:
320,192,11975,1,0,0:0:0:0:
448,192,12100,128,0,12225:0:0:0:70:kick.wav
192,192,12100,1,0,0:0:0:0:
320,192,12350,1,0,0:0:0:0:
192,192,12475,128,0,12600:0:0:0:0:
64,192,12600,1,8,0:0:0:0:
448,192,12600,1,0,0:0:0:0:
320,192,12725,128,0,12850:0:0:0:0:
192,192,12850,128,0,12975:0:0:0:0:
320,192,12975,128,0,13100:0:0:0:0:
64,192,13100,128,0,13225:0:0:0:70:kick.wav
448,192,13225,1,0,0:0:0:0:
192,192,13350,128,0,13475:0:0:0:0:
320,192,13475,1,0,0:0:0:0:
192,192,13600,128,8,13725:0:0:0:0:
448,192,13600,1,0,0:0:0:0:
320,192,13850,1,0,0:0:0:0:
192,192,13975,1,0,0:0:0:0:
448,192,14100,128,0,14225:0:0:0:70:kick.wav
64,192,14100,1,0,0:0:0:0:
192,192,14350,1,0,0:0:0:0:
320,192,14475,128,0,14600:0:0:0:0:
64,192,14600,1,8,0:0:0:0:
448,192,14600,1,0,0:0:0:0:
320,192,14725,128,0,14850:0:0:0:0:
192,192,14850,1,0,0:0:0:0:
320,192,14975,128,0,15100:0:0:0:0:
64,192,15100,128,0,15225:0:0:0:70:kick.wav
448,192,15225,1,0,0:0:0:0:
192,192,15350,128,0,15475:0:0:0:0:
320,192,15475,1,0,0:0:0:0:
192,192,15600,128,8,15725:0:0:0:0:
448,192,15600,1,0,0:0:0:0:
64,192,15725,1,0,0:0:0:0:
320,192,15849,1,0,0:0:0:0:
192,192,15975,1,0,0:0:0:0:
448,192,16100,128,0,16225:0:0:0:70:kick.wav
64,192,16100,1,0,0:0:0:0:
320,192,16350,1,0,0:0:0:0:
192,192,16475,128,0,16600:0:0:0:0:
448,192,16600,1,8,0:0:0:0:
320,192,16600,1,0,0:0:0:0:
192,192,16725,128,0,16850:0:0:0:70:LR_J Hit.wav
64,192,16725,1,0,0:0:0:0:
320,192,16850,128,0,16975:0:0:0:70:LR_J Hit.wav
448,192,16850,1,0,0:0:0:0:
192,192,16975,128,0,17100:0:0:0:70:LR_J Hit.wav
448,192,17100,128,0,17225:0:0:0:70:kick.wav
64,192,17225,1,0,0:0:0:0:
320,192,17350,128,0,17475:0:0:0:0:
192,192,17475,1,0,0:0:0:0:
320,192,17600,128,8,17725:0:0:0:0:
64,192,17600,1,0,0:0:0:0:
192,192,17850,1,0,0:0:0:0:
320,192,17975,1,0,0:0:0:0:
64,192,18100,128,0,18225:0:0:0:70:kick.wav
448,192,18100,1,0,0:0:0:0:
320,192,18350,1,0,0:0:0:0:
192,192,18475,128,0,18600:0:0:0:0:
448,192,18600,1,8,0:0:0:0:
64,192,18600,1,0,0:0:0:0:
192,192,18725,128,0,18850:0:0:0:0:
320,192,18850,1,0,0:0:0:0:
192,192,18975,128,0,19100:0:0:0:0:
448,192,19100,128,0,19225:0:0:0:70:kick.wav
64,192,19225,1,0,0:0:0:0:
320,192,19350,128,0,19475:0:0:0:0:
192,192,19475,1,0,0:0:0:0:
320,192,19600,128,8,19725:0:0:0:0:
448,192,19600,1,0,0:0:0:0:
192,192,19850,1,0,0:0:0:0:
448,192,19975,1,0,0:0:0:0:
64,192,20100,128,0,20225:0:0:0:70:kick.wav
320,192,20100,1,0,0:0:0:0:
192,192,20350,1,0,0:0:0:0:
320,192,20475,128,0,20600:0:0:0:0:
64,192,20600,1,8,0:0:0:0:
448,192,20600,1,0,0:0:0:0:
192,192,20725,128,0,20850:0:0:0:0:
320,192,20850,128,0,20975:0:0:0:0:
192,192,20975,128,0,21100:0:0:0:0:
448,192,21100,128,0,21225:0:0:0:70:kick.wav
64,192,21225,1,0,0:0:0:0:
320,192,21350,128,0,21475:0:0:0:0:
192,192,21475,1,0,0:0:0:0:
320,192,21600,128,8,21725:0:0:0:0:
64,192,21600,1,0,0:0:0:0:
192,192,21850,1,0,0:0:0:0:
320,192,21975,1,0,0:0:0:0:
64,192,22100,128,0,22225:0:0:0:70:kick.wav
448,192,22100,1,0,0:0:0:0:
320,192,22350,1,0,0:0:0:0:
192,192,22475,128,0,22600:0:0:0:0:
448,192,22600,1,8,0:0:0:0:
64,192,22600,1,0,0:0:0:0:
192,192,22725,128,0,22850:0:0:0:0:
320,192,22850,1,0,0:0:0:0:
192,192,22975,128,0,23100:0:0:0:0:
448,192,23100,128,0,23225:0:0:0:70:kick.wav
64,192,23225,1,0,0:0:0:0:
320,192,23350,128,0,23475:0:0:0:0:
192,192,23475,1,0,0:0:0:0:
320,192,23600,128,8,23725:0:0:0:0:
448,192,23600,1,0,0:0:0:0:
64,192,23725,1,0,0:0:0:0:
192,192,23850,1,0,0:0:0:0:
448,192,23975,1,0,0:0:0:0:
64,192,24100,128,0,24225:0:0:0:70:kick.wav
320,192,24100,1,0,0:0:0:0:
448,192,24350,1,0,0:0:0:0:
320,192,24475,128,0,24600:0:0:0:0:
64,192,24600,1,8,0:0:0:0:
192,192,24600,1,0,0:0:0:0:
320,192,24725,128,0,24850:0:0:0:70:LR_J Hit.wav
448,192,24725,1,0,0:0:0:0:
192,192,24850,128,0,24975:0:0:0:70:LR_J Hit.wav
64,192,24850,1,0,0:0:0:0:
320,192,24975,128,0,25100:0:0:0:70:LR_J Hit.wav
448,192,25100,1,4,0:0:0:0:
64,192,25100,1,0,0:0:0:70:kick.wav
192,192,25100,1,0,0:0:0:0:
448,192,25350,128,0,25600:0:0:0:0:
192,192,25600,128,8,25850:0:0:0:0:
64,192,25600,1,0,0:0:0:0:
320,192,25725,1,0,0:0:0:0:
448,192,25850,128,0,26100:0:0:0:0:
64,192,25850,1,0,0:0:0:0:
64,192,26100,128,0,26350:0:0:0:70:kick.wav
320,192,26100,1,0,0:0:0:0:
192,192,26350,128,0,26600:0:0:0:0:
448,192,26350,1,0,0:0:0:0:
320,192,26600,128,8,26850:0:0:0:0:
64,192,26600,1,0,0:0:0:0:
448,192,26725,1,0,0:0:0:0:
192,192,26850,128,0,26975:0:0:0:0:
64,192,26975,1,0,0:0:0:0:
192,192,27100,128,0,27350:0:0:0:70:kick.wav
320,192,27100,1,0,0:0:0:0:
448,192,27100,1,0,0:0:0:0:
64,192,27350,128,0,27475:0:0:0:0:
448,192,27475,128,0,27725:0:0:0:0:
320,192,27600,1,8,0:0:0:0:
64,192,27725,128,0,27975:0:0:0:0:
192,192,27850,1,0,0:0:0:0:
320,192,27975,128,0,28350:0:0:0:0:
448,192,28100,1,0,0:0:0:70:kick.wav
448,192,28350,128,0,28600:0:0:0:0:
64,192,28350,1,0,0:0:0:0:
64,192,28600,128,8,28850:0:0:0:0:
192,192,28600,1,0,0:0:0:0:
320,192,28725,1,0,0:0:0:0:
448,192,28850,128,0,29100:0:0:0:0:
320,192,29100,128,0,29350:0:0:0:70:kick.wav
192,192,29100,1,0,0:0:0:0:
64,192,29100,1,0,0:0:0:0:
192,192,29350,128,0,29475:0:0:0:0:
64,192,29475,128,0,29725:0:0:0:0:
448,192,29600,1,8,0:0:0:0:
192,192,29725,128,0,29975:0:0:0:0:
320,192,29850,1,0,0:0:0:0:
448,192,29975,128,0,30350:0:0:0:0:
64,192,30100,1,0,0:0:0:70:kick.wav
192,192,30100,1,0,0:0:0:0:
320,192,30350,128,0,30600:0:0:0:0:
448,192,30600,128,8,30850:0:0:0:0:
64,192,30600,1,0,0:0:0:0:
192,192,30850,128,0,31100:0:0:0:0:
320,192,30850,1,0,0:0:0:0:
448,192,31100,128,0,31350:0:0:0:70:kick.wav
64,192,31100,1,0,0:0:0:0:
64,192,31350,128,0,31475:0:0:0:0:
192,192,31475,128,0,31725:0:0:0:0:
448,192,31600,1,8,0:0:0:0:
320,192,31600,1,0,0:0:0:0:
64,192,31725,128,0,31975:0:0:0:0:
320,192,31849,1,0,0:0:0:0:
448,192,31849,1,0,0:0:0:0:
192,192,31975,128,0,32350:0:0:0:0:
448,192,32099,1,0,0:0:0:70:kick.wav
320,192,32349,128,0,32600:0:0:0:0:
64,192,32600,128,8,32850:0:0:0:0:
448,192,32600,1,0,0:0:0:0:
320,192,32850,128,0,33100:0:0:0:0:
448,192,33100,1,0,0:0:0:70:kick.wav
64,192,33100,1,0,0:0:0:0:
192,192,33100,1,0,0:0:0:0:
448,192,33350,128,0,33600:0:0:0:0:
320,192,33600,128,8,33850:0:0:0:0:
64,192,33600,1,0,0:0:0:0:
192,192,33850,128,0,34100:0:0:0:0:
448,192,33850,1,0,0:0:0:0:
448,192,34100,128,0,34350:0:0:0:70:kick.wav
64,192,34100,1,0,0:0:0:0:
320,192,34350,128,0,34600:0:0:0:0:
192,192,34350,1,0,0:0:0:0:
192,192,34600,128,8,34850:0:0:0:0:
448,192,34600,1,0,0:0:0:0:
64,192,34725,1,0,0:0:0:0:
320,192,34850,128,0,34975:0:0:0:0:
448,192,34975,1,0,0:0:0:0:
320,192,35100,128,0,35350:0:0:0:70:kick.wav
192,192,35100,1,0,0:0:0:0:
64,192,35100,1,0,0:0:0:0:
448,192,35350,128,0,35475:0:0:0:0:
192,192,35475,128,0,35725:0:0:0:0:
64,192,35600,1,8,0:0:0:0:
320,192,35725,128,0,35975:0:0:0:0:
448,192,35850,1,0,0:0:0:0:
192,192,35975,128,0,36350:0:0:0:0:
320,192,36100,1,0,0:0:0:70:kick.wav
64,192,36350,128,0,36600:0:0:0:0:
448,192,36350,1,0,0:0:0:0:
192,192,36600,128,8,36850:0:0:0:0:
320,192,36600,1,0,0:0:0:0:
64,192,36725,1,0,0:0:0:0:
448,192,36850,128,0,37100:0:0:0:0:
192,192,37100,128,0,37350:0:0:0:70:kick.wav
64,192,37100,1,0,0:0:0:0:
320,192,37100,1,0,0:0:0:0:
448,192,37350,128,0,37475:0:0:0:0:
320,192,37475,128,0,37725:0:0:0:0:
192,192,37600,1,8,0:0:0:0:
64,192,37725,128,0,37975:0:0:0:0:
448,192,37850,1,0,0:0:0:0:
192,192,37975,128,0,38350:0:0:0:0:
320,192,38100,1,0,0:0:0:70:kick.wav
448,192,38100,1,0,0:0:0:0:
320,192,38350,128,0,38475:0:0:0:0:
448,192,38475,128,0,38600:0:0:0:0:
64,192,38600,128,8,38850:0:0:0:0:
192,192,38600,1,0,0:0:0:0:
320,192,38850,128,0,39100:0:0:0:0:
448,192,38850,1,0,0:0:0:0:
192,192,39100,128,0,39350:0:0:0:70:kick.wav
64,192,39100,1,0,0:0:0:0:
320,192,39350,128,0,39475:0:0:0:0:
448,192,39475,128,0,39725:0:0:0:0:
192,192,39600,1,8,0:0:0:0:
64,192,39600,1,0,0:0:0:0:
320,192,39725,128,0,39975:0:0:0:0:
192,192,39850,1,0,0:0:0:0:
64,192,39850,1,0,0:0:0:0:
448,192,39975,128,0,40350:0:0:0:0:
64,192,40100,1,0,0:0:0:70:kick.wav
320,192,40350,128,0,40600:0:0:0:0:
448,192,40600,128,8,40850:0:0:0:0:
64,192,40600,1,0,0:0:0:0:
192,192,40850,128,0,41100:0:0:0:0:
64,192,41100,1,4,0:0:0:0:
448,192,41100,128,0,41350:0:0:0:70:kick.wav
320,192,41100,1,0,0:0:0:0:
192,192,41350,128,0,41475:0:0:0:0:
320,192,41350,1,0,0:0:0:0:
64,192,41475,128,0,41600:0:0:0:0:
320,192,41600,128,8,41850:0:0:0:0:
448,192,41600,1,0,0:0:0:0:
192,192,41725,1,0,0:0:0:0:
448,192,41850,128,0,41975:0:0:0:0:
64,192,41850,1,0,0:0:0:0:
320,192,41975,128,0,42100:0:0:0:0:
64,192,42100,128,0,42350:0:0:0:70:kick.wav
192,192,42100,1,0,0:0:0:0:
320,192,42350,128,0,42475:0:0:0:0:
448,192,42350,1,0,0:0:0:0:
192,192,42475,128,0,42725:0:0:0:0:
64,192,42600,1,8,0:0:0:0:
320,192,42725,128,0,42850:0:0:0:0:
448,192,42725,1,0,0:0:0:0:
320,192,42975,128,0,43350:0:0:0:0:
64,192,42975,1,0,0:0:0:0:
192,192,43100,1,0,0:0:0:70:kick.wav
448,192,43100,1,0,0:0:0:0:
64,192,43350,128,0,43600:0:0:0:0:
192,192,43600,128,8,43850:0:0:0:0:
448,192,43600,1,0,0:0:0:0:
320,192,43850,128,0,44100:0:0:0:0:
64,192,43850,1,0,0:0:0:0:
448,192,44100,128,0,44600:0:0:0:70:kick.wav
192,192,44100,1,0,0:0:0:0:
320,192,44350,1,0,0:0:0:0:
64,192,44600,128,8,44850:0:0:0:0:
192,192,44600,1,0,0:0:0:0:
320,192,44725,1,0,0:0:0:0:
448,192,44850,128,0,45100:0:0:0:0:
320,192,45100,128,0,45350:0:0:0:70:kick.wav
192,192,45100,1,0,0:0:0:0:
64,192,45100,1,0,0:0:0:0:
448,192,45350,128,0,45600:0:0:0:0:
192,192,45600,128,8,45850:0:0:0:0:
64,192,45600,1,0,0:0:0:0:
64,192,45850,128,0,46100:0:0:0:0:
320,192,45850,1,0,0:0:0:0:
192,192,46100,128,0,46350:0:0:0:70:kick.wav
448,192,46100,1,0,0:0:0:0:
320,192,46350,128,0,46600:0:0:0:0:
448,192,46600,128,8,46850:0:0:0:0:
192,192,46600,1,0,0:0:0:0:
64,192,46850,128,0,47100:0:0:0:0:
320,192,46850,1,0,0:0:0:0:
192,192,47100,128,0,47350:0:0:0:70:kick.wav
448,192,47100,1,0,0:0:0:0:
320,192,47350,128,0,47600:0:0:0:0:
448,192,47600,128,8,47850:0:0:0:0:
192,192,47600,1,0,0:0:0:0:
64,192,47850,128,0,48350:0:0:0:0:
320,192,47850,1,0,0:0:0:0:
192,192,48100,1,0,0:0:0:70:kick.wav
448,192,48350,128,0,48600:0:0:0:0:
320,192,48600,128,8,48850:0:0:0:0:
64,192,48600,1,0,0:0:0:0:
192,192,48850,128,0,49100:0:0:0:0:
448,192,49100,1,0,0:0:0:70:kick.wav
64,192,49100,128,0,49350:0:0:0:0:
320,192,49100,1,0,0:0:0:0:
320,192,49350,128,0,49600:0:0:0:0:
192,192,49350,1,0,0:0:0:0:
448,192,49475,1,0,0:0:0:0:
64,192,49600,128,8,49850:0:0:0:0:
192,192,49600,1,0,0:0:0:0:
448,192,49850,1,0,0:0:0:0:
320,192,49850,128,0,49975:0:0:0:0:
192,192,49975,128,0,50100:0:0:0:0:
448,192,50100,128,0,50350:0:0:0:70:kick.wav
64,192,50100,1,0,0:0:0:0:
320,192,50350,128,0,50475:0:0:0:0:
192,192,50350,1,0,0:0:0:0:
64,192,50475,128,0,50725:0:0:0:0:
448,192,50600,1,8,0:0:0:0:
320,192,50725,1,0,0:0:0:0:
192,192,50725,128,0,50975:0:0:0:0:
448,192,50975,128,0,51350:0:0:0:0:
64,192,50975,1,0,0:0:0:0:
320,192,51100,1,0,0:0:0:70:kick.wav
192,192,51100,1,0,0:0:0:0:
192,192,51350,128,0,51600:0:0:0:0:
320,192,51600,128,8,51850:0:0:0:0:
448,192,51600,1,0,0:0:0:0:
64,192,51850,128,0,52100:0:0:0:0:
192,192,51850,1,0,0:0:0:0:
320,192,52100,128,0,52350:0:0:0:70:kick.wav
448,192,52100,1,0,0:0:0:0:
192,192,52350,1,0,0:0:0:0:
64,192,52350,128,0,52600:0:0:0:0:
448,192,52600,128,8,52850:0:0:0:0:
320,192,52600,1,0,0:0:0:0:
192,192,52725,1,0,0:0:0:0:
64,192,52850,128,0,52975:0:0:0:0:
320,192,52975,1,0,0:0:0:0:
64,192,53100,128,0,53350:0:0:0:70:kick.wav
448,192,53100,1,0,0:0:0:0:
192,192,53100,1,0,0:0:0:0:
320,192,53350,128,0,53600:0:0:0:0:
192,192,53600,128,8,53850:0:0:0:0:
64,192,53600,1,0,0:0:0:0:
448,192,53850,128,0,54100:0:0:0:0:
320,192,53850,1,0,0:0:0:0:
192,192,54100,1,0,0:0:0:70:kick.wav
64,192,54100,128,0,54350:0:0:0:0:
448,192,54350,128,0,54600:0:0:0:0:
320,192,54600,128,8,54850:0:0:0:0:
192,192,54600,1,0,0:0:0:0:
64,192,54850,128,0,55100:0:0:0:0:
448,192,54850,1,0,0:0:0:0:
448,192,55100,128,0,55350:0:0:0:70:kick.wav
192,192,55100,1,0,0:0:0:0:
320,192,55350,128,0,55600:0:0:0:0:
192,192,55600,128,8,55850:0:0:0:0:
448,192,55600,1,0,0:0:0:0:
64,192,55850,128,0,56100:0:0:0:0:
320,192,55850,1,0,0:0:0:0:
448,192,56100,128,0,56350:0:0:0:70:kick.wav
192,192,56100,1,0,0:0:0:0:
192,192,56350,128,0,56600:0:0:0:0:
320,192,56600,128,8,57100:0:0:0:0:
64,192,56600,1,0,0:0:0:0:
448,192,56850,1,0,0:0:0:0:
64,192,57100,1,8,0:0:0:0:
192,192,57100,1,0,0:0:0:0:
64,192,57350,1,8,0:0:0:0:
192,192,57350,1,0,0:0:0:0:
448,192,57600,128,0,57850:0:0:0:70:LR_J Hit.wav
320,192,57850,1,8,0:0:0:0:
448,192,57975,128,0,58100:0:0:0:70:LR_J Hit.wav
64,192,58100,1,8,0:0:0:0:
192,192,58100,1,0,0:0:0:0:
448,192,58225,128,0,58350:0:0:0:70:LR_J Hit.wav
320,192,58350,128,0,58600:0:0:0:0:
192,192,58350,128,0,58475:0:0:0:0:
64,192,58600,128,0,58975:0:0:0:0:
448,192,58600,128,0,58725:0:0:0:0:
320,192,58850,128,0,58975:0:0:0:0:
192,192,58850,128,0,58975:0:0:0:0:
448,192,59100,128,0,59225:0:0:0:70:LR_J Hit.wav
192,192,59100,1,4,0:0:0:0:
64,192,59100,1,0,0:0:0:70:kick.wav
320,192,59225,1,0,0:0:0:0:
448,192,59350,128,0,59600:0:0:0:0:
192,192,59350,1,0,0:0:0:0:
64,192,59475,1,0,0:0:0:0:
320,192,59600,1,8,0:0:0:0:
192,192,59725,1,0,0:0:0:0:
64,192,59850,128,0,60100:0:0:0:0:
448,192,59850,1,0,0:0:0:0:
320,192,59975,1,0,0:0:0:0:
448,192,60100,128,0,60225:0:0:0:70:kick.wav
192,192,60100,1,0,0:0:0:0:
320,192,60225,1,0,0:0:0:0:
448,192,60350,128,0,60600:0:0:0:0:
64,192,60350,1,0,0:0:0:0:
192,192,60475,1,0,0:0:0:0:
64,192,60600,128,8,60850:0:0:0:0:
320,192,60600,1,0,0:0:0:0:
448,192,60725,1,0,0:0:0:0:
320,192,60850,128,0,61100:0:0:0:0:
192,192,60850,1,0,0:0:0:0:
448,192,60975,1,0,0:0:0:0:
192,192,61100,128,0,61350:0:0:0:70:kick.wav
64,192,61100,1,0,0:0:0:0:
448,192,61350,128,0,61600:0:0:0:0:
320,192,61350,1,0,0:0:0:0:
64,192,61600,128,8,61850:0:0:0:0:
192,192,61600,1,0,0:0:0:0:
320,192,61850,128,0,62100:0:0:0:0:
448,192,61850,1,0,0:0:0:0:
192,192,62100,128,0,62350:0:0:0:70:kick.wav
64,192,62100,1,0,0:0:0:0:
448,192,62350,1,0,0:0:0:0:
64,192,62475,1,0,0:0:0:0:
320,192,62600,128,8,62850:0:0:0:0:
192,192,62600,1,0,0:0:0:0:
448,192,62725,1,0,0:0:0:0:
192,192,62850,128,0,63100:0:0:0:0:
64,192,62850,1,0,0:0:0:0:
320,192,63100,128,0,63350:0:0:0:70:kick.wav
448,192,63100,1,0,0:0:0:0:
192,192,63225,1,0,0:0:0:0:
64,192,63350,128,0,63600:0:0:0:0:
448,192,63350,1,0,0:0:0:0:
192,192,63475,1,0,0:0:0:0:
320,192,63600,128,8,63849:0:0:0:0:
448,192,63600,1,0,0:0:0:0:
64,192,63725,1,0,0:0:0:0:
192,192,63850,128,0,63975:0:0:0:0:
192,192,64099,128,0,64349:0:0:0:70:kick.wav
320,192,64099,1,0,0:0:0:0:
64,192,64349,1,0,0:0:0:0:
448,192,64350,128,0,64475:0:0:0:0:
320,192,64475,1,0,0:0:0:0:
448,192,64599,128,8,64849:0:0:0:0:
192,192,64599,1,0,0:0:0:0:
320,192,64849,128,0,65099:0:0:0:0:
64,192,64849,1,0,0:0:0:0:
448,192,65099,1,0,0:0:0:70:kick.wav
64,192,65099,128,0,65225:0:0:0:0:
192,192,65225,1,0,0:0:0:0:
320,192,65350,1,0,0:0:0:0:
448,192,65350,128,0,65475:0:0:0:0:
64,192,65475,1,0,0:0:0:0:
192,192,65600,1,8,0:0:0:0:
320,192,65600,128,0,65725:0:0:0:0:
448,192,65725,1,0,0:0:0:0:
64,192,65850,1,0,0:0:0:0:
192,192,65850,128,0,65975:0:0:0:0:
320,192,65975,1,0,0:0:0:0:
448,192,66100,1,0,0:0:0:70:kick.wav
64,192,66225,1,0,0:0:0:0:
320,192,66350,1,0,0:0:0:0:
192,192,66350,128,0,66475:0:0:0:0:
448,192,66475,1,0,0:0:0:0:
320,192,66600,128,8,66725:0:0:0:0:
64,192,66600,1,0,0:0:0:0:
192,192,66725,128,0,66850:0:0:0:0:
448,192,66850,128,0,66975:0:0:0:0:
64,192,66850,1,0,0:0:0:0:
320,192,66975,128,0,67100:0:0:0:0:
64,192,67100,128,0,67225:0:0:0:70:kick.wav
192,192,67100,1,0,0:0:0:0:
320,192,67225,1,0,0:0:0:0:
64,192,67350,128,0,67600:0:0:0:0:
448,192,67350,1,0,0:0:0:0:
192,192,67475,1,0,0:0:0:0:
320,192,67600,1,8,0:0:0:0:
64,192,67725,1,0,0:0:0:0:
320,192,67850,128,0,68100:0:0:0:0:
192,192,67850,1,0,0:0:0:0:
448,192,67975,1,0,0:0:0:0:
192,192,68100,128,0,68225:0:0:0:70:kick.wav
64,192,68100,1,0,0:0:0:0:
320,192,68225,1,0,0:0:0:0:
192,192,68350,128,0,68600:0:0:0:0:
448,192,68350,1,0,0:0:0:0:
64,192,68475,1,0,0:0:0:0:
448,192,68600,128,8,68850:0:0:0:0:
320,192,68600,1,0,0:0:0:0:
192,192,68725,1,0,0:0:0:0:
320,192,68850,128,0,69100:0:0:0:0:
64,192,68850,1,0,0:0:0:0:
448,192,68975,1,0,0:0:0:0:
64,192,69100,128,0,69350:0:0:0:70:kick.wav
192,192,69100,1,0,0:0:0:0:
320,192,69350,128,0,69600:0:0:0:0:
448,192,69350,1,0,0:0:0:0:
448,192,69600,128,8,69850:0:0:0:0:
192,192,69600,1,0,0:0:0:0:
192,192,69850,128,0,70100:0:0:0:0:
64,192,69850,1,0,0:0:0:0:
448,192,70100,1,0,0:0:0:70:kick.wav
320,192,70100,128,0,70350:0:0:0:0:
192,192,70350,128,0,70600:0:0:0:0:
64,192,70350,1,0,0:0:0:0:
64,192,70600,128,8,70850:0:0:0:0:
448,192,70600,1,0,0:0:0:0:
320,192,70725,1,0,0:0:0:0:
192,192,70850,128,0,71100:0:0:0:0:
448,192,70850,1,0,0:0:0:0:
64,192,70975,1,0,0:0:0:0:
448,192,71100,128,0,71350:0:0:0:70:kick.wav
320,192,71100,1,0,0:0:0:0:
192,192,71225,1,0,0:0:0:0:
320,192,71350,128,0,71600:0:0:0:0:
64,192,71350,1,0,0:0:0:0:
448,192,71475,1,0,0:0:0:0:
64,192,71600,128,8,71850:0:0:0:0:
192,192,71600,1,0,0:0:0:0:
320,192,71725,1,0,0:0:0:0:
192,192,71850,128,0,72100:0:0:0:0:
448,192,71850,1,0,0:0:0:0:
320,192,72100,128,0,72350:0:0:0:70:kick.wav
448,192,72100,1,0,0:0:0:0:
448,192,72350,128,0,72475:0:0:0:0:
64,192,72350,1,0,0:0:0:0:
192,192,72475,1,0,0:0:0:0:
448,192,72600,128,8,72725:0:0:0:0:
320,192,72600,1,0,0:0:0:0:
448,192,72850,128,0,72975:0:0:0:0:
64,192,72850,1,0,0:0:0:0:
192,192,73100,128,0,73225:0:0:0:70:kick.wav
320,192,73100,1,0,0:0:0:0:
64,192,73225,1,0,0:0:0:0:
320,192,73350,128,0,73475:0:0:0:0:
448,192,73350,1,0,0:0:0:0:
192,192,73475,1,0,0:0:0:0:
448,192,73600,128,8,73725:0:0:0:0:
64,192,73600,1,0,0:0:0:0:
320,192,73725,1,0,0:0:0:0:
64,192,73850,128,0,73975:0:0:0:0:
192,192,73850,1,0,0:0:0:0:
448,192,73975,1,0,0:0:0:0:
192,192,74100,128,0,74225:0:0:0:70:kick.wav
320,192,74100,1,0,0:0:0:0:
448,192,74350,128,0,74600:0:0:0:0:
64,192,74350,1,0,0:0:0:0:
64,192,74600,128,8,75100:0:0:0:0:
192,192,74600,128,0,75100:0:0:0:0:
320,192,74600,1,0,0:0:0:0:
448,192,75100,128,0,75225:0:0:0:70:LR_J Hit.wav
320,192,75100,1,4,0:0:0:0:
192,192,75225,1,0,0:0:0:0:
320,192,75350,128,0,75475:0:0:0:0:
64,192,75475,1,0,0:0:0:0:
320,192,75600,128,8,75725:0:0:0:0:
448,192,75600,1,0,0:0:0:0:
192,192,75850,1,0,0:0:0:0:
320,192,75975,1,0,0:0:0:0:
448,192,76100,128,0,76225:0:0:0:70:kick.wav
64,192,76100,1,0,0:0:0:0:
320,192,76350,1,0,0:0:0:0:
192,192,76475,128,0,76600:0:0:0:0:
448,192,76600,1,8,0:0:0:0:
64,192,76600,1,0,0:0:0:0:
192,192,76725,128,0,76850:0:0:0:0:
320,192,76850,1,0,0:0:0:0:
192,192,76975,128,0,77100:0:0:0:0:
64,192,77100,128,0,77225:0:0:0:70:kick.wav
448,192,77225,1,0,0:0:0:0:
320,192,77350,128,0,77475:0:0:0:0:
64,192,77475,1,0,0:0:0:0:
320,192,77600,128,8,77725:0:0:0:0:
448,192,77600,1,0,0:0:0:0:
64,192,77850,1,0,0:0:0:0:
320,192,77975,1,0,0:0:0:0:
448,192,78100,128,0,78225:0:0:0:70:kick.wav
192,192,78100,1,0,0:0:0:0:
320,192,78350,1,0,0:0:0:0:
192,192,78475,128,0,78600:0:0:0:0:
64,192,78600,1,8,0:0:0:0:
448,192,78600,1,0,0:0:0:0:
192,192,78725,128,0,78850:0:0:0:0:
320,192,78850,1,0,0:0:0:0:
192,192,78975,128,0,79100:0:0:0:0:
64,192,79100,128,0,79225:0:0:0:70:kick.wav
448,192,79225,1,0,0:0:0:0:
320,192,79350,128,0,79475:0:0:0:0:
192,192,79475,1,0,0:0:0:0:
320,192,79600,128,8,79725:0:0:0:0:
64,192,79600,1,0,0:0:0:0:
192,192,79850,1,0,0:0:0:0:
320,192,79975,1,0,0:0:0:0:
448,192,80100,128,0,80225:0:0:0:70:kick.wav
64,192,80100,1,0,0:0:0:0:
320,192,80350,1,0,0:0:0:0:
192,192,80475,128,0,80600:0:0:0:0:
64,192,80600,1,8,0:0:0:0:
448,192,80600,1,0,0:0:0:0:
192,192,80725,128,0,80850:0:0:0:0:
320,192,80850,1,0,0:0:0:0:
192,192,80975,128,0,81100:0:0:0:0:
64,192,81100,128,0,81225:0:0:0:70:kick.wav
448,192,81225,1,0,0:0:0:0:
320,192,81350,128,0,81475:0:0:0:0:
192,192,81475,1,0,0:0:0:0:
320,192,81600,128,8,81725:0:0:0:0:
64,192,81600,1,0,0:0:0:0:
448,192,81725,1,0,0:0:0:0:
192,192,81850,1,0,0:0:0:0:
64,192,81975,1,0,0:0:0:0:
448,192,82100,128,0,82225:0:0:0:70:kick.wav
320,192,82100,1,0,0:0:0:0:
192,192,82350,1,0,0:0:0:0:
320,192,82475,128,0,82600:0:0:0:0:
64,192,82600,1,8,0:0:0:0:
192,192,82600,1,0,0:0:0:0:
320,192,82725,128,0,82850:0:0:0:70:LR_J Hit.wav
448,192,82725,1,0,0:0:0:0:
192,192,82850,128,0,82975:0:0:0:70:LR_J Hit.wav
64,192,82850,1,0,0:0:0:0:
320,192,82975,128,0,83100:0:0:0:70:LR_J Hit.wav
448,192,83100,128,0,83225:0:0:0:70:kick.wav
64,192,83225,1,0,0:0:0:0:
192,192,83350,128,0,83475:0:0:0:0:
320,192,83475,1,0,0:0:0:0:
192,192,83600,128,8,83725:0:0:0:0:
448,192,83600,1,0,0:0:0:0:
320,192,83850,1,0,0:0:0:0:
192,192,83975,1,0,0:0:0:0:
64,192,84100,128,0,84225:0:0:0:70:kick.wav
448,192,84100,1,0,0:0:0:0:
320,192,84350,1,0,0:0:0:0:
192,192,84475,128,0,84600:0:0:0:0:
448,192,84600,1,8,0:0:0:0:
64,192,84600,1,0,0:0:0:0:
192,192,84725,128,0,84850:0:0:0:0:
320,192,84850,1,0,0:0:0:0:
192,192,84975,128,0,85100:0:0:0:0:
448,192,85100,128,0,85225:0:0:0:70:kick.wav
64,192,85225,1,0,0:0:0:0:
192,192,85350,128,0,85475:0:0:0:0:
448,192,85475,1,0,0:0:0:0:
192,192,85600,128,8,85725:0:0:0:0:
64,192,85600,1,0,0:0:0:0:
320,192,85850,1,0,0:0:0:0:
448,192,85975,1,0,0:0:0:0:
64,192,86100,128,0,86225:0:0:0:70:kick.wav
192,192,86100,1,0,0:0:0:0:
320,192,86350,1,0,0:0:0:0:
192,192,86475,128,0,86600:0:0:0:0:
448,192,86600,1,8,0:0:0:0:
64,192,86600,1,0,0:0:0:0:
192,192,86725,128,0,86850:0:0:0:0:
320,192,86850,1,0,0:0:0:0:
192,192,86975,128,0,87100:0:0:0:0:
448,192,87100,128,0,87225:0:0:0:70:kick.wav
64,192,87225,1,0,0:0:0:0:
320,192,87350,128,0,87475:0:0:0:0:
192,192,87475,1,0,0:0:0:0:
320,192,87600,128,8,87725:0:0:0:0:
64,192,87600,1,0,0:0:0:0:
192,192,87850,1,0,0:0:0:0:
320,192,87975,1,0,0:0:0:0:
64,192,88100,128,0,88225:0:0:0:70:kick.wav
448,192,88100,1,0,0:0:0:0:
320,192,88350,1,0,0:0:0:0:
192,192,88475,128,0,88600:0:0:0:0:
64,192,88600,1,8,0:0:0:0:
448,192,88600,1,0,0:0:0:0:
192,192,88725,128,0,88850:0:0:0:0:
320,192,88850,1,0,0:0:0:0:
192,192,88975,128,0,89100:0:0:0:0:
448,192,89100,1,0,0:0:0:70:kick.wav
64,192,89100,1,0,0:0:0:0:
320,192,89225,1,0,0:0:0:0:
192,192,89287,1,0,0:0:0:0:
64,192,89350,1,0,0:0:0:0:
320,192,89433,1,0,0:0:0:0:
192,192,89516,1,0,0:0:0:0:
448,192,89600,1,8,0:0:0:0:
64,192,89600,1,0,0:0:0:0:
320,192,89725,1,0,0:0:0:0:
192,192,89850,1,0,0:0:0:0:
448,192,89975,1,0,0:0:0:0:
64,192,90100,128,0,90225:0:0:0:70:kick.wav
448,192,90350,1,0,0:0:0:0:
320,192,90475,128,0,90600:0:0:0:0:
64,192,90600,1,8,0:0:0:0:
192,192,90600,1,0,0:0:0:0:
320,192,90725,128,0,90850:0:0:0:70:LR_J Hit.wav
448,192,90725,1,0,0:0:0:0:
192,192,90850,128,0,90975:0:0:0:70:LR_J Hit.wav
64,192,90850,1,0,0:0:0:0:
448,192,90975,128,0,91100:0:0:0:70:LR_J Hit.wav
64,192,91100,1,0,0:0:0:0:
192,192,91100,1,0,0:0:0:0:
320,192,91162,1,0,0:0:0:0:
448,192,91225,1,0,0:0:0:0:
64,192,91287,1,0,0:0:0:0:
192,192,91350,1,0,0:0:0:0:
320,192,91412,1,0,0:0:0:0:
448,192,91475,1,0,0:0:0:0:
64,192,91475,1,0,0:0:0:0:
192,192,91600,1,0,0:0:0:0:
320,192,91725,1,0,0:0:0:0:
448,192,91850,1,0,0:0:0:0:
64,192,91850,1,0,0:0:0:0:
192,192,91975,1,0,0:0:0:0:
320,192,92100,1,0,0:0:0:0:
448,192,92100,1,0,0:0:0:0:
64,192,92225,1,0,0:0:0:0:
192,192,92225,1,0,0:0:0:0:
448,192,92350,1,0,0:0:0:70:kick.wav
320,192,92412,1,0,0:0:0:70:kick.wav
192,192,92475,1,0,0:0:0:70:kick.wav
64,192,92475,1,0,0:0:0:0:
448,192,92600,1,0,0:0:0:0:
320,192,92600,128,0,92850:0:0:0:0:
64,192,92850,1,0,0:0:0:0:
192,192,92850,128,0,93100:0:0:0:0:
320,192,93100,128,0,93350:0:0:0:70:kick.wav
448,192,93100,1,0,0:0:0:0:
64,192,93100,1,0,0:0:0:0:
192,192,93350,1,0,0:0:0:0:
320,192,93475,1,0,0:0:0:0:
64,192,93600,128,8,93725:0:0:0:0:
448,192,93600,1,0,0:0:0:0:
320,192,93725,128,0,93850:0:0:0:0:
64,192,93850,128,0,93975:0:0:0:0:
192,192,93850,1,0,0:0:0:0:
320,192,93975,128,0,94100:0:0:0:0:
448,192,94100,128,0,94225:0:0:0:70:kick.wav
192,192,94100,1,0,0:0:0:0:
64,192,94225,128,0,94350:0:0:0:0:
320,192,94225,1,0,0:0:0:0:
448,192,94350,128,0,94475:0:0:0:0:
64,192,94475,128,0,94725:0:0:0:0:
192,192,94475,1,0,0:0:0:0:
320,192,94600,1,8,0:0:0:0:
448,192,94725,128,0,94850:0:0:0:0:
192,192,94850,128,0,94975:0:0:0:0:
64,192,94850,1,0,0:0:0:0:
320,192,94975,128,0,95100:0:0:0:0:
448,192,95100,128,0,95350:0:0:0:70:kick.wav
64,192,95100,1,0,0:0:0:0:
192,192,95100,1,0,0:0:0:0:
320,192,95350,128,0,95475:0:0:0:0:
64,192,95475,1,0,0:0:0:0:
192,192,95600,128,8,95725:0:0:0:0:
448,192,95600,1,0,0:0:0:0:
320,192,95725,128,0,95850:0:0:0:0:
192,192,95850,128,0,95975:0:0:0:0:
64,192,95850,1,0,0:0:0:0:
320,192,95975,128,0,96100:0:0:0:0:
192,192,96100,128,0,96350:0:0:0:70:kick.wav
64,192,96100,1,0,0:0:0:0:
448,192,96100,1,0,0:0:0:0:
320,192,96225,1,0,0:0:0:0:
448,192,96350,128,0,96475:0:0:0:0:
64,192,96475,128,0,96725:0:0:0:0:
320,192,96600,1,8,0:0:0:0:
192,192,96600,1,0,0:0:0:0:
448,192,96725,128,0,96850:0:0:0:0:
192,192,96850,128,0,97100:0:0:0:0:
320,192,97100,128,0,97225:0:0:0:70:kick.wav
448,192,97100,1,0,0:0:0:0:
64,192,97100,1,0,0:0:0:0:
192,192,97225,128,0,97475:0:0:0:0:
64,192,97350,1,0,0:0:0:0:
448,192,97475,128,0,97600:0:0:0:0:
64,192,97600,128,8,97850:0:0:0:0:
320,192,97600,1,0,0:0:0:0:
448,192,97850,128,0,97975:0:0:0:0:
192,192,97850,1,0,0:0:0:0:
64,192,97975,128,0,98100:0:0:0:0:
448,192,98100,128,0,98225:0:0:0:70:kick.wav
320,192,98100,1,0,0:0:0:0:
64,192,98225,128,0,98350:0:0:0:0:
192,192,98225,1,0,0:0:0:0:
320,192,98350,128,0,98475:0:0:0:0:
448,192,98475,128,0,98725:0:0:0:0:
192,192,98475,1,0,0:0:0:0:
64,192,98600,1,8,0:0:0:0:
320,192,98725,128,0,98850:0:0:0:0:
192,192,98850,128,0,98975:0:0:0:0:
64,192,98850,1,0,0:0:0:0:
320,192,98975,128,0,99100:0:0:0:0:
448,192,99100,128,0,99225:0:0:0:70:kick.wav
64,192,99100,1,0,0:0:0:0:
192,192,99100,1,0,0:0:0:0:
320,192,99225,128,0,99475:0:0:0:0:
192,192,99350,1,0,0:0:0:0:
64,192,99475,128,0,99600:0:0:0:0:
448,192,99600,128,8,99850:0:0:0:0:
320,192,99600,1,0,0:0:0:0:
192,192,99850,128,0,99975:0:0:0:0:
64,192,99850,1,0,0:0:0:0:
320,192,99975,128,0,100100:0:0:0:0:
64,192,100100,128,0,100225:0:0:0:70:kick.wav
192,192,100100,1,0,0:0:0:0:
448,192,100100,1,0,0:0:0:0:
320,192,100225,1,0,0:0:0:0:
192,192,100350,128,0,100475:0:0:0:0:
448,192,100475,1,0,0:0:0:0:
320,192,100600,128,8,100725:0:0:0:0:
64,192,100600,1,0,0:0:0:0:
192,192,100850,128,0,100975:0:0:0:0:
320,192,101100,128,0,101350:0:0:0:70:kick.wav
64,192,101100,1,0,0:0:0:0:
448,192,101100,1,0,0:0:0:0:
192,192,101350,1,0,0:0:0:0:
64,192,101475,1,0,0:0:0:0:
448,192,101600,128,8,101725:0:0:0:0:
320,192,101600,1,0,0:0:0:0:
192,192,101725,128,0,101850:0:0:0:0:
448,192,101850,128,0,101975:0:0:0:0:
64,192,101850,1,0,0:0:0:0:
192,192,101975,128,0,102100:0:0:0:0:
448,192,102100,128,0,102225:0:0:0:70:kick.wav
320,192,102100,1,0,0:0:0:0:
64,192,102225,128,0,102350:0:0:0:0:
192,192,102225,1,0,0:0:0:0:
320,192,102350,128,0,102475:0:0:0:0:
64,192,102475,128,0,102725:0:0:0:0:
448,192,102475,1,0,0:0:0:0:
320,192,102600,1,8,0:0:0:0:
192,192,102725,128,0,102850:0:0:0:0:
448,192,102850,128,0,102975:0:0:0:0:
320,192,102975,128,0,103100:0:0:0:0:
64,192,103100,128,0,103350:0:0:0:70:kick.wav
448,192,103100,1,0,0:0:0:0:
192,192,103100,1,0,0:0:0:0:
320,192,103350,128,0,103475:0:0:0:0:
448,192,103475,1,0,0:0:0:0:
320,192,103600,128,8,103725:0:0:0:0:
192,192,103600,1,0,0:0:0:0:
64,192,103725,128,0,103850:0:0:0:0:
320,192,103850,128,0,103975:0:0:0:0:
448,192,103850,1,0,0:0:0:0:
64,192,103975,128,0,104100:0:0:0:0:
320,192,104100,128,0,104350:0:0:0:70:kick.wav
192,192,104100,1,0,0:0:0:0:
448,192,104100,1,0,0:0:0:0:
64,192,104225,1,0,0:0:0:0:
192,192,104350,128,0,104475:0:0:0:0:
448,192,104475,128,0,104725:0:0:0:0:
64,192,104600,1,8,0:0:0:0:
192,192,104725,128,0,104850:0:0:0:0:
320,192,104850,128,0,105100:0:0:0:0:
192,192,105100,128,0,105225:0:0:0:70:kick.wav
448,192,105100,1,0,0:0:0:0:
64,192,105100,1,0,0:0:0:0:
320,192,105225,128,0,105475:0:0:0:0:
64,192,105475,128,0,105600:0:0:0:0:
448,192,105600,128,8,105850:0:0:0:0:
192,192,105600,1,0,0:0:0:0:
320,192,105850,128,0,105975:0:0:0:0:
64,192,105850,1,0,0:0:0:0:
192,192,105975,128,0,106100:0:0:0:0:
448,192,106100,128,0,106225:0:0:0:70:kick.wav
320,192,106100,1,0,0:0:0:0:
192,192,106225,128,0,106350:0:0:0:0:
64,192,106225,1,0,0:0:0:0:
448,192,106350,128,0,106475:0:0:0:0:
192,192,106475,128,0,106725:0:0:0:0:
320,192,106475,1,0,0:0:0:0:
64,192,106600,1,8,0:0:0:0:
448,192,106725,128,0,106850:0:0:0:0:
320,192,106850,128,0,106975:0:0:0:0:
192,192,106850,1,0,0:0:0:0:
64,192,106975,128,0,107100:0:0:0:0:
192,192,107100,128,0,107225:0:0:0:70:kick.wav
320,192,107100,1,0,0:0:0:0:
448,192,107100,1,0,0:0:0:0:
64,192,107225,128,0,107475:0:0:0:0:
448,192,107350,1,0,0:0:0:0:
320,192,107475,128,0,107600:0:0:0:0:
192,192,107600,128,8,107850:0:0:0:0:
64,192,107600,1,0,0:0:0:0:
320,192,107850,128,0,107975:0:0:0:0:
448,192,107850,1,0,0:0:0:0:
192,192,107975,128,0,108100:0:0:0:0:
64,192,108100,128,0,108350:0:0:0:70:kick.wav
320,192,108100,1,0,0:0:0:0:
448,192,108100,1,0,0:0:0:0:
192,192,108225,1,0,0:0:0:0:
320,192,108350,128,0,108600:0:0:0:0:
192,192,108600,128,8,108850:0:0:0:0:
448,192,108600,1,0,0:0:0:0:
64,192,108850,1,0,0:0:0:0:
448,192,109100,1,0,0:0:0:70:kick.wav
64,192,109100,1,0,0:0:0:0:
320,192,109225,1,0,0:0:0:0:
192,192,109350,1,0,0:0:0:0:
448,192,109350,1,0,0:0:0:0:
320,192,109475,1,0,0:0:0:0:
64,192,109600,1,8,0:0:0:0:
448,192,109600,1,0,0:0:0:0:
192,192,109725,1,0,0:0:0:0:
320,192,109850,1,0,0:0:0:0:
64,192,109850,1,0,0:0:0:0:
192,192,109975,1,0,0:0:0:0:
448,192,110100,128,0,110475:0:0:0:70:kick.wav
64,192,110100,1,0,0:0:0:0:
320,192,110225,128,0,110475:0:0:0:0:
192,192,110350,1,0,0:0:0:0:
64,192,110475,128,0,110600:0:0:0:0:
448,192,110600,1,8,0:0:0:0:
320,192,110600,1,0,0:0:0:0:
192,192,110725,128,0,110850:0:0:0:0:
64,192,110725,1,0,0:0:0:0:
448,192,110850,128,0,110975:0:0:0:0:
320,192,110850,1,0,0:0:0:0:
64,192,110975,128,0,111100:0:0:0:0:
192,192,110975,1,0,0:0:0:0:
448,192,111100,1,0,0:0:0:70:kick.wav
320,192,111100,1,0,0:0:0:0:
192,192,111225,1,0,0:0:0:0:
64,192,111350,1,0,0:0:0:0:
448,192,111350,1,0,0:0:0:0:
320,192,111475,1,0,0:0:0:0:
64,192,111600,1,8,0:0:0:0:
192,192,111600,1,0,0:0:0:0:
320,192,111725,1,0,0:0:0:0:
64,192,111850,1,0,0:0:0:0:
448,192,111850,1,0,0:0:0:0:
192,192,111975,1,0,0:0:0:0:
320,192,112100,128,0,112475:0:0:0:70:kick.wav
448,192,112100,1,0,0:0:0:0:
192,192,112225,128,0,112475:0:0:0:0:
64,192,112350,1,0,0:0:0:0:
448,192,112475,128,0,112600:0:0:0:0:
64,192,112600,1,8,0:0:0:0:
192,192,112600,1,0,0:0:0:0:
448,192,112725,128,0,112850:0:0:0:0:
320,192,112725,1,0,0:0:0:0:
64,192,112850,128,0,112975:0:0:0:0:
192,192,112850,1,0,0:0:0:0:
448,192,112975,128,0,113100:0:0:0:0:
320,192,112975,1,0,0:0:0:0:
64,192,113100,1,0,0:0:0:70:kick.wav
192,192,113100,1,0,0:0:0:0:
320,192,113225,1,0,0:0:0:0:
64,192,113350,1,0,0:0:0:0:
448,192,113350,1,0,0:0:0:0:
192,192,113475,1,0,0:0:0:0:
448,192,113600,1,8,0:0:0:0:
320,192,113600,1,0,0:0:0:0:
192,192,113725,1,0,0:0:0:0:
64,192,113850,1,0,0:0:0:0:
448,192,113850,1,0,0:0:0:0:
320,192,113975,1,0,0:0:0:0:
192,192,114100,128,0,114475:0:0:0:70:kick.wav
64,192,114100,1,0,0:0:0:0:
448,192,114225,128,0,114475:0:0:0:0:
320,192,114350,1,0,0:0:0:0:
64,192,114475,128,0,114600:0:0:0:0:
448,192,114600,128,8,114850:0:0:0:0:
192,192,114600,1,0,0:0:0:0:
320,192,114725,1,0,0:0:0:0:
192,192,114850,128,0,114975:0:0:0:0:
64,192,114850,1,0,0:0:0:0:
320,192,114975,128,0,115100:0:0:0:0:
448,192,114975,1,0,0:0:0:0:
64,192,115100,1,0,0:0:0:70:kick.wav
192,192,115100,1,0,0:0:0:0:
448,192,115225,1,0,0:0:0:0:
192,192,115350,1,0,0:0:0:0:
320,192,115350,1,0,0:0:0:0:
64,192,115475,1,0,0:0:0:0:
448,192,115600,1,8,0:0:0:0:
320,192,115600,1,0,0:0:0:0:
64,192,115725,1,0,0:0:0:0:
320,192,115850,1,0,0:0:0:0:
192,192,115850,1,0,0:0:0:0:
448,192,115975,1,0,0:0:0:0:
64,192,116100,128,0,116475:0:0:0:70:kick.wav
192,192,116100,1,0,0:0:0:0:
320,192,116225,128,0,116475:0:0:0:0:
448,192,116350,1,0,0:0:0:0:
192,192,116475,128,0,116600:0:0:0:0:
320,192,116600,128,8,116975:0:0:0:0:
448,192,116600,1,0,0:0:0:0:
192,192,116850,128,0,116975:0:0:0:0:
64,192,116850,1,0,0:0:0:0:
448,192,117100,128,0,117600:0:0:0:70:kick.wav
64,192,117100,1,0,0:0:0:0:
320,192,117350,128,0,117600:0:0:0:0:
192,192,117600,1,8,0:0:0:0:
64,192,117600,1,0,0:0:0:0:
320,192,117725,1,0,0:0:0:0:
448,192,117850,1,0,0:0:0:0:
192,192,117975,1,0,0:0:0:0:
320,192,118100,128,0,118475:0:0:0:70:kick.wav
64,192,118100,1,0,0:0:0:0:
448,192,118225,1,0,0:0:0:0:
192,192,118350,1,0,0:0:0:0:
448,192,118475,128,0,118725:0:0:0:0:
64,192,118475,1,0,0:0:0:0:
320,192,118600,1,8,0:0:0:0:
192,192,118725,128,0,118850:0:0:0:0:
320,192,118850,128,0,118975:0:0:0:0:
192,192,118975,128,0,119100:0:0:0:0:
448,192,119100,1,0,0:0:0:70:kick.wav
64,192,119100,1,0,0:0:0:0:
320,192,119225,1,0,0:0:0:0:
192,192,119350,1,0,0:0:0:0:
320,192,119475,1,0,0:0:0:0:
64,192,119600,1,8,0:0:0:0:
448,192,119600,1,0,0:0:0:0:
192,192,119725,1,0,0:0:0:0:
320,192,119850,1,0,0:0:0:0:
192,192,119975,1,0,0:0:0:0:
448,192,120100,128,0,120475:0:0:0:70:kick.wav
64,192,120100,1,0,0:0:0:0:
320,192,120350,1,0,0:0:0:0:
64,192,120475,128,0,120725:0:0:0:0:
192,192,120475,1,0,0:0:0:0:
448,192,120600,1,8,0:0:0:0:
320,192,120725,128,0,120850:0:0:0:0:
192,192,120850,128,0,120975:0:0:0:0:
320,192,120975,128,0,121100:0:0:0:0:
64,192,121100,128,0,121475:0:0:0:70:kick.wav
448,192,121100,1,0,0:0:0:0:
192,192,121350,1,0,0:0:0:0:
448,192,121475,128,0,121725:0:0:0:0:
320,192,121475,1,0,0:0:0:0:
192,192,121600,1,8,0:0:0:0:
64,192,121725,128,0,121850:0:0:0:0:
448,192,121850,128,0,122225:0:0:0:0:
320,192,121850,1,0,0:0:0:0:
192,192,122100,1,0,0:0:0:70:kick.wav
64,192,122225,128,0,122475:0:0:0:0:
320,192,122225,1,0,0:0:0:0:
192,192,122350,1,0,0:0:0:0:
320,192,122475,128,0,122600:0:0:0:0:
448,192,122475,1,0,0:0:0:0:
192,192,122600,128,8,122725:0:0:0:0:
64,192,122600,1,0,0:0:0:0:
448,192,122725,128,0,122850:0:0:0:0:
320,192,122850,128,0,122975:0:0:0:0:
64,192,122975,128,0,123100:0:0:0:0:
448,192,123100,1,0,0:0:0:70:kick.wav
192,192,123100,1,0,0:0:0:0:
320,192,123350,1,0,0:0:0:0:
448,192,123350,1,0,0:0:0:0:
192,192,123475,1,0,0:0:0:0:
64,192,123600,1,8,0:0:0:0:
320,192,123600,1,0,0:0:0:0:
192,192,123850,1,0,0:0:0:0:
64,192,123850,1,0,0:0:0:0:
320,192,123975,1,0,0:0:0:0:
448,192,124100,128,0,124225:0:0:0:70:kick.wav
192,192,124100,1,0,0:0:0:0:
64,192,124225,1,0,0:0:0:0:
320,192,124350,1,0,0:0:0:70:LR_J Hit.wav
448,192,124350,1,0,0:0:0:0:
192,192,124475,1,0,0:0:0:0:
64,192,124600,1,8,0:0:0:0:
448,192,124600,1,0,0:0:0:70:LR_J Hit.wav
192,192,124850,128,0,124975:0:0:0:0:
320,192,124975,128,0,125100:0:0:0:0:
448,192,125100,128,4,125350:0:0:0:0:
64,192,125100,1,0,0:0:0:70:kick.wav
192,192,125100,1,0,0:0:0:0:
64,192,125350,128,0,125600:0:0:0:0:
320,192,125350,1,0,0:0:0:0:
192,192,125600,128,8,125850:0:0:0:0:
448,192,125600,1,0,0:0:0:0:
320,192,125600,1,0,0:0:0:0:
448,192,125850,128,0,126100:0:0:0:0:
64,192,125850,1,0,0:0:0:0:
320,192,126100,128,0,126350:0:0:0:70:kick.wav
192,192,126100,1,0,0:0:0:0:
64,192,126100,1,0,0:0:0:0:
192,192,126350,128,0,126475:0:0:0:0:
448,192,126350,1,0,0:0:0:0:
320,192,126475,128,0,126725:0:0:0:0:
64,192,126475,1,0,0:0:0:0:
192,192,126600,1,8,0:0:0:0:
64,192,126725,128,0,126850:0:0:0:0:
448,192,126725,1,0,0:0:0:0:
320,192,126850,128,0,126975:0:0:0:0:
192,192,126975,128,0,127100:0:0:0:0:
448,192,127100,128,0,127350:0:0:0:70:kick.wav
320,192,127100,1,0,0:0:0:0:
64,192,127100,1,0,0:0:0:0:
320,192,127350,128,0,127600:0:0:0:0:
192,192,127350,1,0,0:0:0:0:
448,192,127600,128,8,127849:0:0:0:0:
192,192,127600,1,0,0:0:0:0:
64,192,127600,1,0,0:0:0:0:
192,192,127849,128,0,128099:0:0:0:0:
320,192,127849,1,0,0:0:0:0:
448,192,128099,128,0,128349:0:0:0:70:kick.wav
320,192,128099,1,0,0:0:0:0:
64,192,128099,1,0,0:0:0:0:
320,192,128349,128,0,128599:0:0:0:0:
192,192,128349,1,0,0:0:0:0:
192,192,128599,128,8,128849:0:0:0:0:
64,192,128599,1,0,0:0:0:0:
320,192,128725,1,0,0:0:0:0:
64,192,128849,128,0,129099:0:0:0:0:
448,192,128849,1,0,0:0:0:0:
192,192,129099,128,0,129599:0:0:0:70:kick.wav
320,192,129099,1,0,0:0:0:0:
448,192,129099,1,0,0:0:0:0:
64,192,129349,1,0,0:0:0:0:
64,192,129599,128,8,129849:0:0:0:0:
320,192,129599,1,0,0:0:0:0:
448,192,129599,1,0,0:0:0:0:
192,192,129849,128,0,130099:0:0:0:0:
320,192,129849,1,0,0:0:0:0:
320,192,130099,128,0,130349:0:0:0:70:kick.wav
64,192,130099,1,0,0:0:0:0:
448,192,130099,1,0,0:0:0:0:
448,192,130349,128,0,130599:0:0:0:0:
192,192,130349,1,0,0:0:0:0:
64,192,130599,128,8,130850:0:0:0:0:
320,192,130599,1,0,0:0:0:0:
192,192,130599,1,0,0:0:0:0:
448,192,130850,128,0,131100:0:0:0:0:
320,192,130850,1,0,0:0:0:0:
192,192,131100,128,0,131350:0:0:0:70:kick.wav
64,192,131100,1,0,0:0:0:0:
320,192,131350,128,0,131600:0:0:0:0:
448,192,131350,1,0,0:0:0:0:
192,192,131600,128,8,131850:0:0:0:0:
64,192,131600,1,0,0:0:0:0:
448,192,131600,1,0,0:0:0:0:
64,192,131850,128,0,132100:0:0:0:0:
320,192,131850,1,0,0:0:0:0:
448,192,132100,128,0,132600:0:0:0:70:kick.wav
192,192,132100,1,0,0:0:0:0:
320,192,132225,1,0,0:0:0:0:
64,192,132350,1,0,0:0:0:0:
192,192,132475,1,0,0:0:0:0:
64,192,132600,1,8,0:0:0:0:
320,192,132600,1,0,0:0:0:0:
320,192,132850,128,0,132975:0:0:0:0:
192,192,132975,128,0,133100:0:0:0:0:
64,192,133100,128,0,133350:0:0:0:70:kick.wav
320,192,133100,1,4,0:0:0:0:
448,192,133100,1,0,0:0:0:0:
320,192,133350,128,0,133600:0:0:0:0:
192,192,133350,1,0,0:0:0:0:
448,192,133600,1,8,0:0:0:0:
192,192,133600,128,0,133850:0:0:0:0:
64,192,133600,1,0,0:0:0:0:
448,192,133850,128,0,134100:0:0:0:0:
320,192,133850,1,0,0:0:0:0:
192,192,134100,128,0,134350:0:0:0:70:kick.wav
320,192,134100,1,0,0:0:0:0:
64,192,134100,1,0,0:0:0:0:
320,192,134350,128,0,134475:0:0:0:0:
64,192,134350,1,0,0:0:0:0:
192,192,134475,128,0,134725:0:0:0:0:
448,192,134475,1,0,0:0:0:0:
64,192,134600,1,8,0:0:0:0:
448,192,134725,128,0,134850:0:0:0:0:
320,192,134725,1,0,0:0:0:0:
192,192,134850,128,0,134975:0:0:0:0:
320,192,134975,128,0,135100:0:0:0:0:
448,192,135100,128,0,135350:0:0:0:70:kick.wav
64,192,135100,1,0,0:0:0:0:
192,192,135100,1,0,0:0:0:0:
64,192,135350,128,0,135600:0:0:0:0:
320,192,135350,1,0,0:0:0:0:
192,192,135600,128,8,135850:0:0:0:0:
320,192,135600,1,0,0:0:0:0:
448,192,135600,1,0,0:0:0:0:
320,192,135850,128,0,136100:0:0:0:0:
64,192,135850,1,0,0:0:0:0:
448,192,136100,128,0,136350:0:0:0:70:kick.wav
192,192,136100,1,0,0:0:0:0:
320,192,136350,128,0,136600:0:0:0:0:
64,192,136350,1,0,0:0:0:0:
64,192,136600,128,8,136850:0:0:0:0:
192,192,136600,1,0,0:0:0:0:
448,192,136725,1,0,0:0:0:0:
320,192,136850,128,0,137100:0:0:0:0:
64,192,137100,128,0,137600:0:0:0:70:kick.wav
192,192,137100,1,0,0:0:0:0:
448,192,137100,1,0,0:0:0:0:
320,192,137350,1,0,0:0:0:0:
192,192,137600,128,8,137850:0:0:0:0:
320,192,137600,1,0,0:0:0:0:
448,192,137600,1,0,0:0:0:0:
320,192,137850,128,0,138100:0:0:0:0:
64,192,137850,1,0,0:0:0:0:
448,192,138100,128,0,138350:0:0:0:70:kick.wav
192,192,138100,1,0,0:0:0:0:
64,192,138100,1,0,0:0:0:0:
192,192,138350,128,0,138600:0:0:0:0:
448,192,138600,128,8,138850:0:0:0:0:
320,192,138600,1,0,0:0:0:0:
64,192,138600,1,0,0:0:0:0:
192,192,138850,128,0,139100:0:0:0:0:
64,192,138850,1,0,0:0:0:0:
320,192,139100,128,0,139350:0:0:0:70:kick.wav
448,192,139100,1,0,0:0:0:0:
64,192,139350,128,0,139600:0:0:0:0:
448,192,139600,128,8,139850:0:0:0:0:
192,192,139600,1,0,0:0:0:0:
320,192,139600,1,0,0:0:0:0:
192,192,139850,128,0,140100:0:0:0:0:
64,192,139850,1,0,0:0:0:0:
320,192,140100,128,0,140350:0:0:0:70:kick.wav
448,192,140100,1,0,0:0:0:0:
64,192,140350,128,0,140600:0:0:0:0:
192,192,140350,1,0,0:0:0:0:
320,192,140600,128,8,140975:0:0:0:0:
448,192,140600,1,0,0:0:0:0:
192,192,140600,1,0,0:0:0:0:
64,192,140725,1,0,0:0:0:0:
448,192,140850,1,0,0:0:0:0:
192,192,140975,1,0,0:0:0:0:
64,192,141100,128,0,141225:0:0:0:70:LR_J Hit.wav
320,192,141100,128,8,141225:0:0:0:0:
448,192,141100,128,0,141225:0:0:0:0:
448,192,141600,1,8,0:0:0:0:
320,192,141600,128,0,141725:0:0:0:70:LR_J Hit.wav
64,192,141600,128,0,141725:0:0:0:0:
64,192,142100,128,8,142225:0:0:0:0:
448,192,142100,1,0,0:0:0:70:LR_J Hit.wav
320,192,142100,1,0,0:0:0:0:
320,192,142350,128,0,142475:0:0:0:0:
192,192,142350,128,0,142600:0:0:0:0:
64,192,142600,128,0,142725:0:0:0:0:
448,192,142600,128,0,142975:0:0:0:0:
320,192,142600,1,0,0:0:0:0:
320,192,142850,128,0,142975:0:0:0:0:
192,192,142850,128,0,142975:0:0:0:0:
320,192,143100,1,4,0:0:0:0:
64,192,143100,128,0,143225:0:0:0:70:LR_J Hit.wav
448,192,143100,1,0,0:0:0:70:kick.wav
192,192,143225,1,0,0:0:0:0:
64,192,143350,128,0,143600:0:0:0:0:
448,192,143350,1,0,0:0:0:0:
320,192,143475,1,0,0:0:0:0:
192,192,143600,1,8,0:0:0:0:
64,192,143725,1,0,0:0:0:0:
320,192,143850,128,0,144100:0:0:0:0:
448,192,143850,1,0,0:0:0:0:
192,192,143975,1,0,0:0:0:0:
448,192,144100,128,0,144225:0:0:0:70:kick.wav
64,192,144100,1,0,0:0:0:0:
320,192,144225,1,0,0:0:0:0:
448,192,144350,128,0,144600:0:0:0:0:
192,192,144350,1,0,0:0:0:0:
64,192,144475,1,0,0:0:0:0:
320,192,144600,1,8,0:0:0:0:
192,192,144600,128,0,144850:0:0:0:0:
64,192,144725,1,0,0:0:0:0:
320,192,144850,128,0,145100:0:0:0:0:
448,192,144850,1,0,0:0:0:0:
192,192,144975,1,0,0:0:0:0:
448,192,145100,128,0,145350:0:0:0:70:kick.wav
64,192,145100,1,0,0:0:0:0:
192,192,145350,128,0,145600:0:0:0:0:
320,192,145350,1,0,0:0:0:0:
320,192,145600,128,8,145850:0:0:0:0:
64,192,145600,1,0,0:0:0:0:
64,192,145850,128,0,146100:0:0:0:0:
448,192,145850,1,0,0:0:0:0:
448,192,146100,128,0,146350:0:0:0:70:kick.wav
320,192,146100,1,0,0:0:0:0:
192,192,146350,1,0,0:0:0:0:
64,192,146475,1,0,0:0:0:0:
320,192,146600,128,8,146850:0:0:0:0:
448,192,146600,1,0,0:0:0:0:
192,192,146725,1,0,0:0:0:0:
448,192,146850,128,0,147100:0:0:0:0:
64,192,146850,1,0,0:0:0:0:
192,192,147100,128,0,147350:0:0:0:70:kick.wav
320,192,147100,1,0,0:0:0:0:
64,192,147225,1,0,0:0:0:0:
320,192,147350,128,0,147600:0:0:0:0:
448,192,147350,1,0,0:0:0:0:
192,192,147475,1,0,0:0:0:0:
448,192,147600,128,8,147850:0:0:0:0:
64,192,147600,1,0,0:0:0:0:
320,192,147725,1,0,0:0:0:0:
192,192,147850,128,0,147975:0:0:0:0:
192,192,148100,128,0,148350:0:0:0:70:kick.wav
448,192,148100,1,0,0:0:0:0:
64,192,148350,128,0,148475:0:0:0:0:
320,192,148350,1,0,0:0:0:0:
448,192,148475,1,0,0:0:0:0:
64,192,148600,128,8,148850:0:0:0:0:
192,192,148600,1,0,0:0:0:0:
192,192,148850,128,0,149100:0:0:0:0:
320,192,148850,1,0,0:0:0:0:
64,192,149100,1,0,0:0:0:70:kick.wav
448,192,149100,128,0,149225:0:0:0:0:
320,192,149225,1,0,0:0:0:0:
192,192,149350,1,0,0:0:0:0:
64,192,149350,128,0,149475:0:0:0:0:
448,192,149475,1,0,0:0:0:0:
320,192,149600,1,8,0:0:0:0:
192,192,149600,128,0,149725:0:0:0:0:
64,192,149725,1,0,0:0:0:0:
448,192,149850,1,0,0:0:0:0:
320,192,149850,128,0,149975:0:0:0:0:
192,192,149975,1,0,0:0:0:0:
64,192,150100,1,0,0:0:0:70:kick.wav
448,192,150225,1,0,0:0:0:0:
192,192,150350,1,0,0:0:0:0:
320,192,150350,128,0,150475:0:0:0:0:
64,192,150475,1,0,0:0:0:0:
448,192,150600,128,8,150725:0:0:0:0:
320,192,150600,1,0,0:0:0:0:
192,192,150725,128,0,150850:0:0:0:0:
320,192,150850,128,0,150975:0:0:0:0:
64,192,150850,1,0,0:0:0:0:
448,192,150975,128,0,151100:0:0:0:0:
192,192,151100,128,0,151225:0:0:0:70:kick.wav
64,192,151100,1,0,0:0:0:0:
320,192,151225,1,0,0:0:0:0:
192,192,151350,128,0,151600:0:0:0:0:
64,192,151350,1,0,0:0:0:0:
320,192,151475,1,0,0:0:0:0:
448,192,151600,1,8,0:0:0:0:
64,192,151725,1,0,0:0:0:0:
192,192,151850,128,0,152100:0:0:0:0:
448,192,151850,1,0,0:0:0:0:
320,192,151975,1,0,0:0:0:0:
448,192,152100,128,0,152225:0:0:0:70:kick.wav
64,192,152100,1,0,0:0:0:0:
192,192,152225,1,0,0:0:0:0:
448,192,152350,128,0,152600:0:0:0:0:
320,192,152350,1,0,0:0:0:0:
64,192,152475,1,0,0:0:0:0:
320,192,152600,128,8,152850:0:0:0:0:
192,192,152600,1,0,0:0:0:0:
448,192,152725,1,0,0:0:0:0:
192,192,152850,128,0,153100:0:0:0:0:
64,192,152850,1,0,0:0:0:0:
320,192,152975,1,0,0:0:0:0:
64,192,153100,128,0,153350:0:0:0:70:kick.wav
448,192,153100,1,0,0:0:0:0:
320,192,153350,128,0,153600:0:0:0:0:
192,192,153350,1,0,0:0:0:0:
448,192,153600,128,8,153850:0:0:0:0:
64,192,153600,1,0,0:0:0:0:
192,192,153850,128,0,154100:0:0:0:0:
64,192,153850,1,0,0:0:0:0:
320,192,154100,1,0,0:0:0:70:kick.wav
448,192,154100,128,0,154350:0:0:0:0:
64,192,154350,128,0,154600:0:0:0:0:
192,192,154350,1,0,0:0:0:0:
192,192,154600,128,8,154850:0:0:0:0:
320,192,154600,1,0,0:0:0:0:
64,192,154725,1,0,0:0:0:0:
320,192,154850,128,0,155100:0:0:0:0:
448,192,154850,1,0,0:0:0:0:
192,192,154975,1,0,0:0:0:0:
64,192,155100,128,0,155350:0:0:0:70:kick.wav
448,192,155100,1,0,0:0:0:0:
320,192,155225,1,0,0:0:0:0:
448,192,155350,128,0,155600:0:0:0:0:
192,192,155350,1,0,0:0:0:0:
320,192,155475,1,0,0:0:0:0:
192,192,155600,128,8,155850:0:0:0:0:
64,192,155600,1,0,0:0:0:0:
448,192,155725,1,0,0:0:0:0:
64,192,155850,128,0,156100:0:0:0:0:
320,192,155850,1,0,0:0:0:0:
320,192,156100,128,0,156350:0:0:0:70:kick.wav
192,192,156100,1,0,0:0:0:0:
64,192,156350,128,0,156475:0:0:0:0:
448,192,156350,1,0,0:0:0:0:
320,192,156475,1,0,0:0:0:0:
64,192,156600,128,8,156725:0:0:0:0:
192,192,156600,1,0,0:0:0:0:
64,192,156850,128,0,156975:0:0:0:0:
448,192,156850,1,0,0:0:0:0:
320,192,157100,128,0,157225:0:0:0:70:kick.wav
192,192,157100,1,0,0:0:0:0:
448,192,157225,1,0,0:0:0:0:
192,192,157350,128,0,157475:0:0:0:0:
64,192,157350,1,0,0:0:0:0:
320,192,157475,1,0,0:0:0:0:
64,192,157600,128,8,157725:0:0:0:0:
448,192,157600,1,0,0:0:0:0:
192,192,157725,1,0,0:0:0:0:
448,192,157850,128,0,157975:0:0:0:0:
320,192,157850,1,0,0:0:0:0:
64,192,157975,1,0,0:0:0:0:
320,192,158100,128,0,158225:0:0:0:70:kick.wav
192,192,158100,1,0,0:0:0:0:
448,192,158225,1,0,0:0:0:0:
64,192,158350,128,0,158475:0:0:0:0:
192,192,158350,128,0,158600:0:0:0:0:
448,192,158600,128,8,158975:0:0:0:0:
320,192,158600,1,0,0:0:0:0:
64,192,158850,128,0,158975:0:0:0:0:
192,192,158850,128,0,158975:0:0:0:0:
320,192,159100,128,0,159225:0:0:0:70:LR_J Hit.wav
64,192,159100,1,4,0:0:0:0:
448,192,159100,1,0,0:0:0:70:kick.wav
320,192,159350,128,0,159600:0:0:0:0:
192,192,159350,1,0,0:0:0:0:
64,192,159600,1,8,0:0:0:0:
448,192,159725,1,0,0:0:0:0:
192,192,159850,128,0,160100:0:0:0:0:
320,192,159850,1,0,0:0:0:0:
64,192,159975,1,0,0:0:0:0:
320,192,160100,128,0,160225:0:0:0:70:kick.wav
448,192,160100,1,0,0:0:0:0:
192,192,160225,1,0,0:0:0:0:
320,192,160350,128,0,160600:0:0:0:0:
64,192,160350,1,0,0:0:0:0:
448,192,160475,1,0,0:0:0:0:
64,192,160600,128,8,160850:0:0:0:0:
192,192,160600,1,0,0:0:0:0:
320,192,160725,1,0,0:0:0:0:
192,192,160850,128,0,161100:0:0:0:0:
448,192,160850,1,0,0:0:0:0:
64,192,160975,1,0,0:0:0:0:
448,192,161100,128,0,161350:0:0:0:70:kick.wav
320,192,161100,1,0,0:0:0:0:
64,192,161350,128,0,161600:0:0:0:0:
192,192,161350,1,0,0:0:0:0:
320,192,161600,128,8,161850:0:0:0:0:
448,192,161600,1,0,0:0:0:0:
192,192,161850,128,0,162100:0:0:0:0:
448,192,161850,1,0,0:0:0:0:
64,192,162100,128,0,162350:0:0:0:70:kick.wav
320,192,162100,1,0,0:0:0:0:
448,192,162350,1,0,0:0:0:0:
192,192,162475,1,0,0:0:0:0:
64,192,162600,128,8,162850:0:0:0:0:
320,192,162600,1,0,0:0:0:0:
448,192,162725,1,0,0:0:0:0:
320,192,162850,128,0,163100:0:0:0:0:
192,192,162850,1,0,0:0:0:0:
448,192,163100,128,0,163350:0:0:0:70:kick.wav
64,192,163100,1,0,0:0:0:0:
192,192,163225,1,0,0:0:0:0:
64,192,163350,128,0,163600:0:0:0:0:
320,192,163350,1,0,0:0:0:0:
448,192,163475,1,0,0:0:0:0:
192,192,163600,128,8,163850:0:0:0:0:
320,192,163600,1,0,0:0:0:0:
64,192,163725,1,0,0:0:0:0:
320,192,163850,128,0,163975:0:0:0:0:
320,192,164100,128,0,164350:0:0:0:70:kick.wav
448,192,164100,1,0,0:0:0:0:
192,192,164350,128,0,164475:0:0:0:0:
64,192,164350,1,0,0:0:0:0:
320,192,164475,1,0,0:0:0:0:
192,192,164600,128,8,164850:0:0:0:0:
448,192,164600,1,0,0:0:0:0:
64,192,164850,128,0,165100:0:0:0:0:
320,192,164850,1,0,0:0:0:0:
320,192,165100,1,0,0:0:0:70:kick.wav
448,192,165100,128,0,165225:0:0:0:0:
192,192,165225,1,0,0:0:0:0:
448,192,165350,1,0,0:0:0:0:
64,192,165350,128,0,165475:0:0:0:0:
320,192,165475,1,0,0:0:0:0:
192,192,165600,128,8,165725:0:0:0:0:
64,192,165600,1,0,0:0:0:0:
448,192,165725,1,0,0:0:0:0:
192,192,165850,1,0,0:0:0:0:
320,192,165850,128,0,165975:0:0:0:0:
64,192,165975,1,0,0:0:0:0:
448,192,166100,1,0,0:0:0:70:kick.wav
320,192,166225,1,0,0:0:0:0:
64,192,166350,1,0,0:0:0:0:
192,192,166350,128,0,166475:0:0:0:0:
448,192,166475,1,0,0:0:0:0:
320,192,166600,128,8,166725:0:0:0:0:
192,192,166600,1,0,0:0:0:0:
64,192,166725,128,0,166850:0:0:0:0:
320,192,166850,128,0,166975:0:0:0:0:
448,192,166850,1,0,0:0:0:0:
192,192,166975,128,0,167100:0:0:0:0:
64,192,167100,128,0,167225:0:0:0:70:kick.wav
448,192,167100,1,0,0:0:0:0:
320,192,167225,1,0,0:0:0:0:
64,192,167350,128,0,167600:0:0:0:0:
192,192,167350,1,0,0:0:0:0:
448,192,167475,1,0,0:0:0:0:
320,192,167600,1,8,0:0:0:0:
64,192,167725,1,0,0:0:0:0:
448,192,167850,128,0,168100:0:0:0:0:
192,192,167850,1,0,0:0:0:0:
320,192,167975,1,0,0:0:0:0:
192,192,168100,128,0,168225:0:0:0:70:kick.wav
64,192,168100,1,0,0:0:0:0:
448,192,168225,1,0,0:0:0:0:
192,192,168350,128,0,168600:0:0:0:0:
320,192,168350,1,0,0:0:0:0:
64,192,168475,1,0,0:0:0:0:
320,192,168600,128,8,168850:0:0:0:0:
448,192,168600,1,0,0:0:0:0:
192,192,168725,1,0,0:0:0:0:
448,192,168850,128,0,169100:0:0:0:0:
64,192,168850,1,0,0:0:0:0:
320,192,168975,1,0,0:0:0:0:
192,192,169100,128,0,169350:0:0:0:70:kick.wav
64,192,169100,1,0,0:0:0:0:
320,192,169350,128,0,169600:0:0:0:0:
448,192,169350,1,0,0:0:0:0:
192,192,169600,128,8,169850:0:0:0:0:
64,192,169600,1,0,0:0:0:0:
448,192,169850,128,0,170100:0:0:0:0:
320,192,169850,1,0,0:0:0:0:
320,192,170100,1,0,0:0:0:70:kick.wav
192,192,170100,128,0,170350:0:0:0:0:
64,192,170350,128,0,170600:0:0:0:0:
448,192,170350,1,0,0:0:0:0:
320,192,170600,128,8,170850:0:0:0:0:
192,192,170600,1,0,0:0:0:0:
448,192,170725,1,0,0:0:0:0:
192,192,170850,128,0,171100:0:0:0:0:
64,192,170850,1,0,0:0:0:0:
320,192,170975,1,0,0:0:0:0:
64,192,171100,128,0,171350:0:0:0:70:kick.wav
448,192,171100,1,0,0:0:0:0:
192,192,171225,1,0,0:0:0:0:
448,192,171350,128,0,171600:0:0:0:0:
320,192,171350,1,0,0:0:0:0:
64,192,171475,1,0,0:0:0:0:
192,192,171600,128,8,171850:0:0:0:0:
320,192,171600,1,0,0:0:0:0:
448,192,171725,1,0,0:0:0:0:
320,192,171850,128,0,172100:0:0:0:0:
64,192,171850,1,0,0:0:0:0:
448,192,172100,128,0,172350:0:0:0:70:kick.wav
192,192,172100,1,0,0:0:0:0:
64,192,172350,128,0,172475:0:0:0:0:
320,192,172350,1,0,0:0:0:0:
192,192,172475,1,0,0:0:0:0:
64,192,172600,128,8,172725:0:0:0:0:
448,192,172600,1,0,0:0:0:0:
64,192,172850,128,0,172975:0:0:0:0:
320,192,172850,1,0,0:0:0:0:
448,192,173100,128,0,173225:0:0:0:70:kick.wav
64,192,173100,1,0,0:0:0:0:
320,192,173225,1,0,0:0:0:0:
64,192,173350,128,0,173475:0:0:0:0:
192,192,173350,1,0,0:0:0:0:
448,192,173475,1,0,0:0:0:0:
192,192,173600,128,8,173725:0:0:0:0:
320,192,173600,1,0,0:0:0:0:
64,192,173725,1,0,0:0:0:0:
320,192,173850,128,0,173975:0:0:0:0:
448,192,173850,1,0,0:0:0:0:
192,192,173975,1,0,0:0:0:0:
448,192,174100,128,0,174350:0:0:0:70:kick.wav
64,192,174100,1,0,0:0:0:0:
64,192,174350,128,0,174600:0:0:0:0:
192,192,174350,1,0,0:0:0:0:
320,192,174600,128,8,175100:0:0:0:0:
448,192,174600,128,0,175100:0:0:0:0:
192,192,174600,1,0,0:0:0:0:
64,192,175100,128,4,175225:0:0:0:0:
192,192,175100,1,0,0:0:0:70:LR_J Hit.wav
320,192,175225,1,0,0:0:0:0:
448,192,175350,128,0,175475:0:0:0:0:
64,192,175475,1,0,0:0:0:0:
448,192,175600,128,8,175725:0:0:0:0:
192,192,175600,1,0,0:0:0:0:
320,192,175725,1,0,0:0:0:0:
64,192,175850,1,0,0:0:0:0:
448,192,175975,1,0,0:0:0:0:
64,192,176100,128,0,176225:0:0:0:70:kick.wav
192,192,176100,1,0,0:0:0:0:
320,192,176225,1,0,0:0:0:0:
448,192,176350,1,0,0:0:0:0:
192,192,176475,128,0,176600:0:0:0:0:
64,192,176600,1,8,0:0:0:0:
320,192,176600,1,0,0:0:0:0:
192,192,176725,128,0,176850:0:0:0:0:
448,192,176850,1,0,0:0:0:0:
192,192,176975,128,0,177100:0:0:0:0:
64,192,177100,128,0,177225:0:0:0:70:kick.wav
448,192,177350,128,0,177475:0:0:0:0:
320,192,177475,1,0,0:0:0:0:
448,192,177600,128,8,177725:0:0:0:0:
64,192,177600,1,0,0:0:0:0:
192,192,177725,1,0,0:0:0:0:
320,192,177850,1,0,0:0:0:0:
64,192,177975,1,0,0:0:0:0:
448,192,178100,128,0,178225:0:0:0:70:kick.wav
192,192,178100,1,0,0:0:0:0:
320,192,178350,1,0,0:0:0:0:
192,192,178475,128,0,178600:0:0:0:0:
448,192,178600,1,8,0:0:0:0:
64,192,178600,1,0,0:0:0:0:
320,192,178725,128,0,178850:0:0:0:0:
192,192,178850,128,0,178975:0:0:0:0:
320,192,178975,128,0,179100:0:0:0:0:
64,192,179100,128,0,179225:0:0:0:70:kick.wav
192,192,179225,1,0,0:0:0:0:
448,192,179350,128,0,179475:0:0:0:0:
320,192,179475,1,0,0:0:0:0:
448,192,179600,128,8,179725:0:0:0:0:
64,192,179600,1,0,0:0:0:0:
192,192,179725,1,0,0:0:0:0:
320,192,179850,1,0,0:0:0:0:
64,192,179975,1,0,0:0:0:0:
448,192,180100,128,0,180225:0:0:0:70:kick.wav
192,192,180100,1,0,0:0:0:0:
320,192,180350,1,0,0:0:0:0:
192,192,180475,128,0,180600:0:0:0:0:
64,192,180600,1,8,0:0:0:0:
448,192,180600,1,0,0:0:0:0:
192,192,180725,128,0,180850:0:0:0:0:
448,192,180850,1,0,0:0:0:0:
192,192,180975,128,0,181100:0:0:0:0:
64,192,181100,128,0,181225:0:0:0:70:kick.wav
320,192,181225,1,0,0:0:0:0:
448,192,181350,128,0,181475:0:0:0:0:
192,192,181475,1,0,0:0:0:0:
448,192,181600,128,8,181725:0:0:0:0:
64,192,181600,1,0,0:0:0:0:
320,192,181725,1,0,0:0:0:0:
192,192,181850,1,0,0:0:0:0:
64,192,181975,1,0,0:0:0:0:
448,192,182100,128,0,182225:0:0:0:70:kick.wav
320,192,182100,1,0,0:0:0:0:
64,192,182350,1,0,0:0:0:0:
192,192,182475,128,0,182600:0:0:0:0:
448,192,182600,1,8,0:0:0:0:
320,192,182600,1,0,0:0:0:0:
192,192,182725,128,0,182850:0:0:0:70:LR_J Hit.wav
64,192,182725,1,0,0:0:0:0:
320,192,182850,128,0,182975:0:0:0:70:LR_J Hit.wav
448,192,182850,1,0,0:0:0:0:
192,192,182975,128,0,183100:0:0:0:70:LR_J Hit.wav
448,192,183100,128,0,183225:0:0:0:70:kick.wav
192,192,183225,1,0,0:0:0:0:
64,192,183350,128,0,183475:0:0:0:0:
448,192,183475,1,0,0:0:0:0:
64,192,183600,128,8,183725:0:0:0:0:
192,192,183600,1,0,0:0:0:0:
320,192,183725,1,0,0:0:0:0:
448,192,183850,1,0,0:0:0:0:
192,192,183975,1,0,0:0:0:0:
64,192,184100,128,0,184225:0:0:0:70:kick.wav
320,192,184100,1,0,0:0:0:0:
448,192,184225,1,0,0:0:0:0:
192,192,184350,1,0,0:0:0:0:
320,192,184475,128,0,184600:0:0:0:0:
448,192,184600,1,8,0:0:0:0:
64,192,184600,1,0,0:0:0:0:
320,192,184725,128,0,184850:0:0:0:0:
192,192,184850,1,0,0:0:0:0:
320,192,184975,128,0,185100:0:0:0:0:
448,192,185100,128,0,185225:0:0:0:70:kick.wav
192,192,185225,1,0,0:0:0:0:
64,192,185350,128,0,185475:0:0:0:0:
320,192,185475,1,0,0:0:0:0:
64,192,185600,128,8,185725:0:0:0:0:
448,192,185600,1,0,0:0:0:0:
192,192,185850,1,0,0:0:0:0:
448,192,185975,1,0,0:0:0:0:
64,192,186100,128,0,186225:0:0:0:70:kick.wav
320,192,186100,1,0,0:0:0:0:
192,192,186225,1,0,0:0:0:0:
448,192,186350,1,0,0:0:0:0:
320,192,186475,128,0,186600:0:0:0:0:
448,192,186600,1,8,0:0:0:0:
64,192,186600,1,0,0:0:0:0:
192,192,186725,128,0,186850:0:0:0:0:
320,192,186850,128,0,186975:0:0:0:0:
192,192,186975,128,0,187100:0:0:0:0:
448,192,187100,128,0,187225:0:0:0:70:kick.wav
320,192,187225,1,0,0:0:0:0:
64,192,187350,128,0,187475:0:0:0:0:
192,192,187475,1,0,0:0:0:0:
64,192,187600,128,8,187725:0:0:0:0:
448,192,187600,1,0,0:0:0:0:
320,192,187725,1,0,0:0:0:0:
192,192,187850,1,0,0:0:0:0:
448,192,187975,1,0,0:0:0:0:
64,192,188100,128,0,188225:0:0:0:70:kick.wav
320,192,188100,1,0,0:0:0:0:
192,192,188350,1,0,0:0:0:0:
320,192,188475,128,0,188600:0:0:0:0:
448,192,188600,1,8,0:0:0:0:
64,192,188600,1,0,0:0:0:0:
320,192,188725,128,0,188850:0:0:0:0:
192,192,188850,1,0,0:0:0:0:
320,192,188975,128,0,189100:0:0:0:0:
448,192,189100,128,0,189225:0:0:0:70:kick.wav
192,192,189225,1,0,0:0:0:0:
64,192,189350,128,0,189475:0:0:0:0:
320,192,189475,1,0,0:0:0:0:
64,192,189600,128,8,189725:0:0:0:0:
448,192,189600,1,0,0:0:0:0:
320,192,189725,1,0,0:0:0:0:
192,192,189850,1,0,0:0:0:0:
448,192,189975,1,0,0:0:0:0:
64,192,190100,128,0,190225:0:0:0:70:kick.wav
320,192,190100,1,0,0:0:0:0:
192,192,190225,1,0,0:0:0:0:
448,192,190350,1,0,0:0:0:0:
320,192,190475,128,0,190600:0:0:0:0:
64,192,190600,1,8,0:0:0:0:
192,192,190600,1,0,0:0:0:0:
320,192,190725,128,0,190850:0:0:0:70:LR_J Hit.wav
448,192,190725,1,0,0:0:0:0:
192,192,190850,128,0,190975:0:0:0:70:LR_J Hit.wav
64,192,190850,1,0,0:0:0:0:
320,192,190975,128,0,191100:0:0:0:70:LR_J Hit.wav
64,192,191100,128,0,191225:0:0:0:70:LR_J Hit.wav
448,192,191100,1,4,0:0:0:0:
192,192,191350,128,0,191475:0:0:0:0:
448,192,191475,1,0,0:0:0:0:
192,192,191600,128,0,191725:0:0:0:0:
320,192,191725,1,0,0:0:0:0:
64,192,191850,1,0,0:0:0:0:
448,192,192100,128,0,192225:0:0:0:0:
64,192,192350,1,0,0:0:0:0:
320,192,192475,128,0,192600:0:0:0:0:
320,192,192725,128,0,192850:0:0:0:0:
192,192,192725,1,0,0:0:0:0:
64,192,192850,1,0,0:0:0:0:
320,192,192975,128,0,193100:0:0:0:0:
448,192,192975,1,0,0:0:0:0:
64,192,193100,128,0,193225:0:0:0:0:
192,192,193100,1,0,0:0:0:0:
192,192,193350,128,0,193475:0:0:0:0:
448,192,193475,1,0,0:0:0:0:
192,192,193600,128,0,193725:0:0:0:0:
320,192,193850,1,0,0:0:0:0:
448,192,194100,128,0,194225:0:0:0:0:
64,192,194225,1,0,0:0:0:0:
192,192,194350,1,0,0:0:0:0:
320,192,194475,128,0,194600:0:0:0:0:
448,192,194600,1,0,0:0:0:0:
192,192,194725,128,0,194850:0:0:0:0:
64,192,194725,1,0,0:0:0:0:
320,192,194850,128,0,194975:0:0:0:0:
192,192,194975,128,0,195100:0:0:0:0:
448,192,195100,128,0,195225:0:0:0:0:
64,192,195100,1,0,0:0:0:0:
320,192,195350,128,0,195475:0:0:0:0:
64,192,195475,1,0,0:0:0:0:
320,192,195600,128,0,195725:0:0:0:0:
192,192,195725,1,0,0:0:0:0:
448,192,195850,1,0,0:0:0:0:
320,192,195975,1,0,0:0:0:0:
64,192,196100,128,0,196225:0:0:0:0:
192,192,196100,1,0,0:0:0:0:
320,192,196350,1,0,0:0:0:0:
192,192,196475,128,0,196600:0:0:0:0:
448,192,196600,1,0,0:0:0:0:
192,192,196725,128,0,196850:0:0:0:0:
64,192,196850,1,0,0:0:0:0:
192,192,196975,128,0,197100:0:0:0:0:
448,192,197100,128,0,197225:0:0:0:0:
320,192,197350,128,0,197475:0:0:0:0:
320,192,197600,128,0,197725:0:0:0:0:
64,192,197600,1,0,0:0:0:0:
192,192,197725,128,0,197850:0:0:0:0:
448,192,197850,128,0,199100:0:0:0:0:
320,192,197975,128,0,198100:0:0:0:0:
64,192,198100,128,0,198225:0:0:0:0:
192,192,198350,128,0,198475:0:0:0:0:
64,192,198475,128,0,198600:0:0:0:0:
320,192,198725,128,0,198850:0:0:0:0:
192,192,198850,128,0,198975:0:0:0:0:
320,192,198975,128,0,199100:0:0:0:0:
