osu file format v14

[General]
AudioFilename: audio.mp3
AudioLeadIn: 0
PreviewTime: -1
Countdown: 0
SampleSet: Normal
StackLeniency: 0.8
Mode: 0
LetterboxInBreaks: 0
WidescreenStoryboard: 0

[Editor]
DistanceSpacing: 0.5
BeatDivisor: 4
GridSize: 4
TimelineZoom: 1

[Metadata]
Title:On Fire
TitleUnicode:On Fire
Artist:Melano
ArtistUnicode:Melano
Creator:-flan-onee-
Version:Flame
Source:
Tags:eh idk anymore for these tags xd on fire i guess
BeatmapID:1428420
BeatmapSetID:675195

[Difficulty]
HPDrainRate:6
CircleSize:4
OverallDifficulty:7.4
ApproachRate:9
SliderMultiplier:1.4
SliderTickRate:2

[Events]
//Background and Video events
0,0,"OTqUadl.jpg",0,0
//Break Periods
//Storyboard Layer 0 (Background)
//Storyboard Layer 1 (Fail)
//Storyboard Layer 2 (Pass)
//Storyboard Layer 3 (Foreground)
//Storyboard Sound Samples

[TimingPoints]
2873,697.674418604651,4,1,0,100,1,0
57291,-76.9230769230769,4,1,0,100,0,1
103338,-76.9230769230769,4,1,0,100,0,0

[HitObjects]
88,304,2873,6,0,B|88:160|88:160|240:160|240:160|344:264|344:264|340:140,1,560
332,72,6448,1,0,0:0:0:0:
184,140,7059,1,0,0:0:0:0:
384,64,7756,1,0,0:0:0:0:
364,68,8454,2,0,B|216:72|216:72|220:208|220:208|364:248|364:248|256:312,1,560
248,292,11942,5,0,0:0:0:0:
252,188,12640,1,0,0:0:0:0:
348,228,13337,1,0,0:0:0:0:
256,288,14035,6,0,L|256:196,1,70
180,216,14907,2,0,L|124:180,1,35
192,136,15256,2,0,L|228:164,1,35
268,104,15605,2,0,L|228:76,1,35
344,64,16128,2,0,L|392:192,1,105
336,232,17872,6,0,L|296:232,1,35
288,300,18221,2,0,L|344:304,1,35
404,304,18570,2,0,L|408:256,1,35
408,200,19268,2,0,L|264:88,1,175
188,140,20489,6,0,L|156:160,1,35
184,232,20838,2,0,L|220:208,1,35
264,268,21186,2,0,L|228:296,1,35
376,232,21710,2,0,B|380:144|380:144|248:76,1,210
116,132,25198,5,0,0:0:0:0:
200,96,25896,2,0,B|352:96|352:96|412:212,1,280
336,228,27640,2,0,L|312:188,1,35
248,208,27989,2,0,L|272:268,1,35
172,260,28686,2,0,B|104:280|104:280|112:156|216:116,1,280
288,168,30431,2,0,L|336:204,1,35
256,192,31652,12,0,34966,0:0:0:0:
256,192,36361,5,0,0:0:0:0:
360,116,36710,1,0,0:0:0:0:
364,224,37233,2,0,B|360:296|292:280|292:280|184:320|160:264,1,245
176,184,39152,1,0,0:0:0:0:
100,80,39500,1,0,0:0:0:0:
192,72,40024,2,0,B|384:76|384:76|368:156,1,245
316,240,41942,5,0,0:0:0:0:
208,156,42291,1,0,0:0:0:0:
212,268,42814,2,0,B|360:232|360:232|336:200|400:124,1,245
168,108,44733,5,0,0:0:0:0:
336,96,45082,1,0,0:0:0:0:
260,184,45605,1,0,0:0:0:0:
260,216,45779,1,0,0:0:0:0:
360,228,46128,1,0,0:0:0:0:
360,188,46303,1,0,0:0:0:0:
148,224,46652,1,0,0:0:0:0:
148,180,46826,1,0,0:0:0:0:
248,224,47175,6,0,L|260:148,1,70
256,52,47872,1,0,0:0:0:0:
156,192,48396,1,0,0:0:0:0:
208,192,48570,1,0,0:0:0:0:
268,276,48919,1,0,0:0:0:0:
216,280,49093,1,0,0:0:0:0:
336,220,49442,1,0,0:0:0:0:
336,168,49617,1,0,0:0:0:0:
336,96,49966,2,0,L|248:96,1,70
180,160,50663,1,0,0:0:0:0:
228,252,51187,5,0,0:0:0:0:
300,192,51361,1,0,0:0:0:0:
312,272,51710,1,0,0:0:0:0:
212,168,51885,1,0,0:0:0:0:
180,88,52233,2,0,B|308:72|304:56|304:56|348:80,1,175
148,156,53454,5,0,0:0:0:0:
188,232,53977,1,0,0:0:0:0:
240,232,54152,1,0,0:0:0:0:
256,128,54500,1,0,0:0:0:0:
292,164,54675,1,0,0:0:0:0:
380,112,55024,1,0,0:0:0:0:
384,168,55198,1,0,0:0:0:0:
364,252,55547,1,0,0:0:0:0:
240,208,55896,5,0,0:0:0:0:
240,112,56245,1,0,0:0:0:0:
244,280,56768,1,0,0:0:0:0:
328,208,57292,5,0,0:0:0:0:
328,156,57379,1,0,0:0:0:0:
328,104,57466,1,0,0:0:0:0:
324,56,57553,1,0,0:0:0:0:
276,56,57640,1,0,0:0:0:0:
220,56,57728,1,0,0:0:0:0:
168,60,57815,1,0,0:0:0:0:
120,64,57902,1,0,0:0:0:0:
120,120,57989,1,0,0:0:0:0:
124,176,58076,1,0,0:0:0:0:
128,232,58164,1,0,0:0:0:0:
132,280,58251,1,0,0:0:0:0:
188,280,58338,1,0,0:0:0:0:
240,284,58425,1,0,0:0:0:0:
296,284,58512,1,0,0:0:0:0:
336,176,58686,5,0,0:0:0:0:
252,120,59035,1,0,0:0:0:0:
152,88,59384,2,0,L|120:180,1,90.9999958343508
220,192,60082,1,0,0:0:0:0:
312,264,60431,2,0,L|236:316,1,90.9999958343508
192,192,61128,1,0,0:0:0:0:
288,88,61477,5,0,0:0:0:0:
352,224,61826,2,0,P|296:252|280:252,1,60.6666638895672
240,240,62291,1,0,0:0:0:0:
240,184,62407,1,0,0:0:0:0:
240,128,62523,1,0,0:0:0:0:
244,76,62639,1,0,0:0:0:0:
192,76,62756,6,0,B|176:100|136:120|136:120|140:140,1,90.9999958343508
148,184,63338,1,0,0:0:0:0:
168,236,63454,1,0,0:0:0:0:
216,252,63570,1,0,0:0:0:0:
268,252,63686,1,0,0:0:0:0:
324,260,63803,2,0,P|344:304|384:320,1,90.9999958343508
416,264,64268,5,0,0:0:0:0:
272,300,64617,2,0,L|260:236,1,60.6666638895672
188,240,65140,1,0,0:0:0:0:
88,272,65431,2,0,P|44:224|80:144,1,151.666659723918
124,140,66128,1,0,0:0:0:0:
172,160,66245,1,0,0:0:0:0:
216,188,66361,1,0,0:0:0:0:
272,188,66477,2,0,B|284:80|284:80|344:120,1,151.666659723918
256,192,67407,12,0,69849,0:0:0:0:
144,88,70547,5,0,0:0:0:0:
192,88,70663,1,0,0:0:0:0:
244,88,70779,1,0,0:0:0:0:
240,140,70896,2,0,P|176:152|152:180,1,90.9999958343508
180,220,71361,1,0,0:0:0:0:
184,272,71477,1,0,0:0:0:0:
232,272,71593,2,0,B|344:204|344:204|384:288|384:288|420:252,1,272.999987503052
428,136,72989,1,0,0:0:0:0:
376,60,73338,5,0,0:0:0:0:
328,60,73454,1,0,0:0:0:0:
284,60,73570,1,0,0:0:0:0:
232,84,73686,2,0,B|152:72|184:92|184:92|156:108,1,90.9999958343508
176,164,74152,1,0,0:0:0:0:
224,188,74268,5,0,0:0:0:0:
288,188,74384,6,0,B|360:136|360:136|420:208|420:208|396:268|320:328,1,333.66665139262
332,232,76128,1,0,0:0:0:0:
332,192,76245,1,0,0:0:0:0:
336,144,76361,1,0,0:0:0:0:
336,104,76477,1,0,0:0:0:0:
288,88,76593,2,0,B|168:52|168:52|168:120|208:188,1,242.666655558269
240,256,77872,1,0,0:0:0:0:
256,192,78221,12,0,80314,0:0:0:0:
136,96,81012,5,0,0:0:0:0:
376,96,81361,1,0,0:0:0:0:
252,200,81710,1,0,0:0:0:0:
136,300,82059,1,0,0:0:0:0:
372,316,82407,1,0,0:0:0:0:
252,200,82756,1,0,0:0:0:0:
140,184,83105,1,0,0:0:0:0:
360,188,83454,1,0,0:0:0:0:
248,80,83803,5,0,0:0:0:0:
184,156,83977,1,0,0:0:0:0:
228,156,84152,1,0,0:0:0:0:
292,220,84500,1,0,0:0:0:0:
352,216,84617,2,0,B|400:104|392:104|392:104|256:76|452:40|452:40|308:40,1,424.66664722697
184,104,86593,5,0,0:0:0:0:
124,196,86942,1,0,0:0:0:0:
300,200,87291,1,0,0:0:0:0:
220,264,87640,1,0,0:0:0:0:
300,200,87989,1,0,0:0:0:0:
124,196,88338,1,0,0:0:0:0:
184,104,88686,1,0,0:0:0:0:
220,264,89035,1,0,0:0:0:0:
296,264,89384,2,0,B|320:152|320:152|392:200,1,181.999991668702
384,284,90431,1,0,0:0:0:0:
164,280,90779,5,0,0:0:0:0:
304,196,90954,1,0,0:0:0:0:
272,292,91128,1,0,0:0:0:0:
104,200,91303,1,0,0:0:0:0:
204,116,91477,1,0,0:0:0:0:
180,268,91593,2,0,L|284:152,1,151.666659723918
320,148,92524,5,0,0:0:0:0:
112,96,92872,1,0,0:0:0:0:
176,236,93221,1,0,0:0:0:0:
320,148,93570,1,0,0:0:0:0:
112,96,93919,1,0,0:0:0:0:
176,236,94268,1,0,0:0:0:0:
112,96,94617,1,0,0:0:0:0:
336,64,94966,5,0,0:0:0:0:
428,120,95140,1,0,0:0:0:0:
396,184,95314,2,0,L|308:144,1,90.9999958343508
252,112,95838,5,0,0:0:0:0:
176,56,96012,2,0,B|64:56|64:56|64:244,1,272.999987503052
152,144,97756,5,0,0:0:0:0:
444,120,98105,1,0,0:0:0:0:
304,128,98454,1,0,0:0:0:0:
152,144,98803,1,0,0:0:0:0:
304,128,99152,1,0,0:0:0:0:
444,120,99500,1,0,0:0:0:0:
152,144,99849,1,0,0:0:0:0:
304,128,100198,2,0,L|340:216,1,90.9999958343508
344,272,100896,1,0,0:0:0:0:
248,264,101245,5,0,0:0:0:0:
300,196,101593,1,0,0:0:0:0:
240,136,101942,5,0,0:0:0:0:
176,136,102059,1,0,0:0:0:0:
120,136,102175,1,0,0:0:0:0:
120,184,102291,1,0,0:0:0:0:
120,236,102407,1,0,0:0:0:0:
120,284,102524,1,0,0:0:0:0:
168,284,102640,1,0,0:0:0:0:
220,280,102756,2,0,L|336:172,1,151.666659723918
