osu file format v14

[General]
AudioFilename: audio.mp3
AudioLeadIn: 0
PreviewTime: -1
Countdown: 1
SampleSet: Normal
StackLeniency: 0.7
Mode: 0
LetterboxInBreaks: 0
WidescreenStoryboard: 1

[Editor]
Bookmarks: 97394
DistanceSpacing: 0.9
BeatDivisor: 4
GridSize: 4
TimelineZoom: 2.5

[Metadata]
Title:Mad Hatter (KXA Remix)
TitleUnicode:Mad Hatter (KXA Remix)
Artist:Melanie Martinez
ArtistUnicode:Melanie Martinez
Creator:Lolibear
Version:Insane
Source:
Tags:melanie martinez mad hatter kxa remix
BeatmapID:1493521
BeatmapSetID:697126

[Difficulty]
HPDrainRate:6
CircleSize:3
OverallDifficulty:6
ApproachRate:9
SliderMultiplier:1.4
SliderTickRate:1

[Events]
//Background and Video events
0,0,"hard.jpg",0,0
//Break Periods
//Storyboard Layer 0 (Background)
//Storyboard Layer 1 (Fail)
//Storyboard Layer 2 (Pass)
//Storyboard Layer 3 (Foreground)
//Storyboard Sound Samples

[TimingPoints]
58,326.086956521739,4,1,0,100,1,0
10325,-100,4,1,0,100,0,0
15710,-133.333333333333,4,1,0,100,0,0
17014,-50,4,1,0,100,0,0
18971,-133.333333333333,4,1,0,100,0,0
19786,-50,4,1,0,100,0,0
21579,-66.6666666666667,4,1,0,100,0,0
32666,-133.333333333333,4,1,0,100,0,0
35275,-200,4,1,0,100,0,0
37231,-66.6666666666667,4,1,0,100,0,0
73101,-50,4,1,0,100,0,0

[HitObjects]
88,304,10329,5,0,0:0:0:0:
164,236,10492,2,0,P|224:184|196:136,1,140
156,52,10981,1,0,0:0:0:0:
260,64,11144,2,0,B|312:88|344:108|320:132,1,105
248,192,11471,1,0,0:0:0:0:
296,312,11634,1,0,0:0:0:0:
156,144,11797,2,0,B|208:120|216:104|220:104,1,70
320,96,12123,5,0,0:0:0:0:
304,128,12286,1,0,0:0:0:0:
292,164,12449,1,0,0:0:0:0:
276,192,12612,1,0,0:0:0:0:
260,224,12775,1,0,0:0:0:0:
316,324,12938,2,0,P|400:332|440:272,1,140
472,204,13427,1,0,0:0:0:0:
472,204,13590,1,0,0:0:0:0:
472,204,13753,1,0,0:0:0:0:
472,204,13916,1,0,0:0:0:0:
424,104,14079,6,0,P|388:48|332:40,1,105
268,48,14405,2,0,B|236:56|244:68|252:84,1,35
224,148,14568,2,0,P|164:168|104:120,1,140
156,48,15057,1,0,0:0:0:0:
104,312,15384,1,0,0:0:0:0:
140,160,15710,6,0,L|140:40,1,105.000004005432
392,288,16362,2,0,L|392:164,1,105.000004005432
104,312,17014,2,0,P|128:200|164:168,1,140
256,64,17340,2,0,P|340:56|392:104,1,140
128,204,17666,2,0,B|120:64|120:56|128:56|428:52,1,420
448,264,18318,2,0,P|412:168|332:156,1,140
383,154,18644,1,0,0:0:0:0:
120,144,18971,2,0,L|120:56,1,78.7500030040742
240,88,19378,2,0,B|240:184,1,78.7500030040742
172,280,19786,2,0,B|168:244|148:240|132:236|116:232|128:228|144:224|168:216|188:208|204:204|224:196|240:188|200:168|176:160|136:144|104:136|104:116|180:100|252:88|300:92|368:112|424:168|252:176,1,490
408,304,20764,5,0,0:0:0:0:
404,200,20927,2,0,P|372:156|288:136,1,140
288,248,21253,1,0,0:0:0:0:
200,308,21579,2,0,P|140:336|56:308,1,157.500006008148
204,192,22068,1,0,0:0:0:0:
140,88,22394,2,0,P|208:48|256:64,2,105.000004005432
60,152,22884,1,0,0:0:0:0:
84,280,23210,1,0,0:0:0:0:
360,332,23536,6,0,B|428:328|448:272,1,105.000004005432
404,96,23862,2,0,B|444:124|436:204,1,105.000004005432
376,240,24188,2,0,B|288:252|216:220|196:220,1,157.500006008148
124,152,24677,2,0,P|136:96|160:100,1,52.5000020027161
236,144,24840,2,0,P|228:108|176:76,1,52.5000020027161
264,232,25003,2,0,P|184:256|100:248,1,157.500006008148
104,80,25655,2,0,B|204:36|232:84,1,105.000004005432
288,140,25981,1,0,0:0:0:0:
432,140,26144,2,0,B|412:68|352:80|364:44|364:40,2,105.000004005432
408,296,26797,6,0,B|328:292|288:184|240:184|128:216|112:204,1,315.000012016297
244,88,27449,2,0,P|128:108|112:168,2,157.500006008148
80,276,28101,2,0,B|124:256|152:312|156:344|180:324|200:308|224:280|248:268|248:340|248:356,1,210.000008010865
268,176,28590,2,0,B|256:144|212:116|188:92,1,105.000004005432
120,160,28916,2,0,P|192:200|224:248,1,105.000004005432
124,344,29242,2,0,B|84:265|128:201,1,105.000004005432
272,312,29568,2,0,P|296:244|384:228,1,157.500006008148
424,160,29894,1,0,0:0:0:0:
108,80,30139,6,0,P|112:136|88:208,1,105.000004005432
96,272,30384,1,0,0:0:0:0:
164,320,30465,2,0,P|232:328|304:300,1,105.000004005432
316,156,31036,1,0,0:0:0:0:
128,284,31362,5,0,0:0:0:0:
160,72,31688,1,0,0:0:0:0:
64,44,32014,2,0,B|56:124|124:180|144:180|192:156|192:136|188:120|192:116|196:104,1,210.000008010865
280,68,32503,1,0,0:0:0:0:
332,144,32666,2,0,B|340:264|240:160|232:264|232:276,1,183.750007009506
280,356,33644,1,0,0:0:0:0:
424,336,33971,2,0,B|440:236|448:180|424:184|376:184|368:300|284:248|284:276,1,288.750011014939
184,240,35112,1,0,0:0:0:0:
104,324,35275,2,0,P|56:284|52:228,1,105.000004005432
144,236,35927,1,0,0:0:0:0:
184,160,36253,2,0,B|256:172|236:240|240:240,1,105
284,320,36905,1,0,0:0:0:0:
392,340,37231,6,0,B|428:248|404:192|280:168|308:232,1,210.000008010865
284,320,37721,1,0,0:0:0:0:
296,216,37884,2,0,P|184:244|200:352,2,210.000008010865
352,288,38862,1,0,0:0:0:0:
464,336,39188,2,0,B|468:280|432:212|424:216,1,105.000004005432
468,132,39514,1,0,0:0:0:0:
372,32,39677,2,0,P|428:36|476:60,2,105.000004005432
268,40,40166,1,0,0:0:0:0:
76,196,40492,6,0,B|76:32|76:28|76:20|172:220|188:312|188:204|184:24|184:16,1,420.000016021729
164,140,41471,2,0,B|164:304|164:312|172:312|308:312|316:312|316:304|312:120|312:112,1,420.000016021729
308,192,42449,2,0,B|308:52|308:44|124:112|184:40|356:60|392:60,1,315.000012016297
224,112,43101,2,0,B|132:76|48:200|128:248|244:172|272:208|276:360|180:356|88:296,1,420.000016021729
104,212,44079,6,0,B|140:168|248:168,1,105.000004005432
200,316,44405,2,0,B|256:212|260:204|268:208|360:268|368:272,2,210.000008010865
164,68,45384,1,0,0:0:0:0:
88,280,45710,2,0,B|88:140|180:184|208:344|364:288|444:212|368:136,1,420.000016021729
352,84,46525,1,0,0:0:0:0:
448,92,46688,2,0,P|408:216|340:236,1,210.000008010865
220,328,47177,1,0,0:0:0:0:
116,276,47340,2,0,B|152:168|160:152|172:168|220:208|240:292|288:180|296:160|304:184|336:288|340:300|352:288|344:244|424:144,1,420.000016021729
436,80,48155,1,0,0:0:0:0:
392,216,48318,2,0,B|292:284|164:192|264:116|200:56|68:92|80:200,1,420.000016021729
132,328,49297,6,0,P|180:292|216:312,1,105.000004005432
432,152,49623,2,0,B|384:88|268:56|208:100|208:96,1,210.000008010865
120,216,50112,2,0,P|144:168|244:184,1,157.500006008148
276,308,50601,2,0,B|216:336|148:312|152:308,1,105.000004005432
176,212,50927,2,0,B|276:192|392:188|428:124|448:48|448:32|432:16|328:24|252:32|168:44|96:80,1,630.000024032594
96,296,52231,6,0,B|144:228|44:204|56:180|184:128,1,210.000008010865
300,152,52884,1,0,0:0:0:0:
300,152,52965,1,0,0:0:0:0:
300,152,53047,1,0,0:0:0:0:
412,216,53536,5,0,0:0:0:0:
140,300,53862,1,0,0:0:0:0:
84,232,54025,1,0,0:0:0:0:
136,108,54188,1,0,0:0:0:0:
136,108,54269,1,0,0:0:0:0:
136,108,54351,1,0,0:0:0:0:
248,100,54514,1,0,0:0:0:0:
248,216,54840,5,0,0:0:0:0:
344,272,55492,1,0,0:0:0:0:
344,272,55655,1,0,0:0:0:0:
464,320,56144,1,0,0:0:0:0:
448,104,56471,1,0,0:0:0:0:
448,104,56634,1,0,0:0:0:0:
192,104,56797,1,0,0:0:0:0:
200,128,56878,1,0,0:0:0:0:
216,156,56960,1,0,0:0:0:0:
312,148,57123,1,0,0:0:0:0:
324,176,57204,1,0,0:0:0:0:
340,208,57286,1,0,0:0:0:0:
320,312,57449,5,0,0:0:0:0:
424,340,57612,2,0,P|468:292|428:236,2,105.000004005432
340,232,58101,1,0,0:0:0:0:
340,232,58264,1,0,0:0:0:0:
328,76,58590,1,0,0:0:0:0:
92,124,58835,2,0,P|204:132|216:84,1,157.500006008148
272,180,59242,1,0,0:0:0:0:
192,252,59405,1,0,0:0:0:0:
192,252,59487,1,0,0:0:0:0:
192,252,59568,1,0,0:0:0:0:
192,252,59650,1,0,0:0:0:0:
192,252,59731,1,0,0:0:0:0:
420,80,60057,6,0,B|316:76|264:80|256:80|248:80|256:88|264:92|416:184,1,315.000012016297
408,268,60710,1,0,0:0:0:0:
408,268,60873,1,0,0:0:0:0:
348,228,61199,1,0,0:0:0:0:
348,228,61362,1,0,0:0:0:0:
56,204,61525,6,0,P|80:156|112:168,1,52.5000020027161
152,140,61688,1,0,0:0:0:0:
244,148,61851,1,0,0:0:0:0:
224,244,62014,1,0,0:0:0:0:
296,304,62177,1,0,0:0:0:0:
384,296,62340,1,0,0:0:0:0:
408,208,62503,1,0,0:0:0:0:
328,136,62666,2,0,B|328:196|460:88|424:4|480:176,1,210.000008010865
120,196,63318,6,0,L|124:128,1,52.5000020027161
220,148,63563,1,0,0:0:0:0:
320,144,63644,2,0,P|332:200|304:252,1,105.000004005432
272,344,63971,2,0,B|216:320|200:316|188:312|196:300|216:292|248:276|280:260|300:252|312:240|304:220|296:220|280:220|160:204,1,315.000012016297
256,116,64623,2,0,P|220:52|168:44,1,105.000004005432
108,48,64867,2,0,P|64:100|84:164,1,105.000004005432
96,212,65112,1,0,0:0:0:0:
96,304,65275,2,0,L|216:304,1,105.000004005432
384,340,65601,2,0,P|448:336|452:280,1,105.000004005432
408,228,65927,5,0,0:0:0:0:
436,144,66090,1,0,0:0:0:0:
456,64,66253,1,0,0:0:0:0:
372,56,66416,1,0,0:0:0:0:
284,40,66579,2,0,B|228:24|216:72|224:140|228:176|176:136|124:76|96:44|116:152|120:208|84:240|36:176,1,315.000012016297
144,300,67313,2,0,P|80:316|20:268,1,105.000004005432
244,156,67557,6,0,B|296:208|288:252|288:248,1,105.000004005432
212,296,67884,2,0,L|264:312,1,52.5000020027161
264,304,68047,2,0,L|284:248,1,52.5000020027161
288,256,68210,2,0,L|336:276,1,52.5000020027161
344,280,68373,2,0,L|404:300,1,52.5000020027161
393,296,68536,5,0,0:0:0:0:
396,304,68699,1,0,0:0:0:0:
432,224,68862,2,0,L|444:164,1,52.5000020027161
456,80,69025,5,0,0:0:0:0:
396,64,69188,1,0,0:0:0:0:
340,48,69351,1,0,0:0:0:0:
284,32,69514,1,0,0:0:0:0:
268,96,69677,1,0,0:0:0:0:
256,164,69840,1,0,0:0:0:0:
244,228,70003,1,0,0:0:0:0:
308,248,70166,1,0,0:0:0:0:
332,232,70329,1,0,0:0:0:0:
284,312,70492,2,0,L|292:300,114,13.125000500679
312,300,73101,6,0,B|168:288|156:288|164:280|256:208|268:200|440:256|412:252,1,367.500014019013
88,184,73753,2,0,P|116:180|116:176,1,35
92,212,73835,2,0,P|120:208|120:204,1,35
96,232,73916,2,0,P|124:228|124:224,1,35
104,268,73998,2,0,P|132:264|132:260,1,35
108,300,74079,2,0,P|136:296|136:292,1,35
268,316,74242,1,0,0:0:0:0:
396,300,74405,2,0,P|440:328|516:324,1,70
464,64,74731,5,0,0:0:0:0:
464,64,74894,1,0,0:0:0:0:
464,64,75057,1,0,0:0:0:0:
452,164,75221,2,0,B|452:256|352:260,2,140
340,152,75710,2,0,P|216:212|400:336,1,420
104,208,76362,1,0,0:0:0:0:
444,312,76688,5,0,0:0:0:0:
444,312,76851,1,0,0:0:0:0:
444,312,77014,1,0,0:0:0:0:
432,184,77177,1,0,0:0:0:0:
332,120,77340,2,0,B|348:40|472:92|388:72,1,70
468,56,77503,1,0,0:0:0:0:
416,144,77666,2,0,P|356:204|252:232,1,140
432,312,77992,1,0,0:0:0:0:
436,316,78155,1,0,0:0:0:0:
192,344,78318,2,0,P|84:252|144:24,1,350
360,132,78971,2,0,P|372:120|380:124,8,17.5
248,80,79297,5,0,0:0:0:0:
152,76,79460,1,0,0:0:0:0:
52,68,79623,1,0,0:0:0:0:
360,76,79949,5,0,0:0:0:0:
468,40,80112,1,0,0:0:0:0:
448,140,80275,1,0,0:0:0:0:
224,316,80601,2,0,B|300:248|344:312|384:264|380:192|376:136|268:176|264:176|244:184,1,280
96,240,81253,5,0,0:0:0:0:
236,332,81579,1,0,0:0:0:0:
308,112,81905,1,0,0:0:0:0:
252,56,82068,1,0,0:0:0:0:
188,128,82231,2,0,P|200:116|208:120,56,17.5
440,216,83536,6,0,B|332:188|248:188|84:244|64:368,1,420
428,312,84188,2,0,L|440:324,16,17.5
416,212,84677,2,0,P|376:160|356:160,1,70
304,108,84840,2,0,L|160:128,1,140
72,160,85166,2,0,P|100:204|172:184,1,70
96,324,85492,1,0,0:0:0:0:
464,96,85818,1,0,0:0:0:0:
384,132,86144,6,0,P|348:68|276:44,1,140
136,68,86471,1,0,0:0:0:0:
320,328,86797,1,0,0:0:0:0:
352,148,87123,1,0,0:0:0:0:
176,216,87286,2,0,P|216:308|228:304,1,140
300,276,87612,1,0,0:0:0:0:
316,240,87775,1,0,0:0:0:0:
340,192,87938,1,0,0:0:0:0:
364,148,88101,1,0,0:0:0:0:
388,112,88264,1,0,0:0:0:0:
416,76,88427,1,0,0:0:0:0:
176,316,88753,6,0,P|376:260|432:64,1,420
144,124,89405,2,0,L|128:132,16,17.5
76,248,89894,1,0,0:0:0:0:
208,272,90057,1,0,0:0:0:0:
404,320,90384,1,0,0:0:0:0:
488,336,90547,1,0,0:0:0:0:
456,256,90710,1,0,0:0:0:0:
212,168,90873,2,0,B|132:140|124:108|100:76|44:104|60:148|180:272,1,280
108,320,91362,5,0,0:0:0:0:
296,320,91688,2,0,P|392:320|436:284,2,140
120,236,92177,1,0,0:0:0:0:
336,316,92340,1,0,0:0:0:0:
368,104,92503,2,0,L|280:72,1,70
240,88,92666,1,0,0:0:0:0:
240,88,92829,2,0,P|208:80|184:40,1,70
144,144,92992,1,0,0:0:0:0:
88,252,93155,5,0,0:0:0:0:
88,252,93237,1,0,0:0:0:0:
88,252,93318,1,0,0:0:0:0:
232,308,93481,2,0,P|160:308|144:280,1,70
208,224,93644,1,0,0:0:0:0:
296,220,93726,2,0,P|312:140|244:96,1,140
204,72,93971,2,0,L|208:176,4,70
292,68,94378,1,0,0:0:0:0:
388,248,94623,2,0,P|428:192|412:128,1,140
304,156,95030,2,0,P|300:240|244:284,1,140
272,100,95356,6,0,P|344:64|280:256,1,490
120,148,96090,1,0,0:0:0:0:
220,168,96172,2,0,L|224:144,16,17.5
324,96,96579,2,0,B|156:52|116:44|136:96|272:208,1,350
420,64,97231,2,0,P|396:64|400:64,1,17.5
424,96,97313,2,0,P|400:96|404:96,1,17.5
424,132,97394,2,0,P|400:132|404:132,1,17.5
428,160,97476,2,0,P|404:160|408:160,1,17.5
428,192,97557,2,0,P|404:192|408:192,1,17.5
268,316,97720,1,0,0:0:0:0:
396,300,97883,2,0,P|440:328|516:324,1,70
64,336,98209,5,0,0:0:0:0:
64,336,98372,1,0,0:0:0:0:
64,336,98535,1,0,0:0:0:0:
452,164,98699,2,0,B|452:256|352:260,2,140
412,64,99188,2,0,P|312:208|136:80,1,420
104,208,99840,1,0,0:0:0:0:
96,56,100166,5,0,0:0:0:0:
96,56,100329,1,0,0:0:0:0:
96,56,100492,1,0,0:0:0:0:
228,56,100655,1,0,0:0:0:0:
340,64,100818,2,0,L|416:60,1,70
409,60,100981,1,0,0:0:0:0:
468,144,101144,2,0,P|408:204|368:268,1,140
432,312,101470,1,0,0:0:0:0:
436,316,101633,1,0,0:0:0:0:
120,336,101797,2,0,P|276:268|160:160,1,350
360,132,102449,2,0,P|372:120|380:124,8,17.5
340,220,102775,5,0,0:0:0:0:
300,292,102938,1,0,0:0:0:0:
256,356,103101,1,0,0:0:0:0:
84,324,103427,5,0,0:0:0:0:
48,232,103590,1,0,0:0:0:0:
140,252,103753,1,0,0:0:0:0:
224,316,104079,2,0,B|300:248|344:312|384:264|380:192|376:136|268:176|264:176|244:184,1,280
96,240,104731,5,0,0:0:0:0:
236,332,105057,1,0,0:0:0:0:
308,112,105383,1,0,0:0:0:0:
252,56,105546,1,0,0:0:0:0:
188,128,105709,2,0,P|200:116|208:120,56,17.5
440,216,107014,6,0,B|384:308|308:344|228:376|64:368,1,420
428,312,107666,2,0,L|440:324,16,17.5
416,212,108155,2,0,P|376:160|356:160,1,70
304,108,108318,2,0,L|160:128,1,140
56,128,108644,2,0,P|68:80|144:40,1,140
248,44,108970,1,0,0:0:0:0:
464,96,109296,1,0,0:0:0:0:
384,132,109622,6,0,P|348:68|276:44,1,140
280,152,109949,1,0,0:0:0:0:
320,328,110275,1,0,0:0:0:0:
352,148,110601,1,0,0:0:0:0:
176,216,110764,2,0,P|216:308|228:304,1,140
312,312,111090,1,0,0:0:0:0:
360,300,111253,1,0,0:0:0:0:
328,268,111416,1,0,0:0:0:0:
312,312,111579,1,0,0:0:0:0:
360,300,111742,1,0,0:0:0:0:
328,268,111905,1,0,0:0:0:0:
176,316,112231,6,0,P|236:120|432:64,1,420
144,124,112883,2,0,L|128:132,16,17.5
76,248,113372,1,0,0:0:0:0:
208,272,113535,1,0,0:0:0:0:
272,48,113862,1,0,0:0:0:0:
308,132,114025,1,0,0:0:0:0:
360,64,114188,1,0,0:0:0:0:
324,336,114351,2,0,B|448:332|520:328|464:308|452:288|380:264|428:204,1,280
408,96,114840,2,0,L|416:120,8,17.5
280,72,115166,5,0,0:0:0:0:
72,332,115492,1,0,0:0:0:0:
432,328,115818,2,0,P|436:248|400:240,1,70
436,188,115981,1,0,0:0:0:0:
384,76,116144,2,0,P|288:52|256:72,1,140
200,132,116389,1,0,0:0:0:0:
200,132,116471,1,0,0:0:0:0:
76,64,116634,2,0,P|56:144|68:160,1,70
72,196,116960,1,0,0:0:0:0:
168,288,117123,1,0,0:0:0:0:
296,320,117286,1,0,0:0:0:0:
