osu file format v14

[General]
AudioFilename: audio.mp3
AudioLeadIn: 0
PreviewTime: 186255
Countdown: 0
SampleSet: Soft
StackLeniency: 0.7
Mode: 0
LetterboxInBreaks: 0
WidescreenStoryboard: 1

[Editor]
Bookmarks: 33030,100530,120030,139230,144030,147930,167805,187230,192030,196830,201630
DistanceSpacing: 1
BeatDivisor: 4
GridSize: 8
TimelineZoom: 2

[Metadata]
Title:Cry Baby
TitleUnicode:Cry Baby
Artist:Melanie Martinez (American Avenue Cover)
ArtistUnicode:Melanie Martinez (American Avenue Cover)
Creator:7uprime
Version:Normal
Source:
Tags:hellsing OVA Ultimate AMV rock American Avenue ft. Kalie Wolfe Cry Baby
BeatmapID:1432922
BeatmapSetID:673136

[Difficulty]
HPDrainRate:4
CircleSize:3
OverallDifficulty:4
ApproachRate:5
SliderMultiplier:1.00000000596046
SliderTickRate:1

[Events]
//Background and Video events
0,0,"ava2.png",0,0
//Break Periods
2,72230,75510
2,185029,186030
//Storyboard Layer 0 (Background)
//Storyboard Layer 1 (Fail)
//Storyboard Layer 2 (Pass)
//Storyboard Layer 3 (Foreground)
//Storyboard Sound Samples

[TimingPoints]
11730,300,4,2,0,36,1,0
38430,-133.333333333333,4,2,0,36,0,0
39030,-100,4,2,0,36,0,0
52830,-100,4,2,0,36,0,1
55230,-100,4,2,0,36,0,0
57630,-100,4,2,0,36,0,1
59730,-100,4,2,0,36,0,0
62430,-100,4,2,0,36,0,1
64830,-100,4,2,0,36,0,0
69630,-100,4,2,0,36,0,1
72030,-100,4,2,0,36,0,0
76830,-133.333333333333,4,2,0,36,0,0
78630,-100,4,2,0,36,0,0
117930,-133.333333333333,4,2,0,36,0,0
118980,-100,4,2,0,36,0,0
120030,-100,4,2,0,36,0,1
122430,-100,4,2,0,36,0,0
124830,-100,4,2,0,36,0,1
126930,-100,4,2,0,36,0,0
129630,-100,4,2,0,36,0,1
132030,-100,4,2,0,36,0,0
136830,-100,4,2,0,36,0,1
141630,-100,4,2,0,36,0,0
144030,-100,4,2,0,36,0,1
146430,-100,4,2,0,36,0,0
184230,-200,4,2,0,36,0,0
184830,-100,4,2,0,36,0,0
187230,-100,4,2,0,36,0,1
206430,-100,4,2,0,36,0,0

[HitObjects]
256,192,11730,12,0,13530,0:0:0:0:
112,88,14430,6,0,P|156:67|220:58,1,100.000000596046,8|0,0:0|0:0,0:0:0:0:
304,56,15030,1,8,0:0:0:0:
376,128,15330,2,0,P|397:202|383:239,2,100.000000596046
303,54,16230,1,8,0:0:0:0:
208,40,16530,6,0,P|160:48|112:88,1,100.000000596046
112,176,17130,2,0,B|144:224|144:224|192:248,1,100.000000596046,0|8,0:0|0:0,0:0:0:0:
272,288,17730,5,0,0:0:0:0:
368,312,18030,2,0,P|381:304|392:131,1,200.000001192092
336,80,18930,5,8,0:0:0:0:
240,80,19230,2,0,P|217:146|224:184,1,100.000000596046
232,224,19680,2,0,B|176:264,1,50.000000298023,0|8,0:0|0:0,0:0:0:0:
104,312,20130,1,0,0:0:0:0:
64,224,20430,2,0,P|72:160|176:72,1,200.000001192092
272,56,21330,5,0,0:0:0:0:
344,120,21630,2,0,P|368:168|352:224,1,100.000000596046
304,296,22230,1,8,0:0:0:0:
208,312,22530,2,0,P|152:312|112:272,2,100.000000596046
304,296,23430,1,8,0:0:0:0:
264,200,23730,5,8,0:0:0:0:
208,112,24030,2,0,B|152:128|144:200,1,100.000000596046
120,280,24630,1,8,0:0:0:0:
216,312,24930,2,0,P|250:319|272:312,1,50.000000298023
312,296,25230,2,0,P|328:256|320:184,1,100.000000596046
312,104,25830,1,8,0:0:0:0:
216,88,26130,6,0,P|149:97|115:122,1,100.000000596046
64,200,26730,2,0,P|93:258|136:288,1,100.000000596046,0|8,0:0|0:0,0:0:0:0:
208,336,27330,1,8,0:0:0:0:
272,264,27630,2,0,P|303:248|384:248,2,100.000000596046,0|0|8,0:0|0:0|0:0,0:0:0:0:
208,336,28530,5,8,0:0:0:0:
176,240,28830,2,0,P|112:216|96:176,1,100.000000596046,8|0,0:0|0:0,0:0:0:0:
72,96,29430,1,8,0:0:0:0:
160,48,29730,1,8,0:0:0:0:
248,96,30030,2,0,P|352:136|408:216,1,200.000001192092
424,304,30930,5,8,0:0:0:0:
328,312,31230,2,0,P|278:310|237:283,1,100.000000596046
168,208,31830,1,8,0:0:0:0:
144,112,32130,5,0,0:0:0:0:
232,56,32430,2,0,B|344:104|384:208,1,200.000001192092,0|4,0:0|0:0,0:0:0:0:
408,312,33630,5,0,0:0:0:0:
400,304,33930,1,0,0:0:0:0:
392,296,34230,1,4,0:0:0:0:
384,288,34530,1,0,0:0:0:0:
376,280,34830,1,0,0:0:0:0:
368,272,35130,1,0,0:0:0:0:
360,264,35430,1,4,0:0:0:0:
352,256,35730,1,0,0:0:0:0:
272,200,36030,6,0,P|204:183|168:201,1,100.000000596046
104,256,36630,1,4,0:0:0:0:
96,256,36930,1,0,0:0:0:0:
56,168,37230,2,0,P|64:112|96:72,1,100.000000596046
184,56,37830,1,4,0:0:0:0:
280,56,38130,2,4,L|336:56,1,50.000000298023
368,56,38430,2,0,B|424:120|400:200,1,150.000006616115,4|4,0:0|0:0,0:0:0:0:
368,288,39330,5,0,0:0:0:0:
352,296,39630,1,0,0:0:0:0:
336,304,39930,1,0,0:0:0:0:
240,312,40230,2,0,B|232:280|240:208,1,100.000000596046,4|0,0:0|0:0,0:0:0:0:
232,112,40830,6,0,L|178:128,1,50.000000298023
152,151,41130,2,0,B|130:202|130:202|128:256,1,100.000000596046,0|4,0:0|0:0,0:0:0:0:
152,344,41730,6,0,P|192:344|208:336,1,50.000000298023
232,304,42030,2,0,P|272:240|384:272,1,200.000001192092,0|4,0:0|0:0,0:0:0:0:
408,304,42780,1,4,0:0:0:0:
440,160,43230,5,0,0:0:0:0:
432,152,43530,1,0,0:0:0:0:
344,104,43830,1,4,0:0:0:0:
248,64,44130,1,0,0:0:0:0:
152,64,44430,2,0,P|128:112|136:176,1,100.000000596046
216,200,45030,2,0,P|255:258|256:304,2,100.000000596046,4|0|0,0:0|0:0|0:0,0:0:0:0:
240,104,45930,6,0,P|294:92|352:112,1,100.000000596046,0|4,0:0|0:0,0:0:0:0:
416,160,46530,1,0,0:0:0:0:
416,256,46830,1,0,0:0:0:0:
336,320,47130,1,0,0:0:0:0:
240,328,47430,2,4,P|190:323|152:272,1,100.000000596046
112,200,48030,2,0,P|155:123|248:160,1,200.000001192092,4|4,0:0|0:0,0:0:0:0:
304,232,48930,5,0,0:0:0:0:
384,176,49230,1,0,0:0:0:0:
320,104,49530,1,0,0:0:0:0:
224,88,49830,2,0,B|200:64|200:32,1,50.000000298023,4|0,0:0|0:0,0:0:0:0:
256,192,50130,12,0,51930,0:0:0:0:
112,56,52830,6,0,B|192:56|192:56|248:120,1,150.000000894069
272,144,53430,1,4,0:0:0:0:
232,232,53730,1,4,0:0:0:0:
256,328,54030,6,0,B|344:320|344:320|384:264,1,150.000000894069
400,224,54630,1,4,0:0:0:0:
416,128,54930,6,4,P|355:85|316:85,1,100.000000596046,4|0,0:0|0:0,0:0:0:0:
232,96,55530,5,0,0:0:0:0:
224,104,55830,1,4,0:0:0:0:
216,112,56130,1,0,0:0:0:0:
160,192,56430,2,0,B|192:240|192:240|232:260,1,100.000000596046
328,240,57030,2,4,B|352:224|344:184,1,50.000000298023
368,96,57480,5,0,0:0:0:0:
320,72,57630,2,0,B|216:48|176:112,1,150.000000894069
144,136,58230,1,4,0:0:0:0:
160,232,58530,1,4,0:0:0:0:
232,296,58830,6,0,B|282:360|373:330,1,150.000000894069
416,312,59430,1,4,0:0:0:0:
408,208,59730,2,0,B|432:160|432:160|440:112,1,100.000000596046,4|0,0:0|0:0,0:0:0:0:
416,64,60330,5,0,0:0:0:0:
400,64,60630,1,4,0:0:0:0:
384,64,60930,1,0,0:0:0:0:
288,72,61230,2,0,P|253:82|224:144,1,100.000000596046,0|0,2:0|2:0,2:0:0:0:
232,240,61830,2,0,B|304:224|336:184,1,100.000000596046,4|0,0:0|0:0,0:0:0:0:
408,144,62430,6,0,B|416:224|416:224|380:282,1,150.000000894069
352,328,63030,1,4,0:0:0:0:
256,328,63330,1,4,0:0:0:0:
168,280,63630,6,0,B|120:224|120:224|127:149,1,150.000000894069
128,96,64230,1,4,0:0:0:0:
216,48,64530,6,0,P|284:49|317:72,1,100.000000596046,4|0,0:0|0:0,0:0:0:0:
368,144,65130,5,0,0:0:0:0:
368,160,65430,1,4,0:0:0:0:
368,176,65730,1,0,0:0:0:0:
336,272,66030,2,0,B|296:304|296:304|236:306,1,100.000000596046
200,216,66630,2,4,B|184:192|184:192|144:184,1,50.000000298023
72,232,67080,5,4,0:0:0:0:
64,216,67230,2,0,P|48:148|74:111,1,100.000000596046,4|0,0:0|0:0,0:0:0:0:
136,56,67830,2,4,P|200:48|241:57,1,100.000000596046
320,104,68430,1,0,0:0:0:0:
336,120,68730,1,0,0:0:0:0:
392,200,69030,2,0,B|424:264|408:312,1,100.000000596046,4|0,0:0|0:0,0:0:0:0:
320,336,69630,6,0,P|290:308|280:280,1,50.000000298023,4|0,0:0|0:0,0:0:0:0:
296,248,69930,2,0,P|279:210|256:192,1,50.000000298023,4|0,0:0|0:0,0:0:0:0:
224,216,70230,2,0,P|194:188|184:160,1,50.000000298023,4|0,0:0|0:0,0:0:0:0:
216,136,70530,2,0,P|199:98|176:80,1,50.000000298023,4|0,0:0|0:0,0:0:0:0:
152,64,70830,2,0,B|104:85|82:125|82:125|96:160|96:160|80:199|80:199|96:224|96:224|112:232,1,200.000001192092,4|4,0:0|0:0,0:0:0:0:
176,280,71730,1,4,0:0:0:0:
272,312,72030,1,0,0:0:0:0:
176,88,76830,6,0,B|192:176|192:176|176:240,1,150.000006616115
166,258,77730,1,0,0:0:0:0:
336,88,78030,2,0,B|320:176|320:176|336:240,1,150.000006616115
343,256,78930,1,0,0:0:0:0:
256,192,79080,12,0,80730,0:0:0:0:
336,336,81330,5,0,0:0:0:0:
384,248,81630,6,0,B|392:200|392:200|376:152,1,100.000000596046,8|0,0:0|0:0,0:0:0:0:
320,72,82230,1,8,0:0:0:0:
224,56,82530,1,0,0:0:0:0:
136,104,82830,2,0,L|97:200,1,100.000000596046
64,288,83430,1,0,0:0:0:0:
160,288,83730,5,0,0:0:0:0:
248,248,84030,2,0,P|281:218|304:144,1,100.000000596046,8|0,0:0|0:0,0:0:0:0:
312,64,84630,1,8,0:0:0:0:
296,64,84930,1,0,0:0:0:0:
200,64,85230,2,0,B|80:152|80:152|80:304,1,300.000001788138,0|8,0:0|0:0,0:0:0:0:
80,328,86430,1,8,0:0:0:0:
176,336,86730,5,0,0:0:0:0:
272,296,87030,2,0,B|320:268|320:268|344:216,1,100.000000596046,8|0,0:0|0:0,0:0:0:0:
352,128,87630,2,0,B|312:88|312:88|250:82,1,100.000000596046
216,80,88080,2,0,P|152:128|136:208,1,150.000000894069
144,296,88830,5,0,0:0:0:0:
160,304,89130,1,0,0:0:0:0:
256,336,89430,2,0,B|304:304|304:304|320:264,1,100.000000596046,8|0,0:0|0:0,0:0:0:0:
352,168,90030,6,0,P|264:112|168:112,1,200.000001192092
72,136,90930,5,0,0:0:0:0:
104,232,91230,2,0,P|125:276|165:305,1,100.000000596046,8|0,0:0|0:0,0:0:0:0:
264,320,91830,1,8,0:0:0:0:
280,320,92130,1,0,0:0:0:0:
360,256,92430,2,0,P|399:225|424:182,2,100.000000596046
280,320,93330,5,0,0:0:0:0:
224,240,93630,2,0,L|176:144,1,100.000000596046,8|0,0:0|0:0,0:0:0:0:
136,64,94230,1,8,0:0:0:0:
152,56,94530,1,0,0:0:0:0:
248,40,94830,2,0,B|320:112|320:112|336:224,1,200.000001192092
336,312,95730,5,8,0:0:0:0:
240,328,96030,2,0,P|192:288|192:232,1,100.000000596046,8|0,0:0|0:0,0:0:0:0:
184,152,96630,1,8,0:0:0:0:
280,136,96930,1,8,0:0:0:0:
376,176,97230,2,0,P|428:221|436:260,2,100.000000596046
280,136,98130,5,0,0:0:0:0:
184,168,98430,2,0,P|152:183|112:256,1,100.000000596046
184,312,99030,2,0,P|242:348|288:336,1,100.000000596046,8|0,2:0|2:0,2:0:0:0:
360,288,99630,2,0,P|384:208|304:240,1,200.000001192092,0|4,0:0|0:0,0:0:0:0:
200,328,100830,5,0,0:0:0:0:
168,264,101130,1,0,0:0:0:0:
128,200,101430,1,4,0:0:0:0:
88,136,101730,1,0,0:0:0:0:
144,88,102030,1,0,0:0:0:0:
200,40,102330,1,0,0:0:0:0:
256,88,102630,1,4,0:0:0:0:
312,136,102930,1,0,0:0:0:0:
360,192,103230,6,0,P|345:260|313:284,1,100.000000596046,4|0,0:0|0:0,0:0:0:0:
232,312,103830,1,4,0:0:0:0:
136,280,104130,1,0,0:0:0:0:
72,200,104430,2,0,P|77:132|120:106,1,100.000000596046
192,80,105030,1,4,0:0:0:0:
288,80,105330,2,4,L|344:80,1,50.000000298023
392,80,105630,2,4,B|424:176|424:176|384:280,1,200.000001192092
320,336,106530,5,0,0:0:0:0:
304,336,106830,1,0,0:0:0:0:
288,336,107130,1,0,0:0:0:0:
208,280,107430,2,0,B|195:249|208:168,1,100.000000596046,4|0,0:0|0:0,0:0:0:0:
232,80,108030,6,4,L|286:96,1,50.000000298023
328,112,108330,2,0,B|344:168|344:168|328:224,1,100.000000596046,0|4,0:0|0:0,0:0:0:0:
288,296,108930,6,0,P|248:296|240:280,1,50.000000298023,4|0,0:0|0:0,0:0:0:0:
224,248,109230,2,0,P|184:184|150:270,1,200.000001192092,4|4,0:0|0:0,0:0:0:0:
176,304,109980,1,4,0:0:0:0:
288,296,110430,5,0,0:0:0:0:
304,280,110730,1,0,0:0:0:0:
376,208,111030,1,4,0:0:0:0:
384,112,111330,1,0,0:0:0:0:
320,40,111630,2,0,P|264:48|224:80,1,100.000000596046
152,136,112230,2,0,P|113:194|112:240,2,100.000000596046,4|0|0,0:0|0:0|0:0,0:0:0:0:
240,184,113130,6,0,P|280:212|329:220,1,100.000000596046,0|4,0:0|0:0,0:0:0:0:
424,192,113730,1,0,0:0:0:0:
448,96,114030,1,0,0:0:0:0:
424,192,114330,1,0,0:0:0:0:
376,280,114630,2,0,P|341:315|293:319,1,100.000000596046,4|4,0:0|0:0,0:0:0:0:
192,304,115230,2,0,P|118:262|187:213,1,200.000001192092,4|4,0:0|0:0,0:0:0:0:
288,232,116130,5,0,0:0:0:0:
304,216,116430,1,0,0:0:0:0:
320,200,116730,5,0,0:0:0:0:
392,136,117030,2,4,B|400:120|384:80,1,50.000000298023,0|0,0:0|0:0,0:0:0:0:
240,72,117630,5,4,0:0:0:0:
208,72,117930,2,4,L|163:74,1,37.5000016540288
88,152,118530,5,4,0:0:0:0:
88,184,118830,2,4,L|88:232,1,37.5000016540288
88,336,119430,1,4,0:0:0:0:
184,328,119730,1,4,0:0:0:0:
280,304,120030,6,0,B|368:288|368:288|416:240,1,150.000000894069,4|0,0:0|0:0,0:0:0:0:
440,200,120630,1,4,0:0:0:0:
448,104,120930,1,4,0:0:0:0:
352,72,121230,6,0,B|272:72|272:72|192:104,1,150.000000894069,4|0,0:0|0:0,0:0:0:0:
160,120,121830,1,4,0:0:0:0:
120,208,122130,6,0,P|181:251|220:251,1,100.000000596046,4|0,0:0|0:0,0:0:0:0:
304,248,122730,5,0,0:0:0:0:
320,248,123030,1,0,0:0:0:0:
336,248,123330,1,0,0:0:0:0:
352,248,123630,2,0,B|392:216|392:216|408:160,1,100.000000596046
400,72,124230,2,4,B|360:72|336:88,1,50.000000298023
352,224,124680,5,4,0:0:0:0:
328,232,124830,2,0,B|224:256|184:192,1,150.000000894069,4|0,0:0|0:0,0:0:0:0:
152,168,125430,1,4,0:0:0:0:
56,136,125730,1,4,0:0:0:0:
64,232,126030,6,0,B|82:311|177:322,1,150.000000894069,4|0,0:0|0:0,0:0:0:0:
224,328,126630,1,4,0:0:0:0:
320,312,126930,2,0,B|344:264|344:264|344:208,1,100.000000596046
312,120,127530,5,0,0:0:0:0:
296,120,127830,1,4,0:0:0:0:
280,120,128130,1,0,0:0:0:0:
184,128,128430,2,0,P|162:157|176:224,1,100.000000596046,0|0,2:0|2:0,2:0:0:0:
240,288,129030,2,0,B|285:323|348:311,1,100.000000596046
408,248,129630,6,0,B|408:176|408:176|352:120,1,150.000000894069,4|0,0:0|0:0,0:0:0:0:
312,88,130230,1,4,0:0:0:0:
216,64,130530,1,4,0:0:0:0:
136,120,130830,6,0,B|96:184|96:184|112:264,1,150.000000894069,4|0,0:0|0:0,0:0:0:0:
128,304,131430,1,4,0:0:0:0:
224,336,131730,6,0,P|292:335|325:312,1,100.000000596046,4|0,0:0|0:0,0:0:0:0:
384,240,132330,5,0,0:0:0:0:
384,216,132630,1,0,0:0:0:0:
384,192,132930,1,0,0:0:0:0:
376,96,133230,2,0,B|328:72|328:72|264:80,1,100.000000596046
224,160,133830,2,4,B|200:176|160:160,1,50.000000298023
104,96,134280,5,4,0:0:0:0:
80,112,134430,2,0,P|64:180|90:217,1,100.000000596046,4|0,0:0|0:0,0:0:0:0:
136,280,135030,2,0,P|200:305|241:279,1,100.000000596046,4|0,0:0|0:0,0:0:0:0:
312,248,135630,1,0,0:0:0:0:
336,240,135930,1,0,0:0:0:0:
416,176,136230,2,0,B|448:112|432:64,1,100.000000596046,4|4,0:0|0:0,0:0:0:0:
344,48,136830,6,0,P|314:76|304:104,1,50.000000298023,4|0,0:0|0:0,0:0:0:0:
336,128,137130,2,0,P|319:166|296:184,1,50.000000298023,4|0,0:0|0:0,0:0:0:0:
264,160,137430,2,0,P|234:188|224:216,1,50.000000298023,4|0,0:0|0:0,0:0:0:0:
256,240,137730,2,0,P|239:278|216:296,1,50.000000298023,4|0,0:0|0:0,0:0:0:0:
192,312,138030,2,0,B|105:206|188:112,1,200.000001192092,4|4,0:0|0:0,0:0:0:0:
240,56,139230,6,0,B|320:56|320:56|376:120,1,150.000000894069
392,152,139830,1,4,0:0:0:0:
400,248,140130,1,4,0:0:0:0:
360,344,140430,6,0,B|280:320|280:320|224:264,1,150.000000894069
200,240,141030,1,4,0:0:0:0:
144,152,141330,6,0,P|205:109|244:109,1,100.000000596046,4|0,0:0|0:0,0:0:0:0:
328,112,141930,5,0,0:0:0:0:
344,128,142230,1,0,0:0:0:0:
360,144,142530,1,0,0:0:0:0:
416,224,142830,2,0,P|405:304|343:239,1,200.000001192092,0|0,0:0|0:0,0:0:0:0:
336,128,144030,6,0,B|232:104|192:168,1,150.000000894069,4|0,0:0|0:0,0:0:0:0:
176,200,144630,1,4,0:0:0:0:
144,296,144930,1,4,0:0:0:0:
232,336,145230,6,0,B|310:355|364:275,1,150.000000894069,4|0,0:0|0:0,0:0:0:0:
384,240,145830,1,4,0:0:0:0:
376,144,146130,2,0,B|368:88|368:88|392:40,1,100.000000596046
451,291,148830,5,0,0:0:0:0:
376,224,149130,2,0,P|322:235|293:196,1,100.000000596046
344,120,149730,2,0,P|316:69|271:77,1,100.000000596046,0|4,0:0|0:0,0:0:0:0:
256,80,150330,1,0,0:0:0:0:
168,128,150630,5,0,0:0:0:0:
152,144,150930,1,0,0:0:0:0:
136,160,151230,2,0,P|143:221|176:256,1,100.000000596046
248,312,151830,1,0,0:0:0:0:
344,312,152130,2,0,B|420:334|473:284|463:181|310:162,1,300.000001788138,0|4,0:0|0:0,0:0:0:0:
216,136,153330,5,4,0:0:0:0:
128,96,153630,2,0,P|90:125|94:173,1,100.000000596046
104,200,154230,1,0,0:0:0:0:
112,224,154530,1,0,0:0:0:0:
168,312,154830,6,0,P|240:324|303:286,2,150.000000894069,4|0|0,0:0|0:0|0:0,0:0:0:0:
112,224,156030,5,4,0:0:0:0:
136,216,156330,1,4,0:0:0:0:
160,208,156630,1,4,0:0:0:0:
184,200,156930,2,0,P|233:154|229:110,2,100.000000596046,0|4|4,0:0|0:0|0:0,0:0:0:0:
96,152,157830,1,4,0:0:0:0:
152,64,158130,6,0,P|240:32|336:104,1,200.000001192092,0|0,0:0|0:0,0:0:0:0:
357,162,159030,1,0,0:0:0:0:
360,184,159330,1,0,0:0:0:0:
360,208,159630,2,0,P|337:275|304:309,1,100.000000596046
224,328,160230,6,0,P|155:332|115:314,2,100.000000596046,0|0|0,0:0|0:0|0:0,0:0:0:0:
320,296,161130,1,0,0:0:0:0:
248,232,161430,2,0,P|208:208|152:192,1,100.000000596046
56,192,162030,2,4,B|96:64|216:64,1,200.000001192092
296,56,162930,5,4,0:0:0:0:
320,56,163230,1,4,0:0:0:0:
344,56,163530,1,4,0:0:0:0:
432,104,163980,6,0,B|463:184|423:232|423:232|385:225,1,150.000000894069,0|4,0:0|0:0,0:0:0:0:
256,192,164730,12,0,167130,0:0:0:0:
312,280,168030,5,0,0:0:0:0:
432,128,168630,1,4,0:0:0:0:
408,112,168930,1,0,0:0:0:0:
312,272,169530,5,0,0:0:0:0:
288,264,169830,1,4,0:0:0:0:
264,256,170130,1,4,0:0:0:0:
240,88,171030,5,4,0:0:0:0:
256,96,171330,1,4,0:0:0:0:
192,264,171930,1,4,0:0:0:0:
216,272,172230,1,4,0:0:0:0:
288,120,172830,5,0,0:0:0:0:
376,272,173430,1,4,0:0:0:0:
360,280,173730,1,4,0:0:0:0:
128,208,174330,5,0,0:0:0:0:
136,192,174630,1,4,0:0:0:0:
144,176,174930,1,4,0:0:0:0:
384,176,175530,5,0,0:0:0:0:
368,192,175830,1,4,0:0:0:0:
352,208,176130,1,0,0:0:0:0:
208,224,176580,1,4,0:0:0:0:
240,80,177030,1,4,0:0:0:0:
256,72,177330,1,4,0:0:0:0:
208,248,178230,5,4,0:0:0:0:
232,248,178530,1,4,0:0:0:0:
160,128,179130,5,0,0:0:0:0:
232,104,179430,1,4,0:0:0:0:
304,104,179730,1,4,0:0:0:0:
384,264,180330,5,0,0:0:0:0:
312,288,180630,1,4,0:0:0:0:
240,288,180930,1,4,0:0:0:0:
80,152,181530,1,4,0:0:0:0:
96,136,181830,1,4,0:0:0:0:
312,80,182430,5,0,0:0:0:0:
344,240,183030,1,4,0:0:0:0:
248,256,183330,1,4,0:0:0:0:
312,80,183930,1,0,0:0:0:0:
264,96,184230,2,0,L|233:105,4,25.0000001490115,4|0|0|0|0,0:0|0:0|0:0|0:0|0:0,0:0:0:0:
80,80,187230,6,0,B|163:69|163:69|229:98,1,150.000000894069,4|0,0:0|0:0,0:0:0:0:
264,128,187830,1,4,0:0:0:0:
256,224,188130,1,4,0:0:0:0:
288,320,188430,6,0,B|360:272|360:272|392:208,1,150.000000894069,4|0,0:0|0:0,0:0:0:0:
408,168,189030,1,4,0:0:0:0:
416,72,189330,2,0,P|345:50|308:62,1,100.000000596046,4|0,0:0|0:0,0:0:0:0:
272,144,189930,6,0,P|254:179|228:192,1,50.000000298023,4|0,0:0|0:0,0:0:0:0:
224,168,190230,2,0,P|193:194|187:217,1,50.000000298023,4|0,0:0|0:0,0:0:0:0:
216,216,190530,2,0,P|198:251|176:257,1,50.000000298023,4|0,0:0|0:0,0:0:0:0:
168,264,190830,2,0,B|120:243|98:203|98:203|112:168|112:168|96:129|96:129|120:91,1,200.000001192092,4|4,0:0|0:0,0:0:0:0:
120,72,191730,1,4,0:0:0:0:
216,40,192030,6,0,B|322:40|347:111,1,150.000000894069,4|0,0:0|0:0,0:0:0:0:
368,144,192630,1,4,0:0:0:0:
408,232,192930,1,4,0:0:0:0:
360,320,193230,6,0,B|296:371|214:321,1,150.000000894069,4|0,0:0|0:0,0:0:0:0:
176,296,193830,1,4,0:0:0:0:
120,208,194130,1,4,0:0:0:0:
152,112,194430,2,0,P|182:97|201:97,1,50.000000298023,4|0,0:0|0:0,0:0:0:0:
216,80,194730,2,0,P|245:97|259:118,1,50.000000298023,4|0,0:0|0:0,0:0:0:0:
280,120,195030,2,0,P|282:160|273:183,1,50.000000298023,4|0,0:0|0:0,0:0:0:0:
296,192,195330,2,0,P|266:210|241:211,1,50.000000298023,4|0,0:0|0:0,0:0:0:0:
240,232,195630,2,0,P|155:164|155:59,1,200.000001192092,4|4,0:0|0:0,0:0:0:0:
160,48,196530,1,4,0:0:0:0:
264,40,196830,6,0,B|344:56|344:56|400:104,1,150.000000894069,4|0,0:0|0:0,0:0:0:0:
424,136,197430,1,4,0:0:0:0:
440,232,197730,1,4,0:0:0:0:
376,312,198030,6,0,B|296:312|296:312|216:280,1,150.000000894069,4|0,0:0|0:0,0:0:0:0:
184,264,198630,1,4,0:0:0:0:
128,184,198930,2,0,P|155:114|192:102,1,100.000000596046,4|0,0:0|0:0,0:0:0:0:
254,165,199530,6,0,P|272:200|298:213,1,50.000000298023,4|0,0:0|0:0,0:0:0:0:
304,200,199830,2,0,P|335:226|341:249,1,50.000000298023,4|0,0:0|0:0,0:0:0:0:
320,248,200130,2,0,P|338:283|360:289,1,50.000000298023,4|0,0:0|0:0,0:0:0:0:
368,288,200430,2,0,B|411:258|425:214|425:214|404:183|404:183|412:141|412:141|382:109,1,200.000001192092,4|4,0:0|0:0,0:0:0:0:
376,64,201330,1,4,0:0:0:0:
280,48,201630,6,0,B|176:24|136:88,1,150.000000894069,4|0,0:0|0:0,0:0:0:0:
128,128,202230,1,4,0:0:0:0:
136,224,202530,1,4,0:0:0:0:
208,296,202830,6,0,B|258:360|349:330,1,150.000000894069,4|0,0:0|0:0,0:0:0:0:
384,296,203430,1,4,0:0:0:0:
424,208,203730,1,4,0:0:0:0:
416,112,204030,2,0,P|382:88|354:85,1,50.000000298023,4|0,0:0|0:0,0:0:0:0:
360,112,204330,2,0,P|336:116|311:112,1,50.000000298023,4|0,0:0|0:0,0:0:0:0:
296,88,204630,2,0,P|256:94|233:110,1,50.000000298023,4|0,0:0|0:0,0:0:0:0:
256,120,204930,2,0,P|223:143|209:168,1,50.000000298023,4|0,0:0|0:0,0:0:0:0:
256,192,205230,12,0,209430,0:0:0:0:
