osu file format v14

[General]
AudioFilename: audio.mp3
AudioLeadIn: 0
PreviewTime: 17828
Countdown: 0
SampleSet: Soft
StackLeniency: 0.7
Mode: 0
LetterboxInBreaks: 0
WidescreenStoryboard: 1

[Editor]
DistanceSpacing: 1
BeatDivisor: 8
GridSize: 32
TimelineZoom: 1.1

[Metadata]
Title:Imagine
TitleUnicode:Imagine
Artist:Melancholari
ArtistUnicode:Melancholari
Creator:SMOKELIND
Version:Nymphe's Insane
Source:
Tags:drift phonk english electronic hip hop hip-hop hartnett media Kirishima- Ayesha Altugle Shikibe Mayu Shizuku- Kazato Asa Nymphe Kiyoshi Guarden
BeatmapID:4202759
BeatmapSetID:2018121

[Difficulty]
HPDrainRate:4.5
CircleSize:4
OverallDifficulty:8
ApproachRate:8.4
SliderMultiplier:2.05
SliderTickRate:1

[Events]
//Background and Video events
0,0,"BG.jpg",0,0
Video,-133,"vid.mp4"
//Break Periods
2,56705,58167
2,61115,62873
2,75528,83462
//Storyboard Layer 0 (Background)
//Storyboard Layer 1 (Fail)
//Storyboard Layer 2 (Pass)
//Storyboard Layer 3 (Foreground)
//Storyboard Layer 4 (Overlay)
//Storyboard Sound Samples

[TimingPoints]
18858,588.235294117647,4,2,77,37,1,0
18858,-68.9655172413793,4,2,77,37,0,0
35328,-68.9655172413793,4,2,77,17,0,0
37681,-64.5161290322581,4,2,77,37,0,0
42901,-64.5161290322581,4,2,77,5,0,0
42975,-64.5161290322581,4,2,77,37,0,0
44078,-64.5161290322581,4,2,77,5,0,0
44152,-64.5161290322581,4,2,77,37,0,0
45254,-64.5161290322581,4,2,77,5,0,0
45328,-64.5161290322581,4,2,77,37,0,0
47607,-64.5161290322581,4,2,77,5,0,0
47681,-64.5161290322581,4,2,77,37,0,0
48783,-64.5161290322581,4,2,77,5,0,0
48857,-64.5161290322581,4,2,77,37,0,0
54666,-64.5161290322581,4,2,77,5,0,0
54740,-64.5161290322581,4,2,77,37,0,0
56505,-64.5161290322581,4,2,77,17,0,0
56652,-64.5161290322581,4,2,77,7,0,0
58857,-500,4,2,77,7,0,0
65328,-31.7460317460317,4,2,77,7,0,0
84152,-28.169014084507,4,2,77,7,0,0
84740,-74.0740740740741,4,2,77,37,0,0
87093,-74.0740740740741,4,2,77,7,0,0
88269,-181.818181818182,4,2,77,7,0,0
88857,-105.263157894737,4,2,77,7,0,0
89152,-57.1428571428571,4,2,77,7,0,0
89446,-74.0740740740741,4,2,77,37,0,0
89960,-74.0740740740741,4,2,77,5,0,0
90034,-74.0740740740741,4,2,77,37,0,0
91136,-74.0740740740741,4,2,77,5,0,0
91210,-74.0740740740741,4,2,77,37,0,0
92313,-74.0740740740741,4,2,77,5,0,0
92387,-74.0740740740741,4,2,77,37,0,0
94152,-60.6060606060606,4,2,77,37,0,0
99372,-60.6060606060606,4,2,77,5,0,0
99446,-60.6060606060606,4,2,77,37,0,0
100548,-60.6060606060606,4,2,77,5,0,0
100622,-60.6060606060606,4,2,77,37,0,0
101725,-60.6060606060606,4,2,77,5,0,0
101799,-60.6060606060606,4,2,77,37,0,0
104078,-60.6060606060606,4,2,77,5,0,0
104152,-60.6060606060606,4,2,77,37,0,0
105254,-60.6060606060606,4,2,77,5,0,0
105328,-60.6060606060606,4,2,77,37,0,0
111137,-60.6060606060606,4,2,77,5,0,0
111211,-60.6060606060606,4,2,77,37,0,0
112973,-60.6060606060606,4,2,77,17,0,0

[Colours]
Combo1 : 164,0,0
Combo2 : 81,81,81

[HitObjects]
141,145,18858,5,2,1:0:0:0:
90,212,19005,2,0,P|126:219|177:231,1,74.3125022678376,0|0,0:0|3:2,0:0:0:0:
76,321,19299,5,2,0:0:0:0:
12,255,19446,2,0,L|170:231,1,148.625004535675,8|0,0:0|3:2,0:0:0:0:
424,97,20034,6,0,P|352:96|331:162,1,148.625004535675,0|0,1:0|3:2,0:0:0:0:
330,159,20475,1,2,0:0:0:0:
252,189,20622,2,0,B|301:169|325:200|322:207|347:239|396:218,1,148.625004535675,8|0,0:0|3:2,0:0:0:0:
232,0,21210,5,2,1:0:0:0:
225,6,21358,1,0,0:0:0:0:
220,12,21505,2,0,P|214:49|207:86,1,74.3125022678376,0|2,3:2|0:0,0:0:0:0:
24,168,21799,2,0,P|60:107|130:115,1,148.625004535675,8|0,0:0|3:2,0:0:0:0:
130,115,22240,1,2,0:0:0:0:
187,202,22387,5,0,1:0:0:0:
194,208,22535,1,0,0:0:0:0:
202,217,22681,2,0,P|208:253|214:290,1,74.3125022678376,0|2,3:2|0:0,0:0:0:0:
357,384,22975,2,0,P|336:346|303:337,2,74.3125022678376,8|0|0,0:0|0:0|3:2,0:0:0:0:
108,339,23563,5,2,1:0:0:0:
102,348,23710,1,0,0:0:0:0:
96,356,23858,2,0,P|136:365|184:374,1,74.3125022678376,0|0,3:2|0:0,0:0:0:0:
43,291,24152,2,0,P|33:217|18:127,1,148.625004535675,10|0,0:0|3:2,0:0:0:0:
21,144,24593,1,2,0:0:0:0:
76,43,24740,6,0,P|35:35|2:30,1,74.3125022678376,0|0,1:0|0:0,0:0:0:0:
122,160,25034,1,0,3:2:0:0:
127,164,25181,1,2,0:0:0:0:
132,169,25328,2,0,B|207:162|207:162|211:163|211:163|285:156,1,148.625004535675,8|0,0:0|3:2,0:0:0:0:
492,335,25916,6,0,P|416:336|390:274,1,148.625004535675,2|0,1:0|3:2,0:0:0:0:
389,277,26358,1,2,0:0:0:0:
348,214,26505,2,0,P|364:176|367:123,2,74.3125022678376,8|0|0,0:0|0:0|3:2,0:0:0:0:
185,313,27093,6,0,B|137:293|113:324|116:331|91:363|50:345,1,148.625004535675,0|0,1:0|3:2,0:0:0:0:
50,345,27534,1,2,0:0:0:0:
91,224,27681,2,0,P|101:259|110:295,1,74.3125022678376,8|0,0:0|0:0,0:0:0:0:
254,378,27975,2,0,P|264:342|273:306,1,74.3125022678376,0|0,3:2|0:0,0:0:0:0:
187,133,28269,5,0,1:0:0:0:
182,144,28416,1,0,0:0:0:0:
304,110,28563,5,0,3:2:0:0:
212,40,28710,1,0,0:0:0:0:
134,71,28858,6,0,P|99:62|60:50,1,74.3125022678376,8|2,0:0|0:0,0:0:0:0:
181,238,29152,2,0,P|216:227|252:217,1,74.3125022678376,0|2,3:2|0:0,0:0:0:0:
482,357,29446,6,0,P|474:280|468:198,1,148.625004535675,0|0,1:0|3:2,0:0:0:0:
469,209,29887,1,2,0:0:0:0:
422,147,30034,2,0,P|356:166|353:242,1,148.625004535675,8|0,0:0|3:2,0:0:0:0:
478,86,30475,6,0,P|482:47|503:17,1,74.3125022678376,0|2,0:0|1:0,0:0:0:0:
426,154,30769,2,0,B|378:173|354:142|357:135|332:103|291:121,1,148.625004535675,2|0,0:0|0:0,0:0:0:0:
183,270,31210,1,8,0:0:0:0:
232,207,31358,1,0,0:0:0:0:
232,207,31505,2,0,P|220:166|182:140,1,74.3125022678376,0|2,3:2|0:0,0:0:0:0:
1,85,31799,6,0,P|69:70|84:-2,1,148.625004535675,0|0,1:0|3:2,0:0:0:0:
84,0,32240,1,2,0:0:0:0:
80,91,32387,2,0,P|93:161|112:251,1,148.625004535675,8|0,0:0|3:2,0:0:0:0:
328,384,32975,5,0,1:0:0:0:
333,377,33122,1,0,0:0:0:0:
410,316,33269,5,0,3:2:0:0:
243,363,33416,1,2,0:0:0:0:
306,303,33563,6,0,P|312:260|317:219,1,74.3125022678376,8|0,0:0|0:0,0:0:0:0:
400,123,33858,2,0,P|406:166|411:207,1,74.3125022678376,0|2,3:2|0:0,0:0:0:0:
298,71,34152,6,0,P|326:42|369:41,2,74.3125022678376,0|0|0,1:0|0:0|3:2,0:0:0:0:
229,182,34593,1,2,0:0:0:0:
304,157,34740,2,0,P|272:94|189:88,1,148.625004535675,8|0,0:0|3:2,0:0:0:0:
132,52,35181,2,0,P|95:40|78:7,1,74.3125022678376
499,213,35916,5,8,0:0:0:0:
19,177,36799,5,8,0:0:0:0:
499,213,37387,5,8,0:0:0:0:
217,124,37681,5,2,1:0:0:0:
287,179,37828,2,0,P|297:128|306:85,1,79.43750060606,0|0,0:0|3:2,0:0:0:0:
372,353,38122,5,0,0:0:0:0:
436,310,38269,2,0,B|392:345|354:305|356:303|357:302|331:272|290:295,1,158.87500121212,8|0,0:0|3:2,0:0:0:0:
42,281,38858,6,0,P|121:274|139:198,1,158.87500121212,2|0,1:0|3:2,0:0:0:0:
141,206,39299,1,0,0:0:0:0:
86,157,39446,2,0,P|76:74|63:-6,1,158.87500121212,8|0,0:0|3:2,0:0:0:0:
170,344,40034,5,2,1:0:0:0:
213,279,40181,2,0,P|251:288|299:300,1,79.43750060606,0|0,0:0|3:2,0:0:0:0:
464,143,40475,5,0,0:0:0:0:
512,204,40622,2,0,B|433:181|433:181|422:181|422:181|344:157,1,158.87500121212,8|0,0:0|3:2,0:0:0:0:
207,0,41210,5,2,1:0:0:0:
214,5,41357,1,0,0:0:0:0:
222,9,41505,2,0,P|215:47|204:100,1,79.43750060606,0|0,3:2|0:0,0:0:0:0:
126,113,41799,5,8,0:0:0:0:
394,25,42093,1,0,3:2:0:0:
259,340,42387,5,2,1:0:0:0:
213,279,42534,2,0,P|220:232|220:196,1,79.43750060606,2|0,0:0|3:2,0:0:0:0:
63,25,42828,6,0,P|40:41|24:46,1,39.71875030303,0|0,0:0|2:0,0:0:0:0:
12,51,42975,2,0,P|52:117|142:97,1,158.87500121212,8|0,0:0|3:2,0:0:0:0:
399,228,43563,5,2,1:0:0:0:
359,161,43710,2,0,P|318:154|278:143,1,79.43750060606,0|0,0:0|3:2,0:0:0:0:
61,369,44005,6,0,P|74:350|95:340,1,39.71875030303,0|0,0:0|2:0,0:0:0:0:
104,343,44152,2,0,B|144:367|169:323|166:321|165:318|186:276|239:299,1,158.87500121212,8|0,0:0|3:2,0:0:0:0:
480,249,44740,5,2,1:0:0:0:
409,306,44887,2,0,P|404:255|396:217,1,79.43750060606,0|0,0:0|3:2,0:0:0:0:
444,9,45181,6,0,P|456:29|478:38,1,39.71875030303,0|0,0:0|2:0,0:0:0:0:
484,39,45328,2,0,P|417:44|321:81,1,158.87500121212,8|0,0:0|3:2,0:0:0:0:
165,244,45916,6,0,P|229:232|243:135,1,158.87500121212,2|0,1:0|3:2,0:0:0:0:
251,149,46357,1,0,0:0:0:0:
200,85,46505,5,8,0:0:0:0:
192,73,46652,1,2,0:0:0:0:
233,6,46799,5,2,3:2:0:0:
121,136,46946,1,2,0:0:0:0:
0,24,47093,5,2,1:0:0:0:
62,82,47240,2,0,P|73:37|87:6,1,79.43750060606,0|0,0:0|3:2,0:0:0:0:
44,277,47534,6,0,P|28:299|9:306,1,39.71875030303,0|0,0:0|2:0,0:0:0:0:
4,304,47681,2,0,P|76:307|94:394,1,158.87500121212,8|0,0:0|3:2,0:0:0:0:
370,224,48269,5,2,1:0:0:0:
311,288,48416,2,0,P|348:293|396:314,1,79.43750060606,0|0,0:0|3:2,0:0:0:0:
443,98,48710,6,0,P|462:86|485:86,1,39.71875030303,0|0,0:0|2:0,0:0:0:0:
480,94,48857,2,0,P|412:127|344:86,1,158.87500121212,8|0,0:0|3:2,0:0:0:0:
173,233,49446,5,2,1:0:0:0:
270,158,49593,1,0,0:0:0:0:
223,94,49740,2,0,P|216:52|212:9,1,79.43750060606,0|0,3:2|0:0,0:0:0:0:
20,209,50034,2,0,B|68:219|90:179|74:170|102:131|152:146,1,158.87500121212,8|0,0:0|3:2,0:0:0:0:
478,70,50622,5,2,1:0:0:0:
407,97,50769,2,0,P|397:151|391:191,1,79.43750060606,0|0,0:0|3:2,0:0:0:0:
243,306,51063,5,0,0:0:0:0:
304,229,51210,2,0,P|321:302|336:392,1,158.87500121212,8|0,0:0|3:2,0:0:0:0:
406,190,51799,5,2,1:0:0:0:
231,96,51946,2,0,P|276:91|313:75,1,79.43750060606,2|0,0:0|3:2,0:0:0:0:
344,14,52240,5,0,0:0:0:0:
231,190,52387,2,0,P|208:114|113:126,1,158.87500121212,8|0,0:0|3:2,0:0:0:0:
16,384,52975,5,2,1:0:0:0:
65,326,53122,2,0,P|52:279|43:250,1,79.43750060606,0|0,0:0|3:2,0:0:0:0:
101,199,53416,5,0,0:0:0:0:
14,253,53563,2,0,P|32:178|54:88,1,158.87500121212,8|0,0:0|3:2,0:0:0:0:
316,381,54152,5,2,1:0:0:0:
250,319,54299,2,0,P|301:306|337:299,1,79.43750060606,0|0,0:0|3:2,0:0:0:0:
482,198,54593,6,0,P|499:207|511:228,1,39.71875030303,0|0,0:0|2:0,0:0:0:0:
511,234,54740,2,0,P|433:226|420:148,1,158.87500121212,8|0,0:0|3:2,0:0:0:0:
157,154,55328,6,0,P|178:95|185:-6,1,158.87500121212,2|0,1:0|3:2,0:0:0:0:
186,0,55769,1,0,0:0:0:0:
285,116,55916,5,8,0:0:0:0:
297,107,56063,1,2,0:0:0:0:
340,208,56210,5,2,3:2:0:0:
203,100,56357,1,2,0:0:0:0:
294,21,56505,5,0,0:0:0:0:
107,290,58857,6,0,P|46:307|10:376,1,143.5
387,356,63563,6,0,P|346:349|306:341,1,82
15,383,65328,6,0,B|13:375|13:375|25:382|25:382|34:375|34:375|26:371|26:371|41:367|41:366|41:366|49:356|49:356|54:363|54:363|65:353|66:353|66:353|62:346|62:346|61:345|60:344|60:344|58:334|58:334|70:323|70:323|74:328|74:328|91:315|91:315|92:306|92:306|99:300|99:300|103:302|103:302|114:291|114:291|114:292|125:305|124:306|124:306|120:309|118:309|118:309|109:299|109:299|107:294|103:287|102:284|102:284|112:262|112:262|115:261|115:261|121:251|121:251|125:244|125:244|129:253|130:254|130:254|131:254|131:256|132:263|133:265|136:269|150:268|150:268|152:266|157:258|157:258|158:257|160:255|160:253|161:249|161:246|161:245|160:240|160:239|160:239|166:230|166:230|177:230|178:230|182:233|183:234|183:234|186:227|186:221|182:214|180:210|180:207|179:206|178:206|174:209|172:207|172:207|176:196|176:196|194:192|194:192|203:217|203:217|219:194|219:194|217:196|209:197|209:197|212:184|212:183|215:181|227:181|229:182|229:182|227:187|226:188|237:177|237:177|250:166|252:165|252:165|259:179|259:179|261:165|261:165|273:160|273:160|268:152,1,645.750019090891
315,99,66063,5,0,0:0:0:0:
49,174,66357,1,0,0:0:0:0:
475,214,66799,5,0,0:0:0:0:
49,174,67240,1,0,0:0:0:0:
333,216,67534,5,0,0:0:0:0:
197,180,67975,1,0,0:0:0:0:
510,160,68416,5,0,0:0:0:0:
0,228,68710,1,0,0:0:0:0:
510,160,69152,5,0,0:0:0:0:
0,228,69593,1,0,0:0:0:0:
259,366,69887,5,0,0:0:0:0:
259,366,70034,2,0,B|252:369|253:387|274:396|294:389|298:364|287:356|272:348|272:348|272:347|262:342|261:341|261:341|263:336|263:336|263:326|263:325|263:325|253:318|252:318|252:318|259:310|259:309|259:309|287:296|277:291|255:285|253:285|253:284|253:284|259:273|260:272|260:271|260:271|265:274|265:274|269:263|269:263|268:252|268:249|260:242|260:241|242:233|240:232|221:245|218:247|227:229|227:229|229:215|230:215|230:214|230:214|265:223|265:223|256:197|256:197|272:190|272:189|252:175|252:175|247:156|247:155|247:155|236:152|229:143|229:143|219:151|219:151|227:172|227:172|204:151|204:151|216:119|216:119|235:116|236:116|236:116|238:117|238:117|225:101|225:101|225:97|211:89|211:89|211:77|211:77|222:75|222:75|231:83|245:87,1,645.750019090891
267,14,70769,5,0,0:0:0:0:
149,213,71063,1,0,0:0:0:0:
451,253,71505,5,0,0:0:0:0:
77,154,71946,1,0,0:0:0:0:
321,176,72240,5,0,0:0:0:0:
204,219,72681,1,0,0:0:0:0:
511,255,73122,5,0,0:0:0:0:
0,151,73416,1,0,0:0:0:0:
511,255,73857,5,0,0:0:0:0:
0,151,74299,1,0,0:0:0:0:
343,177,74593,5,0,0:0:0:0:
164,209,75034,1,0,0:0:0:0:
256,192,75328,5,0,0:0:0:0:
512,229,84152,6,0,B|494:228|472:220|472:220|466:242|466:242|441:211|441:211|458:227|421:238|421:238|402:226|402:226|430:217|430:217|429:222|429:222|412:211|412:210|412:210|389:200|389:200|379:185|379:185|368:199|368:199|341:201|341:201|356:216|356:216|329:222|328:221|328:221|314:205|314:204|314:204|293:211|292:211|292:211|289:188|289:188|283:174|283:174|266:161|266:161|249:184|249:184|245:171|228:177|228:177|241:169|250:151|250:151,1,545.812502082109
161,107,84740,5,2,1:0:0:0:
81,122,84887,2,0,P|90:79|97:43,1,69.1875002639294,0|0,0:0|3:0,0:0:0:0:
8,256,85181,5,0,0:0:0:0:
85,278,85328,2,0,L|63:119,1,138.375000527859,2|0,1:0|3:0,0:0:0:0:
281,384,85916,5,2,1:0:0:0:
216,341,86063,2,0,P|243:310|274:305,1,69.1875002639294,0|0,0:0|3:0,0:0:0:0:
493,185,86357,5,0,0:0:0:0:
498,268,86505,2,0,P|438:255|419:172,1,138.375000527859,2|0,1:0|0:0,0:0:0:0:
347,25,88269,6,0,P|379:45|387:100,1,84.5625025806428
511,171,88857,6,0,P|486:173|464:190,1,48.6874986999035
495,42,89152,6,0,P|512:16|491:38,1,89.6875008553266
275,228,89446,5,0,1:0:0:0:
351,161,89593,2,0,P|310:156|268:141,1,69.1875002639294,0|0,0:0|3:2,0:0:0:0:
132,17,89887,6,0,P|115:11|95:17,1,34.5937501319647,2|0,0:0|2:0,0:0:0:0:
89,24,90034,2,0,P|132:59|213:11,1,138.375000527859,8|0,0:0|3:2,0:0:0:0:
16,284,90622,5,0,1:0:0:0:
55,221,90769,2,0,P|94:237|106:270,1,69.1875002639294,0|0,0:0|3:2,0:0:0:0:
220,382,91063,6,0,P|231:357|246:350,1,34.5937501319647,2|0,0:0|2:0,0:0:0:0:
255,350,91210,2,0,B|296:366|320:330|317:328|316:325|330:294|382:304,1,138.375000527859,8|0,0:0|3:2,0:0:0:0:
460,109,91799,5,0,1:0:0:0:
502,204,91946,2,0,P|448:186|422:179,1,69.1875002639294,0|0,0:0|3:2,0:0:0:0:
246,84,92240,6,0,B|239:101|239:101|258:114,1,34.5937501319647,2|0,0:0|2:0,0:0:0:0:
272,118,92387,2,0,B|313:104|313:104|328:76|328:76|400:53,1,138.375000527859,8|0,0:0|3:2,0:0:0:0:
388,56,92828,1,2,0:0:0:0:
273,336,94152,5,2,1:0:0:0:
205,283,94299,2,0,P|193:339|184:382,1,84.5625008064508,0|0,0:0|3:2,0:0:0:0:
75,146,94593,5,0,0:0:0:0:
16,203,94740,2,0,B|91:187|91:187|99:195|99:195|199:174,1,169.125001612902,8|0,0:0|3:2,0:0:0:0:
373,14,95329,6,0,P|289:20|271:96,1,169.125001612902,2|0,1:0|3:2,0:0:0:0:
270,92,95770,1,0,0:0:0:0:
323,157,95916,2,0,B|376:172|405:135|389:119|424:83|481:108,1,169.125001612902,8|0,0:0|3:2,0:0:0:0:
259,384,96505,5,2,1:0:0:0:
300,319,96652,2,0,P|294:275|253:247,1,84.5625008064508,0|0,0:0|3:2,0:0:0:0:
22,163,96946,5,0,0:0:0:0:
13,238,97093,2,0,P|73:232|101:128,1,169.125001612902,8|0,0:0|3:2,0:0:0:0:
284,130,97681,5,2,1:0:0:0:
277,125,97828,1,0,0:0:0:0:
269,121,97976,2,0,P|276:83|289:25,1,84.5625008064508,0|0,3:2|0:0,0:0:0:0:
348,0,98270,5,8,0:0:0:0:
214,384,98564,1,0,3:2:0:0:
335,210,98857,5,2,1:0:0:0:
261,250,99005,2,0,P|286:213|339:213,1,84.5625008064508,2|0,0:0|3:2,0:0:0:0:
455,283,99299,6,0,P|487:288|508:274,1,42.2812504032254,0|0,0:0|2:0,0:0:0:0:
506,268,99446,2,0,L|327:297,1,169.125001612902,8|0,0:0|3:2,0:0:0:0:
98,110,100034,5,2,1:0:0:0:
31,170,100181,2,0,P|78:183|117:201,1,84.5625008064508,0|0,0:0|3:2,0:0:0:0:
214,354,100475,6,0,P|235:352|261:329,1,42.2812504032254,0|0,0:0|2:0,0:0:0:0:
260,330,100622,2,0,P|198:303|120:365,1,169.125001612902,8|0,0:0|3:2,0:0:0:0:
284,71,101211,5,2,1:0:0:0:
355,14,101358,2,0,P|362:58|368:103,1,84.5625008064508,0|0,0:0|3:2,0:0:0:0:
307,248,101652,6,0,P|307:225|294:205,1,42.2812504032254,0|0,0:0|2:0,0:0:0:0:
290,201,101799,2,0,P|364:216|462:238,1,169.125001612902,8|0,0:0|3:2,0:0:0:0:
120,372,102387,6,0,P|54:339|72:249,1,169.125001612902,2|0,1:0|3:2,0:0:0:0:
64,255,102828,1,0,0:0:0:0:
130,208,102976,5,8,0:0:0:0:
142,200,103123,1,2,0:0:0:0:
203,268,103270,5,2,3:2:0:0:
53,126,103417,1,2,0:0:0:0:
195,40,103564,5,2,1:0:0:0:
130,96,103711,2,0,P|119:51|103:13,1,84.5625008064508,0|0,0:0|3:2,0:0:0:0:
293,202,104005,6,0,P|282:185|264:175,1,42.2812504032254,0|0,0:0|2:0,0:0:0:0:
259,182,104152,2,0,P|336:160|338:76,1,169.125001612902,8|0,0:0|3:2,0:0:0:0:
438,342,104740,5,2,1:0:0:0:
497,278,104887,2,0,P|460:273|405:251,1,84.5625008064508,0|0,0:0|3:2,0:0:0:0:
152,324,105181,6,0,P|129:339|106:339,1,42.2812504032254,0|0,0:0|2:0,0:0:0:0:
104,329,105328,2,0,B|199:345|199:345|206:352|206:352|287:363,1,169.125001612902,8|0,0:0|3:2,0:0:0:0:
153,81,105916,5,2,1:0:0:0:
38,227,106063,1,0,0:0:0:0:
11,143,106210,2,0,L|116:163,1,84.5625008064508,0|0,3:2|0:0,0:0:0:0:
236,141,106505,6,0,B|253:86|202:58|197:73|154:44|173:-15,1,169.125001612902,8|0,0:0|3:2,0:0:0:0:
331,356,107093,5,2,1:0:0:0:
273,287,107240,2,0,P|327:277|373:269,1,84.5625008064508,0|0,0:0|3:2,0:0:0:0:
444,109,107534,5,0,0:0:0:0:
499,172,107681,2,0,B|442:147|442:147|401:176|401:176|328:158,1,169.125001612902,8|0,0:0|3:2,0:0:0:0:
136,0,108269,5,2,1:0:0:0:
213,184,108416,2,0,P|220:129|222:87,1,84.5625008064508,2|0,0:0|3:2,0:0:0:0:
281,49,108710,5,0,0:0:0:0:
122,205,108857,2,0,P|194:204|221:312,1,169.125001612902,8|0,0:0|3:2,0:0:0:0:
232,283,109446,5,2,1:0:0:0:
429,358,109593,2,0,P|385:354|341:346,1,84.5625008064508,0|0,0:0|3:2,0:0:0:0:
280,383,109887,5,0,0:0:0:0:
439,362,110034,2,0,B|457:336|452:301|425:284|417:292|388:276|378:243|393:207,1,169.125001612902,8|0,0:0|3:2,0:0:0:0:
446,0,110623,5,2,1:0:0:0:
512,62,110770,2,0,P|461:75|421:83,1,84.5625008064508,0|0,0:0|3:2,0:0:0:0:
231,67,111064,6,0,P|214:58|201:35,1,42.2812504032254,0|0,0:0|2:0,0:0:0:0:
202,31,111211,2,0,P|280:39|301:117,1,169.125001612902,8|0,0:0|3:2,0:0:0:0:
239,313,111799,6,0,B|187:325|161:283|175:271|147:227|85:250,1,169.125001612902,2|0,1:0|3:2,0:0:0:0:
98,246,112240,1,0,0:0:0:0:
66,174,112387,5,8,0:0:0:0:
72,165,112534,1,2,0:0:0:0:
187,114,112681,5,2,3:2:0:0:
11,235,112828,1,2,0:0:0:0:
81,352,112975,5,0,0:0:0:0:
