osu file format v14

[General]
AudioFilename: Kuroki Meisa - Wired Life ~TV size~.mp3
AudioLeadIn: 0
PreviewTime: 37460
Countdown: 0
SampleSet: Soft
StackLeniency: 0.7
Mode: 0
LetterboxInBreaks: 0
WidescreenStoryboard: 0

[Editor]
DistanceSpacing: 1.2
BeatDivisor: 4
GridSize: 4
TimelineZoom: 1

[Metadata]
Title:Wired Life (TV Size)
TitleUnicode:Wired Life (TV Size)
Artist:Meisa Kuroki
ArtistUnicode:Meisa Kuroki
Creator:[ Shamwow ]
Version:Entangled
Source:青の祓魔師
Tags:blue ao no exorcist ending ED UNLOCKED
BeatmapID:1744724
BeatmapSetID:832883

[Difficulty]
HPDrainRate:5
CircleSize:3.4
OverallDifficulty:8
ApproachRate:9
SliderMultiplier:1.8
SliderTickRate:1

[Events]
//Background and Video events
0,0,"GROUP-blue-exorcist-29976369-985-769.jpg",0,0
//Break Periods
//Storyboard Layer 0 (Background)
//Storyboard Layer 1 (Fail)
//Storyboard Layer 2 (Pass)
//Storyboard Layer 3 (Foreground)
//Storyboard Layer 4 (Overlay)
//Storyboard Sound Samples

[TimingPoints]
195,468.75,4,2,0,25,1,0
7226,-100,4,2,0,10,0,0
7695,-100,4,2,0,40,0,0
21991,-66.6666666666667,4,2,0,40,0,0
22695,-100,4,2,0,40,0,0
37695,-66.6666666666667,4,2,0,60,0,1
52695,-66.6666666666667,4,2,0,40,0,0
67695,-66.6666666666667,4,2,0,60,0,1
80820,-181.818181818181,4,2,0,40,0,0
83163,-181.818181818181,4,2,0,40,0,0
85976,-181.818181818181,4,2,0,10,0,0

[Colours]
Combo1 : 199,145,126
Combo2 : 116,182,218
Combo3 : 84,112,184
Combo4 : 217,188,176

[HitObjects]
131,75,195,37,4,0:0:0:0:
169,113,429,1,0,0:0:0:0:
131,151,663,1,0,0:0:0:0:
92,113,898,1,0,0:0:0:0:
131,31,1132,5,0,0:0:0:0:
212,113,1366,1,0,0:0:0:0:
131,194,1600,1,0,0:0:0:0:
47,113,1835,1,0,0:0:0:0:
381,75,2070,5,0,0:0:0:0:
343,113,2304,1,0,0:0:0:0:
381,151,2538,1,0,0:0:0:0:
420,113,2773,1,0,0:0:0:0:
380,31,3007,5,0,0:0:0:0:
299,113,3241,1,0,0:0:0:0:
380,194,3475,1,0,0:0:0:0:
464,113,3710,1,0,0:0:0:0:
256,192,3945,12,0,7226,0:0:0:0:
119,304,7695,5,0,0:0:0:0:
119,304,8163,2,0,P|135:207|61:137,1,180
44,239,8866,1,0,0:0:0:0:
253,166,9101,1,8,0:0:0:0:
184,82,9335,1,0,0:0:0:0:
387,28,9570,5,0,0:0:0:0:
462,93,9804,1,0,0:0:0:0:
387,28,10038,2,0,P|371:125|445:195,1,180
462,93,10741,1,0,0:0:0:0:
253,166,10976,1,8,0:0:0:0:
347,232,11210,1,0,0:0:0:0:
125,80,11445,37,0,0:0:0:0:
50,145,11679,1,0,0:0:0:0:
125,80,11913,2,0,P|141:177|67:247,1,180
50,145,12616,1,0,0:0:0:0:
259,218,12851,1,8,0:0:0:0:
231,113,13085,1,0,0:0:0:0:
397,86,13320,5,0,0:0:0:0:
472,151,13554,1,0,0:0:0:0:
397,86,13788,2,0,P|381:183|455:253,1,180
472,151,14491,1,0,0:0:0:0:
263,224,14726,1,8,0:0:0:0:
310,131,14960,1,0,0:0:0:0:
378,305,15195,37,0,0:0:0:0:
453,240,15429,1,0,0:0:0:0:
360,219,15663,2,0,P|360:263|378:305,1,90
433,147,16132,1,0,0:0:0:0:
288,77,16366,1,0,0:0:0:0:
221,198,16601,1,8,0:0:0:0:
319,246,16835,1,0,0:0:0:0:
110,29,17070,5,0,0:0:0:0:
35,94,17304,1,0,0:0:0:0:
110,29,17538,2,0,P|126:126|52:196,1,180
35,94,18241,1,0,0:0:0:0:
244,167,18476,1,8,0:0:0:0:
199,73,18710,1,0,0:0:0:0:
152,248,18945,38,0,P|233:303|327:266,1,180
384,184,19648,1,0,0:0:0:0:
223,194,19883,1,0,0:0:0:0:
254,67,20117,1,0,0:0:0:0:
369,279,20351,1,8,0:0:0:0:
413,182,20585,1,0,0:0:0:0:
285,195,20820,5,0,0:0:0:0:
388,30,21054,1,0,0:0:0:0:
431,280,21288,1,0,0:0:0:0:
222,353,21523,1,0,0:0:0:0:
325,188,21757,1,0,0:0:0:0:
369,279,21991,6,8,P|370:324|390:372,1,67.5000025749208
214,209,22226,2,8,P|180:208|147:216,1,67.5000025749208
358,138,22460,2,8,P|359:104|351:71,1,67.5000025749208
145,265,22695,38,0,P|133:186|115:97,1,135,4|0,0:0|0:0,0:0:0:0:
106,34,23163,1,8,0:0:0:0:
106,34,23632,1,0,0:0:0:0:
132,194,23866,1,0,0:0:0:0:
158,354,24101,1,8,0:0:0:0:
406,34,24570,37,0,0:0:0:0:
380,194,24804,1,0,0:0:0:0:
354,354,25039,1,8,0:0:0:0:
354,354,25273,1,0,0:0:0:0:
354,354,25507,5,0,0:0:0:0:
380,194,25742,1,0,0:0:0:0:
406,34,25976,1,8,0:0:0:0:
253,87,26210,1,0,0:0:0:0:
453,267,26445,38,0,B|404:278|404:278|367:261|367:261|282:267,1,135,2|0,0:0|0:0,0:0:0:0:
158,270,26913,1,8,0:0:0:0:
158,270,27382,1,0,0:0:0:0:
45,153,27616,1,0,0:0:0:0:
45,368,27851,1,8,0:0:0:0:
297,114,28320,5,0,0:0:0:0:
410,231,28554,1,0,0:0:0:0:
410,16,28789,1,8,0:0:0:0:
410,16,29023,1,0,0:0:0:0:
410,16,29257,37,0,0:0:0:0:
410,231,29492,1,0,0:0:0:0:
297,114,29726,1,8,0:0:0:0:
184,231,29960,1,0,0:0:0:0:
28,49,30195,6,0,P|22:93|30:137,1,90,2|0,0:0|0:0,0:0:0:0:
52,186,30546,1,0,0:0:0:0:
80,231,30663,1,0,0:0:0:0:
127,88,30898,1,0,0:0:0:0:
127,88,31015,2,0,B|195:89|195:89|264:64,1,135
385,88,31601,1,8,0:0:0:0:
481,30,31835,1,0,0:0:0:0:
481,30,31952,38,0,P|487:118|447:178,1,135
363,191,32538,1,8,0:0:0:0:
385,88,32773,1,0,0:0:0:0:
385,88,32890,2,0,B|317:89|317:89|258:58,1,135
140,36,33476,1,8,0:0:0:0:
41,228,33710,1,4,0:0:0:0:
197,187,33945,6,0,B|265:186|265:186|285:193,1,90,2|0,0:0|0:0,0:0:0:0:
234,357,34413,2,0,B|233:289|233:289|240:268,1,90,8|0,0:0|0:0,0:0:0:0:
339,287,34765,1,0,0:0:0:0:
197,187,34999,1,0,0:0:0:0:
197,187,35116,1,0,0:0:0:0:
234,357,35351,2,0,L|304:357,1,45,8|0,0:0|0:0,0:0:0:0:
134,286,35585,1,0,0:0:0:0:
134,286,35820,38,0,P|86:292|2:280,1,90,8|0,0:0|0:0,0:0:0:0:
151,185,36288,2,8,P|198:178|276:145,1,90,8|0,0:0|0:0,0:0:0:0:
110,64,36757,2,8,P|63:57|-15:24,1,90,8|0,0:0|0:0,0:0:0:0:
286,137,37226,1,8,0:0:0:0:
474,39,37460,1,0,0:0:0:0:
384,250,37695,38,0,L|523:202,1,135.000005149842,4|0,0:0|0:0,0:0:0:0:
327,344,38163,2,0,P|286:303|279:205,1,135.000005149842,8|0,0:0|0:0,0:0:0:0:
173,155,38632,2,0,P|214:114|312:107,1,135.000005149842
384,250,39101,1,8,0:0:0:0:
173,155,39335,1,0,0:0:0:0:
148,308,39570,38,0,P|95:348|29:351,1,135.000005149842
5,108,40039,2,0,P|7:175|47:228,1,135.000005149842,8|0,0:0|0:0,0:0:0:0:
240,94,40507,2,0,L|112:135,1,135.000005149842
477,14,40976,1,10,0:0:0:0:
349,57,41210,1,0,0:0:0:0:
460,195,41445,6,0,L|331:235,1,135.000005149842
180,293,41913,1,8,0:0:0:0:
451,331,42148,1,0,0:0:0:0:
331,235,42382,2,0,P|274:191|250:103,1,135.000005149842
233,31,42851,1,8,0:0:0:0:
417,189,43085,1,0,0:0:0:0:
145,227,43320,38,0,P|118:165|64:126,1,135.000005149842
243,227,43788,2,0,P|269:288|323:327,1,135.000005149842,8|0,0:0|0:0,0:0:0:0:
145,227,44257,1,0,0:0:0:0:
375,332,44491,1,0,0:0:0:0:
446,117,44726,1,8,0:0:0:0:
499,328,44960,1,8,0:0:0:0:
499,328,45077,1,0,0:0:0:0:
375,332,45195,5,2,0:0:0:0:
205,251,45429,1,0,0:0:0:0:
375,170,45663,1,8,0:0:0:0:
205,89,45898,1,0,0:0:0:0:
375,8,46132,2,0,L|517:8,1,135.000005149842
375,182,46601,2,0,L|233:182,1,135.000005149842,8|0,0:0|0:0,0:0:0:0:
281,334,47070,37,0,0:0:0:0:
358,132,47304,1,0,0:0:0:0:
177,66,47538,2,0,P|114:36|21:66,1,135.000005149842,8|0,0:0|0:0,0:0:0:0:
84,258,48007,2,0,L|101:125,1,135.000005149842
29,33,48476,1,10,0:0:0:0:
101,124,48710,1,0,0:0:0:0:
35,350,48945,5,0,0:0:0:0:
247,225,49179,1,0,0:0:0:0:
35,100,49413,1,8,0:0:0:0:
246,72,49648,1,0,0:0:0:0:
246,72,49882,2,0,B|397:72,1,135.000005149842
381,222,50351,2,0,B|230:222,1,135.000005149842,8|0,0:0|0:0,0:0:0:0:
35,100,50820,37,0,0:0:0:0:
246,224,51054,1,0,0:0:0:0:
35,350,51288,1,8,0:0:0:0:
246,378,51523,1,0,0:0:0:0:
247,350,51991,2,0,L|398:350,1,135.000005149842
501,364,52460,2,0,L|454:316,1,67.5000025749208
442,286,52695,38,0,P|463:218|436:144,1,135.000005149842,4|0,0:0|0:0,0:0:0:0:
330,132,53163,2,0,P|298:67|225:35,1,135.000005149842,8|0,0:0|0:0,0:0:0:0:
242,152,53632,2,0,L|242:311,1,135.000005149842
246,38,54101,1,8,0:0:0:0:
168,137,54335,1,8,0:0:0:0:
70,279,54570,38,0,P|49:211|76:137,1,135.000005149842
182,125,55038,2,0,P|214:60|286:28,1,135.000005149842,8|0,0:0|0:0,0:0:0:0:
285,140,55507,2,0,L|285:299,1,135.000005149842
267,31,55976,1,10,0:0:0:0:
365,125,56210,1,8,0:0:0:0:
260,45,56445,6,0,P|328:24|402:51,1,135.000005149842
414,157,56913,2,0,P|485:190|502:261,1,135.000005149842,8|0,0:0|0:0,0:0:0:0:
394,260,57382,2,0,L|235:260,1,135.000005149842
508,243,57851,1,8,0:0:0:0:
199,246,58085,1,8,0:0:0:0:
310,335,58320,1,0,0:0:0:0:
453,54,58788,5,8,0:0:0:0:
331,232,59023,2,0,P|333:160|288:96,1,135.000005149842
182,112,59491,1,0,0:0:0:0:
182,112,59726,2,0,P|134:57|55:45,1,135.000005149842,8|0,0:0|0:0,0:0:0:0:
44,42,60077,1,8,0:0:0:0:
77,157,60195,37,8,0:0:0:0:
301,107,60429,1,0,0:0:0:0:
214,244,60663,1,8,0:0:0:0:
164,20,60897,1,0,0:0:0:0:
338,227,61132,37,0,0:0:0:0:
39,36,61366,1,0,0:0:0:0:
39,170,61601,2,8,L|38:26,1,135.000005149842
435,157,62070,5,0,0:0:0:0:
211,107,62304,1,0,0:0:0:0:
298,244,62538,37,8,0:0:0:0:
348,20,62772,1,0,0:0:0:0:
173,227,63007,5,0,0:0:0:0:
473,36,63241,1,0,0:0:0:0:
474,170,63476,2,8,L|472:28,1,135.000005149842,10|8,0:0|0:0,0:0:0:0:
77,227,63945,37,0,0:0:0:0:
301,277,64179,1,0,0:0:0:0:
214,140,64413,5,8,0:0:0:0:
164,364,64647,1,0,0:0:0:0:
338,156,64882,37,0,0:0:0:0:
184,259,65116,1,0,0:0:0:0:
355,262,65351,1,8,0:0:0:0:
39,348,65820,6,0,P|46:255|37:192,1,135.000005149842
135,80,66288,2,0,P|128:173|137:236,1,135.000005149842,8|0,0:0|0:0,0:0:0:0:
366,75,66757,2,0,P|373:168|364:231,1,135.000005149842
462,343,67225,2,0,P|455:250|464:187,1,135.000005149842,8|0,0:0|0:0,0:0:0:0:
373,142,67577,1,8,0:0:0:0:
473,267,67695,5,10,0:0:0:0:
357,84,67929,1,0,0:0:0:0:
305,317,68163,5,8,0:0:0:0:
361,62,68397,1,0,0:0:0:0:
120,217,68632,37,8,0:0:0:0:
382,47,68866,1,0,0:0:0:0:
200,170,69101,5,8,0:0:0:0:
303,96,69335,1,8,0:0:0:0:
39,267,69570,37,8,0:0:0:0:
155,84,69804,1,0,0:0:0:0:
207,317,70038,5,8,0:0:0:0:
151,62,70272,1,0,0:0:0:0:
392,217,70507,37,8,0:0:0:0:
130,47,70741,1,0,0:0:0:0:
312,170,70976,5,10,0:0:0:0:
209,96,71210,1,8,0:0:0:0:
473,117,71445,37,8,0:0:0:0:
357,300,71679,1,0,0:0:0:0:
305,67,71913,5,8,0:0:0:0:
361,322,72147,1,0,0:0:0:0:
120,167,72382,37,8,0:0:0:0:
382,337,72616,1,0,0:0:0:0:
197,213,72851,5,8,0:0:0:0:
300,287,73085,1,8,0:0:0:0:
198,308,73320,37,0,0:0:0:0:
40,359,73788,5,8,0:0:0:0:
246,248,74023,2,0,P|255:181|239:90,1,135.000005149842
255,35,74491,1,0,0:0:0:0:
255,35,74726,2,0,P|334:84|401:97,1,135.000005149842,8|0,0:0|0:0,0:0:0:0:
401,99,75077,1,8,0:0:0:0:
246,248,75195,37,10,0:0:0:0:
130,65,75429,1,0,0:0:0:0:
314,184,75663,5,8,0:0:0:0:
61,128,75897,1,0,0:0:0:0:
319,72,76132,37,8,0:0:0:0:
56,240,76366,1,0,0:0:0:0:
238,120,76601,5,8,0:0:0:0:
135,194,76835,1,8,0:0:0:0:
266,248,77070,37,8,0:0:0:0:
382,65,77304,1,0,0:0:0:0:
197,184,77538,5,8,0:0:0:0:
450,128,77772,1,0,0:0:0:0:
192,72,78007,37,8,0:0:0:0:
455,240,78241,1,0,0:0:0:0:
273,121,78476,5,10,0:0:0:0:
376,195,78710,1,8,0:0:0:0:
115,179,78945,38,0,P|134:116|190:80,1,135.000005149842,8|0,0:0|0:0,0:0:0:0:
237,210,79413,1,8,0:0:0:0:
237,209,79648,2,0,P|222:274|254:332,2,135.000005149842,0|8|8,0:0|0:0|0:0,0:0:0:0:
326,262,80351,1,8,0:0:0:0:
326,262,80820,6,0,B|417:248|417:248|414:192|440:138|440:138|403:116|380:68,1,297.000009063721
428,301,82695,1,0,0:0:0:0:
428,301,83163,6,0,B|312:206|185:351|79:252|75:114|150:56|171:273|355:161,1,594.000018127442
421,123,86210,1,0,0:0:0:0:
256,192,86327,12,4,88320,0:0:0:0:
