osu file format v14

[General]
AudioFilename: audio.mp3
AudioLeadIn: 0
PreviewTime: 50502
Countdown: 1
SampleSet: Normal
StackLeniency: 0.7
Mode: 1
LetterboxInBreaks: 0
WidescreenStoryboard: 0

[Editor]
Bookmarks: 89702,166502,192102
DistanceSpacing: 5.2
BeatDivisor: 8
GridSize: 32
TimelineZoom: 3.299999

[Metadata]
Title:Yui
TitleUnicode:Yui
Artist:Meilune x Soba
ArtistUnicode:Meilune x Soba
Creator:Metzo
Version:Inner Oni
Source:
Tags:
BeatmapID:2035895
BeatmapSetID:972359

[Difficulty]
HPDrainRate:5
CircleSize:5
OverallDifficulty:5
ApproachRate:5
SliderMultiplier:1.4
SliderTickRate:1

[Events]
//Background and Video events
0,0,"yui.jpg",0,0
//Break Periods
//Storyboard Layer 0 (Background)
//Storyboard Layer 1 (Fail)
//Storyboard Layer 2 (Pass)
//Storyboard Layer 3 (Foreground)
//Storyboard Sound Samples

[TimingPoints]
102,400,4,1,0,100,1,0
102,-181.818181818182,4,1,0,100,0,0
252,-178.571428571429,4,1,0,100,0,0
852,-175.438596491228,4,1,0,100,0,0
1052,-172.413793103448,4,1,0,100,0,0
1652,-169.491525423729,4,1,0,100,0,0
1852,-166.666666666667,4,1,0,100,0,0
2452,-163.934426229508,4,1,0,100,0,0
2652,-161.290322580645,4,1,0,100,0,0
2852,-158.730158730159,4,1,0,100,0,0
3052,-156.25,4,1,0,100,0,0
3252,-153.846153846154,4,1,0,100,0,0
3452,-151.515151515152,4,1,0,100,0,0
4052,-149.253731343284,4,1,0,100,0,0
4252,-147.058823529412,4,1,0,100,0,0
4852,-144.927536231884,4,1,0,100,0,0
5052,-142.857142857143,4,1,0,100,0,0
5652,-140.845070422535,4,1,0,100,0,0
5852,-138.888888888889,4,1,0,100,0,0
6052,-136.986301369863,4,1,0,100,0,0
6252,-135.135135135135,4,1,0,100,0,0
6452,-133.333333333333,4,1,0,100,0,0
6652,-131.578947368421,4,1,0,100,0,0
7252,-129.87012987013,4,1,0,100,0,0
7452,-128.205128205128,4,1,0,100,0,0
8052,-126.582278481013,4,1,0,100,0,0
8252,-125,4,1,0,100,0,0
8852,-123.456790123457,4,1,0,100,0,0
9052,-121.951219512195,4,1,0,100,0,0
9252,-120.481927710843,4,1,0,100,0,0
9452,-119.047619047619,4,1,0,100,0,0
9652,-117.647058823529,4,1,0,100,0,0
9852,-116.279069767442,4,1,0,100,0,0
10452,-114.942528735632,4,1,0,100,0,0
10652,-113.636363636364,4,1,0,100,0,0
11252,-112.359550561798,4,1,0,100,0,0
11452,-111.111111111111,4,1,0,100,0,0
11652,-109.89010989011,4,1,0,100,0,0
11852,-108.695652173913,4,1,0,100,0,0
12052,-107.52688172043,4,1,0,100,0,0
12252,-106.382978723404,4,1,0,100,0,0
12452,-105.263157894737,4,1,0,100,0,0
12852,-100,4,1,0,100,0,0
23452,-99.009900990099,4,1,0,100,0,0
23552,-98.0392156862745,4,1,0,100,0,0
23652,-97.0873786407767,4,1,0,100,0,0
23852,-96.1538461538462,4,1,0,100,0,0
24052,-95.2380952380952,4,1,0,100,0,0
24152,-94.3396226415095,4,1,0,100,0,0
24252,-93.4579439252337,4,1,0,100,0,0
24352,-92.5925925925926,4,1,0,100,0,0
24452,-91.7431192660551,4,1,0,100,0,0
24552,-90.9090909090909,4,1,0,100,0,0
24652,-90.0900900900901,4,1,0,100,0,0
24752,-89.2857142857143,4,1,0,100,0,0
24852,-88.495575221239,4,1,0,100,0,0
24952,-87.719298245614,4,1,0,100,0,0
25052,-86.9565217391305,4,1,0,100,0,0
25252,-86.2068965517241,4,1,0,100,0,0
25652,-50,4,1,0,100,0,0
26052,-71.4285714285714,4,1,0,100,0,0
26452,-76.9230769230769,4,1,0,100,0,0
26852,-83.3333333333333,4,1,0,100,0,0
27252,-90.9090909090909,4,1,0,100,0,0
27652,-100,4,1,0,100,0,0
35252,-99.009900990099,4,1,0,100,0,0
35352,-98.0392156862745,4,1,0,100,0,0
35452,-97.0873786407767,4,1,0,100,0,0
35552,-96.1538461538462,4,1,0,100,0,0
35652,-95.2380952380952,4,1,0,100,0,0
35852,-94.3396226415095,4,1,0,100,0,0
35952,-93.4579439252337,4,1,0,100,0,0
36052,-92.5925925925926,4,1,0,100,0,0
36252,-91.7431192660551,4,1,0,100,0,0
36452,-90.9090909090909,4,1,0,100,0,0
36552,-90.0900900900901,4,1,0,100,0,0
36652,-89.2857142857143,4,1,0,100,0,0
36752,-88.495575221239,4,1,0,100,0,0
36852,-87.719298245614,4,1,0,100,0,0
36952,-86.9565217391305,4,1,0,100,0,0
37052,-86.2068965517241,4,1,0,100,0,0
37152,-85.4700854700855,4,1,0,100,0,0
37252,-84.7457627118644,4,1,0,100,0,0
37452,-84.0336134453782,4,1,0,100,0,0
37652,-83.3333333333333,4,1,0,100,0,0
37752,-82.6446280991736,4,1,0,100,0,0
37852,-81.9672131147541,4,1,0,100,0,0
37952,-81.3008130081301,4,1,0,100,0,0
38052,-80.6451612903226,4,1,0,100,0,0
38252,-80,4,1,0,100,0,0
38452,-76.9230769230769,4,1,0,100,0,0
44868,-76.3358778625954,4,1,0,100,0,0
44935,-75.7575757575758,4,1,0,100,0,0
45002,-75.187969924812,4,1,0,100,0,0
45068,-74.6268656716418,4,1,0,100,0,0
45152,-74.0740740740741,4,1,0,100,0,0
45252,-73.5294117647059,4,1,0,100,0,0
45452,-72.992700729927,4,1,0,100,0,0
45668,-72.463768115942,4,1,0,100,0,0
45735,-71.9424460431655,4,1,0,100,0,0
45802,-71.4285714285714,4,1,0,100,0,0
45868,-70.9219858156029,4,1,0,100,0,0
45952,-70.4225352112676,4,1,0,100,0,0
46052,-69.9300699300699,4,1,0,100,0,0
46152,-69.4444444444444,4,1,0,100,0,0
46252,-68.9655172413793,4,1,0,100,0,0
46352,-68.4931506849315,4,1,0,100,0,0
46452,-68.0272108843538,4,1,0,100,0,0
46535,-67.5675675675676,4,1,0,100,0,0
46602,-67.1140939597316,4,1,0,100,0,0
46668,-66.6666666666667,4,1,0,100,0,0
46752,-66.2251655629139,4,1,0,100,0,0
46852,-65.7894736842105,4,1,0,100,0,0
47052,-65.359477124183,4,1,0,100,0,0
47252,-64.9350649350649,4,1,0,100,0,0
47335,-64.5161290322581,4,1,0,100,0,0
47402,-64.1025641025641,4,1,0,100,0,0
47468,-63.6942675159236,4,1,0,100,0,0
47552,-63.2911392405063,4,1,0,100,0,0
47652,-62.8930817610063,4,1,0,100,0,0
47852,-62.5,4,1,0,100,0,0
48068,-62.111801242236,4,1,0,100,0,0
48135,-61.7283950617284,4,1,0,100,0,0
48202,-61.3496932515338,4,1,0,100,0,0
48268,-60.9756097560976,4,1,0,100,0,0
48352,-60.6060606060606,4,1,0,100,0,0
48452,-60.2409638554217,4,1,0,100,0,0
48535,-59.8802395209581,4,1,0,100,0,0
48602,-59.5238095238095,4,1,0,100,0,0
48668,-59.1715976331361,4,1,0,100,0,0
48752,-58.8235294117647,4,1,0,100,0,0
48868,-58.4795321637427,4,1,0,100,0,0
48935,-58.1395348837209,4,1,0,100,0,0
49002,-57.8034682080925,4,1,0,100,0,0
49068,-57.4712643678161,4,1,0,100,0,0
49152,-57.1428571428571,4,1,0,100,0,0
49252,-56.8181818181818,4,1,0,100,0,0
49335,-56.4971751412429,4,1,0,100,0,0
49402,-56.1797752808989,4,1,0,100,0,0
49468,-55.8659217877095,4,1,0,100,0,0
49552,-55.5555555555556,4,1,0,100,0,0
49652,-55.2486187845304,4,1,0,100,0,0
50652,-52.6315789473684,4,1,0,100,0,0
50852,-47.6190476190476,4,1,0,100,0,0
51052,-43.4782608695652,4,1,0,100,0,0
51252,-40,4,1,0,100,0,0
51302,-40,4,1,0,100,0,1
60852,-41.6666666666667,4,1,0,100,0,1
60902,-41.6666666666667,4,1,0,100,0,0
61052,-45.4545454545455,4,1,0,100,0,0
61252,-52.6315789473684,4,1,0,100,0,0
61652,-40,4,1,0,100,0,0
61702,-40,4,1,0,100,0,1
63302,-40,4,1,0,100,0,0
64052,-28.5714285714286,4,1,0,100,0,1
76852,-66.6666666666667,4,1,0,100,0,1
76902,-66.6666666666667,4,1,0,100,0,0
77052,-68.9655172413793,4,1,0,100,0,0
77652,-71.4285714285714,4,1,0,100,0,0
77852,-74.0740740740741,4,1,0,100,0,0
78452,-76.9230769230769,4,1,0,100,0,0
78652,-80,4,1,0,100,0,0
79252,-83.3333333333333,4,1,0,100,0,0
79452,-86.9565217391305,4,1,0,100,0,0
79652,-90.9090909090909,4,1,0,100,0,0
79852,-95.2380952380952,4,1,0,100,0,0
80052,-100,4,1,0,100,0,0
81652,-99.009900990099,4,1,0,100,0,0
81852,-98.0392156862745,4,1,0,100,0,0
82452,-97.0873786407767,4,1,0,100,0,0
82652,-96.1538461538462,4,1,0,100,0,0
82852,-95.2380952380952,4,1,0,100,0,0
83052,-94.3396226415095,4,1,0,100,0,0
83252,-93.4579439252337,4,1,0,100,0,0
83452,-92.5925925925926,4,1,0,100,0,0
84052,-91.7431192660551,4,1,0,100,0,0
84252,-90.9090909090909,4,1,0,100,0,0
84852,-90.0900900900901,4,1,0,100,0,0
85052,-89.2857142857143,4,1,0,100,0,0
85652,-88.495575221239,4,1,0,100,0,0
85852,-87.719298245614,4,1,0,100,0,0
86052,-86.9565217391305,4,1,0,100,0,0
86252,-86.2068965517241,4,1,0,100,0,0
86452,-85.4700854700855,4,1,0,100,0,0
86652,-84.7457627118644,4,1,0,100,0,0
87252,-84.0336134453782,4,1,0,100,0,0
88052,-82.6446280991736,4,1,0,100,0,0
88252,-81.9672131147541,4,1,0,100,0,0
88452,-81.3008130081301,4,1,0,100,0,0
88652,-80.6451612903226,4,1,0,100,0,0
88852,-80,4,1,0,100,0,0
89052,-79.3650793650794,4,1,0,100,0,0
89252,-78.740157480315,4,1,0,100,0,0
89452,-78.125,4,1,0,100,0,0
89552,-77.5193798449613,4,1,0,100,0,0
89652,-76.9230769230769,4,1,0,100,0,0
102852,-80,4,1,0,100,0,0
103252,-66.6666666666667,4,1,0,100,0,0
103352,-83.3333333333333,4,1,0,100,0,0
104852,-55.5555555555556,4,1,0,100,0,0
104952,-86.9565217391305,4,1,0,100,0,0
106452,-47.6190476190476,4,1,0,100,0,0
106552,-90.9090909090909,4,1,0,100,0,0
108052,-41.6666666666667,4,1,0,100,0,0
108152,-95.2380952380952,4,1,0,100,0,0
109652,-37.037037037037,4,1,0,100,0,0
109752,-100,4,1,0,100,0,0
111252,-33.3333333333333,4,1,0,100,0,0
111352,-100,4,1,0,100,0,0
112852,-30.3030303030303,4,1,0,100,0,0
112952,-100,4,1,0,100,0,0
114452,-27.7777777777778,4,1,0,100,0,0
114552,-100,4,1,0,100,0,0
128852,-50,4,1,0,100,0,0
128952,-100,4,1,0,100,0,0
130452,-33.3333333333333,4,1,0,100,0,0
130552,-100,4,1,0,100,0,0
132052,-28.5714285714286,4,1,0,100,0,0
132152,-100,4,1,0,100,0,0
133652,-25,4,1,0,100,0,0
133752,-100,4,1,0,100,0,0
134652,-99.009900990099,4,1,0,100,0,0
134852,-98.0392156862745,4,1,0,100,0,0
135052,-97.0873786407767,4,1,0,100,0,0
135152,-96.1538461538462,4,1,0,100,0,0
135252,-95.2380952380952,4,1,0,100,0,0
135352,-94.3396226415095,4,1,0,100,0,0
135452,-93.4579439252337,4,1,0,100,0,0
135552,-92.5925925925926,4,1,0,100,0,0
135752,-91.7431192660551,4,1,0,100,0,0
135852,-90.9090909090909,4,1,0,100,0,0
135952,-90.0900900900901,4,1,0,100,0,0
136052,-89.2857142857143,4,1,0,100,0,0
136252,-88.495575221239,4,1,0,100,0,0
136352,-87.719298245614,4,1,0,100,0,0
136452,-86.9565217391305,4,1,0,100,0,0
136652,-86.2068965517241,4,1,0,100,0,0
136752,-85.4700854700855,4,1,0,100,0,0
136852,-84.7457627118644,4,1,0,100,0,0
136952,-84.0336134453782,4,1,0,100,0,0
137052,-83.3333333333333,4,1,0,100,0,0
137152,-82.6446280991736,4,1,0,100,0,0
137352,-81.9672131147541,4,1,0,100,0,0
137452,-81.3008130081301,4,1,0,100,0,0
137652,-80.6451612903226,4,1,0,100,0,0
137752,-80,4,1,0,100,0,0
137852,-79.3650793650794,4,1,0,100,0,0
137952,-78.740157480315,4,1,0,100,0,0
138052,-78.125,4,1,0,100,0,0
138127,-77.5193798449613,4,1,0,100,0,0
138177,-76.9230769230769,4,1,0,100,0,0
138252,-76.3358778625954,4,1,0,100,0,0
138327,-75.7575757575758,4,1,0,100,0,0
138377,-75.187969924812,4,1,0,100,0,0
138452,-74.6268656716418,4,1,0,100,0,0
138552,-74.0740740740741,4,1,0,100,0,0
138652,-73.5294117647059,4,1,0,100,0,0
138752,-72.992700729927,4,1,0,100,0,0
138852,-72.463768115942,4,1,0,100,0,0
138927,-71.9424460431655,4,1,0,100,0,0
138977,-71.4285714285714,4,1,0,100,0,0
139052,-70.9219858156029,4,1,0,100,0,0
139127,-70.4225352112676,4,1,0,100,0,0
139177,-69.9300699300699,4,1,0,100,0,0
139252,-69.4444444444444,4,1,0,100,0,0
139352,-68.9655172413793,4,1,0,100,0,0
139452,-68.4931506849315,4,1,0,100,0,0
139552,-68.0272108843538,4,1,0,100,0,0
139652,-67.5675675675676,4,1,0,100,0,0
139727,-67.1140939597316,4,1,0,100,0,0
139777,-66.6666666666667,4,1,0,100,0,0
139852,-66.2251655629139,4,1,0,100,0,0
139927,-65.7894736842105,4,1,0,100,0,0
139977,-65.359477124183,4,1,0,100,0,0
140052,-64.9350649350649,4,1,0,100,0,0
140152,-64.5161290322581,4,1,0,100,0,0
140252,-64.1025641025641,4,1,0,100,0,0
140352,-63.6942675159236,4,1,0,100,0,0
140452,-63.2911392405063,4,1,0,100,0,0
140527,-62.8930817610063,4,1,0,100,0,0
140577,-62.5,4,1,0,100,0,0
140652,-62.111801242236,4,1,0,100,0,0
140727,-61.7283950617284,4,1,0,100,0,0
140777,-61.3496932515338,4,1,0,100,0,0
140852,-60.9756097560976,4,1,0,100,0,0
141252,-66.6666666666667,4,1,0,100,0,0
141652,-74.0740740740741,4,1,0,100,0,0
142052,-76.9230769230769,4,1,0,100,0,0
142152,-80,4,1,0,100,0,0
142252,-83.3333333333333,4,1,0,100,0,0
142552,-86.9565217391305,4,1,0,100,0,0
142652,-90.9090909090909,4,1,0,100,0,0
142852,-95.2380952380952,4,1,0,100,0,0
143002,-100,4,1,0,100,0,0
143252,-71.4285714285714,4,1,0,100,0,0
143352,-74.0740740740741,4,1,0,100,0,0
143452,-76.9230769230769,4,1,0,100,0,0
143552,-80,4,1,0,100,0,0
143652,-83.3333333333333,4,1,0,100,0,0
143752,-86.9565217391305,4,1,0,100,0,0
143852,-90.9090909090909,4,1,0,100,0,0
143952,-95.2380952380952,4,1,0,100,0,0
144052,-100,4,1,0,100,0,0
146452,-71.4285714285714,4,1,0,100,0,0
146552,-74.0740740740741,4,1,0,100,0,0
146652,-76.9230769230769,4,1,0,100,0,0
146752,-80,4,1,0,100,0,0
146852,-83.3333333333333,4,1,0,100,0,0
146952,-86.9565217391305,4,1,0,100,0,0
147052,-90.9090909090909,4,1,0,100,0,0
147152,-95.2380952380952,4,1,0,100,0,0
147252,-100,4,1,0,100,0,0
149652,-71.4285714285714,4,1,0,100,0,0
149752,-74.0740740740741,4,1,0,100,0,0
149852,-76.9230769230769,4,1,0,100,0,0
149952,-80,4,1,0,100,0,0
150052,-83.3333333333333,4,1,0,100,0,0
150152,-86.9565217391305,4,1,0,100,0,0
150252,-90.9090909090909,4,1,0,100,0,0
150352,-95.2380952380952,4,1,0,100,0,0
150452,-100,4,1,0,100,0,0
152852,-71.4285714285714,4,1,0,100,0,0
152952,-74.0740740740741,4,1,0,100,0,0
153052,-76.9230769230769,4,1,0,100,0,0
153152,-80,4,1,0,100,0,0
153252,-83.3333333333333,4,1,0,100,0,0
153352,-86.9565217391305,4,1,0,100,0,0
153452,-90.9090909090909,4,1,0,100,0,0
153552,-95.2380952380952,4,1,0,100,0,0
153652,-100,4,1,0,100,0,0
153852,-96.1538461538462,4,1,0,100,0,0
154452,-92.5925925925926,4,1,0,100,0,0
154652,-89.2857142857143,4,1,0,100,0,0
155252,-86.2068965517241,4,1,0,100,0,0
155452,-83.3333333333333,4,1,0,100,0,0
156052,-80.6451612903226,4,1,0,100,0,0
156252,-78.125,4,1,0,100,0,0
156452,-75.7575757575758,4,1,0,100,0,0
156652,-73.5294117647059,4,1,0,100,0,0
156852,-71.4285714285714,4,1,0,100,0,0
157052,-69.4444444444444,4,1,0,100,0,0
157652,-67.5675675675676,4,1,0,100,0,0
157852,-65.7894736842105,4,1,0,100,0,0
158452,-64.1025641025641,4,1,0,100,0,0
158652,-62.5,4,1,0,100,0,0
159252,-60.9756097560976,4,1,0,100,0,0
159452,-59.5238095238095,4,1,0,100,0,0
159652,-58.1395348837209,4,1,0,100,0,0
159852,-56.8181818181818,4,1,0,100,0,0
160052,-55.5555555555556,4,1,0,100,0,0
160252,-56.8181818181818,4,1,0,100,0,0
160452,-58.8235294117647,4,1,0,100,0,0
160652,-60.6060606060606,4,1,0,100,0,0
160852,-62.5,4,1,0,100,0,0
161052,-64.5161290322581,4,1,0,100,0,0
161252,-66.6666666666667,4,1,0,100,0,0
161452,-68.9655172413793,4,1,0,100,0,0
161652,-71.4285714285714,4,1,0,100,0,0
161852,-74.0740740740741,4,1,0,100,0,0
162052,-76.9230769230769,4,1,0,100,0,0
162252,-80,4,1,0,100,0,0
162452,-74.0740740740741,4,1,0,100,0,0
162652,-66.6666666666667,4,1,0,100,0,0
162852,-58.8235294117647,4,1,0,100,0,0
163052,-51.2820512820513,4,1,0,100,0,0
163252,-51.0204081632653,4,1,0,100,0,0
163352,-50.761421319797,4,1,0,100,0,0
163452,-50.5050505050505,4,1,0,100,0,0
163552,-50.251256281407,4,1,0,100,0,0
163652,-50,4,1,0,100,0,0
163727,-49.7512437810945,4,1,0,100,0,0
163777,-49.5049504950495,4,1,0,100,0,0
163852,-49.2610837438424,4,1,0,100,0,0
163927,-49.0196078431373,4,1,0,100,0,0
163977,-48.780487804878,4,1,0,100,0,0
164052,-48.5436893203884,4,1,0,100,0,0
164152,-48.3091787439614,4,1,0,100,0,0
164252,-48.0769230769231,4,1,0,100,0,0
164352,-47.8468899521531,4,1,0,100,0,0
164452,-47.6190476190476,4,1,0,100,0,0
164527,-47.39336492891,4,1,0,100,0,0
164577,-47.1698113207547,4,1,0,100,0,0
164652,-46.9483568075117,4,1,0,100,0,0
164727,-46.7289719626168,4,1,0,100,0,0
164777,-46.5116279069767,4,1,0,100,0,0
164852,-46.2962962962963,4,1,0,100,0,0
164952,-46.0829493087558,4,1,0,100,0,0
165052,-45.8715596330275,4,1,0,100,0,0
165152,-45.662100456621,4,1,0,100,0,0
165252,-45.4545454545455,4,1,0,100,0,0
165327,-45.2488687782806,4,1,0,100,0,0
165377,-45.0450450450451,4,1,0,100,0,0
165452,-44.8430493273543,4,1,0,100,0,0
165527,-44.6428571428571,4,1,0,100,0,0
165577,-44.4444444444445,4,1,0,100,0,0
165652,-44.2477876106195,4,1,0,100,0,0
165752,-44.0528634361234,4,1,0,100,0,0
165852,-43.859649122807,4,1,0,100,0,0
165952,-43.6681222707424,4,1,0,100,0,0
166052,-43.4782608695652,4,1,0,100,0,0
166127,-43.2900432900433,4,1,0,100,0,0
166177,-43.1034482758621,4,1,0,100,0,0
166252,-42.9184549356223,4,1,0,100,0,0
166327,-42.7350427350427,4,1,0,100,0,0
166377,-42.5531914893617,4,1,0,100,0,0
166452,-33.3333333333333,4,1,0,100,0,0
166502,-33.3333333333333,4,1,0,100,0,1
179252,-25,4,1,0,100,0,1
179302,-25,4,1,0,100,0,0
182502,-25,4,1,0,100,0,1
192052,-66.6666666666667,4,1,0,100,0,1
192102,-66.6666666666667,4,1,0,100,0,0
192252,-68.9655172413793,4,1,0,100,0,0
192852,-71.4285714285714,4,1,0,100,0,0
193052,-74.0740740740741,4,1,0,100,0,0
193652,-76.9230769230769,4,1,0,100,0,0
193852,-80,4,1,0,100,0,0
194452,-83.3333333333333,4,1,0,100,0,0
194652,-86.9565217391305,4,1,0,100,0,0
194852,-90.9090909090909,4,1,0,100,0,0
195052,-95.2380952380952,4,1,0,100,0,0
195252,-100,4,1,0,100,0,0
195452,-105.263157894737,4,1,0,100,0,0
196052,-111.111111111111,4,1,0,100,0,0
196252,-117.647058823529,4,1,0,100,0,0
196852,-125,4,1,0,100,0,0
197052,-133.333333333333,4,1,0,100,0,0

[HitObjects]
256,192,102,5,8,0:0:0:0:
256,192,302,1,0,0:0:0:0:
256,192,902,1,8,0:0:0:0:
256,192,1102,1,0,0:0:0:0:
256,192,1702,1,8,0:0:0:0:
256,192,1902,1,0,0:0:0:0:
256,192,2502,1,8,0:0:0:0:
256,192,2702,1,8,0:0:0:0:
256,192,2902,1,0,0:0:0:0:
256,192,3102,1,0,0:0:0:0:
256,192,3302,1,8,0:0:0:0:
256,192,3502,1,0,0:0:0:0:
256,192,4102,1,8,0:0:0:0:
256,192,4302,1,0,0:0:0:0:
256,192,4902,1,8,0:0:0:0:
256,192,5102,1,0,0:0:0:0:
256,192,5702,1,0,0:0:0:0:
256,192,5902,1,8,0:0:0:0:
256,192,6102,1,8,0:0:0:0:
256,192,6302,1,0,0:0:0:0:
256,192,6502,1,8,0:0:0:0:
256,192,6702,1,0,0:0:0:0:
256,192,7302,1,8,0:0:0:0:
256,192,7502,1,0,0:0:0:0:
256,192,8102,1,8,0:0:0:0:
256,192,8302,1,0,0:0:0:0:
256,192,8902,1,0,0:0:0:0:
256,192,9102,1,8,0:0:0:0:
256,192,9302,1,8,0:0:0:0:
256,192,9502,1,0,0:0:0:0:
256,192,9702,1,8,0:0:0:0:
256,192,9902,1,0,0:0:0:0:
256,192,10502,1,8,0:0:0:0:
256,192,10702,1,0,0:0:0:0:
256,192,11302,1,8,0:0:0:0:
256,192,11502,1,0,0:0:0:0:
256,192,11702,1,8,0:0:0:0:
256,192,11902,1,8,0:0:0:0:
256,192,12102,1,0,0:0:0:0:
256,192,12302,1,8,0:0:0:0:
256,192,12502,1,8,0:0:0:0:
256,192,12902,1,8,0:0:0:0:
256,192,13102,1,0,0:0:0:0:
256,192,13202,1,0,0:0:0:0:
256,192,13302,1,8,0:0:0:0:
256,192,13502,1,0,0:0:0:0:
256,192,13702,1,8,0:0:0:0:
256,192,13802,1,8,0:0:0:0:
256,192,13902,1,0,0:0:0:0:
256,192,14102,1,8,0:0:0:0:
256,192,14302,1,0,0:0:0:0:
256,192,14502,1,8,0:0:0:0:
256,192,14602,1,8,0:0:0:0:
256,192,14702,1,0,0:0:0:0:
256,192,14802,1,0,0:0:0:0:
256,192,14902,1,8,0:0:0:0:
256,192,15102,1,0,0:0:0:0:
256,192,15302,1,8,0:0:0:0:
256,192,15402,1,0,0:0:0:0:
256,192,15502,1,8,0:0:0:0:
256,192,15602,1,8,0:0:0:0:
256,192,15702,1,0,0:0:0:0:
256,192,15802,1,8,0:0:0:0:
256,192,15902,1,0,0:0:0:0:
256,192,16002,1,0,0:0:0:0:
256,192,16102,1,8,0:0:0:0:
256,192,16302,1,0,0:0:0:0:
256,192,16502,1,8,0:0:0:0:
256,192,16602,1,8,0:0:0:0:
256,192,16702,1,0,0:0:0:0:
256,192,16902,1,8,0:0:0:0:
256,192,17102,1,0,0:0:0:0:
256,192,17202,1,0,0:0:0:0:
256,192,17302,1,8,0:0:0:0:
256,192,17502,1,0,0:0:0:0:
256,192,17702,1,8,0:0:0:0:
256,192,17902,1,0,0:0:0:0:
256,192,18102,1,8,0:0:0:0:
256,192,18202,1,0,0:0:0:0:
256,192,18302,1,8,0:0:0:0:
256,192,18502,1,0,0:0:0:0:
256,192,18602,1,0,0:0:0:0:
256,192,18702,1,8,0:0:0:0:
256,192,18802,1,0,0:0:0:0:
256,192,18902,1,8,0:0:0:0:
256,192,19002,1,8,0:0:0:0:
256,192,19102,1,0,0:0:0:0:
256,192,19202,1,0,0:0:0:0:
256,192,19302,1,8,0:0:0:0:
256,192,19502,1,0,0:0:0:0:
256,192,19702,1,8,0:0:0:0:
256,192,19902,1,0,0:0:0:0:
256,192,20002,1,0,0:0:0:0:
256,192,20102,1,8,0:0:0:0:
256,192,20302,1,0,0:0:0:0:
256,192,20502,1,8,0:0:0:0:
256,192,20602,1,8,0:0:0:0:
256,192,20702,1,0,0:0:0:0:
256,192,20802,1,0,0:0:0:0:
256,192,20902,1,8,0:0:0:0:
256,192,21102,1,0,0:0:0:0:
256,192,21302,1,8,0:0:0:0:
256,192,21502,1,0,0:0:0:0:
256,192,21702,1,0,0:0:0:0:
256,192,21802,1,8,0:0:0:0:
256,192,21902,1,8,0:0:0:0:
256,192,22002,1,8,0:0:0:0:
256,192,22102,1,0,0:0:0:0:
256,192,22202,1,0,0:0:0:0:
256,192,22302,1,8,0:0:0:0:
256,192,22402,1,0,0:0:0:0:
256,192,22502,1,8,0:0:0:0:
256,192,22702,1,0,0:0:0:0:
256,192,22902,1,8,0:0:0:0:
256,192,23002,1,0,0:0:0:0:
256,192,23102,1,0,0:0:0:0:
256,192,23202,1,0,0:0:0:0:
256,192,23302,1,8,0:0:0:0:
256,192,23502,1,0,0:0:0:0:
256,192,23602,1,0,0:0:0:0:
256,192,23702,1,8,0:0:0:0:
256,192,23902,1,0,0:0:0:0:
256,192,24102,1,8,0:0:0:0:
256,192,24202,1,8,0:0:0:0:
256,192,24302,1,0,0:0:0:0:
256,192,24402,1,0,0:0:0:0:
256,192,24502,1,8,0:0:0:0:
256,192,24602,1,0,0:0:0:0:
256,192,24702,1,8,0:0:0:0:
256,192,24802,1,8,0:0:0:0:
256,192,24902,1,0,0:0:0:0:
256,192,25002,1,0,0:0:0:0:
256,192,25102,1,8,0:0:0:0:
256,192,25302,1,8,0:0:0:0:
256,192,25702,1,4,0:0:0:0:
256,192,26102,1,8,0:0:0:0:
256,192,26502,1,8,0:0:0:0:
256,192,26902,1,8,0:0:0:0:
256,192,27302,1,4,0:0:0:0:
256,192,27702,1,8,0:0:0:0:
256,192,28102,1,8,0:0:0:0:
256,192,28502,1,8,0:0:0:0:
256,192,28902,1,4,0:0:0:0:
256,192,29302,1,8,0:0:0:0:
256,192,29702,1,8,0:0:0:0:
256,192,30102,1,8,0:0:0:0:
256,192,30502,1,4,0:0:0:0:
256,192,30902,1,8,0:0:0:0:
256,192,31302,1,8,0:0:0:0:
256,192,31702,1,8,0:0:0:0:
256,192,31902,1,8,0:0:0:0:
256,192,32102,1,4,0:0:0:0:
256,192,32302,1,0,0:0:0:0:
256,192,32402,1,0,0:0:0:0:
256,192,32502,1,8,0:0:0:0:
256,192,32702,1,8,0:0:0:0:
256,192,32902,1,0,0:0:0:0:
256,192,33002,1,8,0:0:0:0:
256,192,33102,1,8,0:0:0:0:
256,192,33302,1,0,0:0:0:0:
256,192,33402,1,0,0:0:0:0:
256,192,33502,1,8,0:0:0:0:
256,192,33602,1,0,0:0:0:0:
256,192,33702,1,8,0:0:0:0:
256,192,33802,1,8,0:0:0:0:
256,192,33902,1,0,0:0:0:0:
256,192,34002,1,0,0:0:0:0:
256,192,34102,1,8,0:0:0:0:
256,192,34302,1,8,0:0:0:0:
256,192,34402,1,8,0:0:0:0:
256,192,34502,1,0,0:0:0:0:
256,192,34702,1,8,0:0:0:0:
256,192,34902,1,0,0:0:0:0:
256,192,35002,1,0,0:0:0:0:
256,192,35102,1,8,0:0:0:0:
256,192,35302,1,0,0:0:0:0:
256,192,35402,1,8,0:0:0:0:
256,192,35502,1,8,0:0:0:0:
256,192,35602,1,0,0:0:0:0:
256,192,35702,1,0,0:0:0:0:
256,192,35902,1,8,0:0:0:0:
256,192,36002,1,8,0:0:0:0:
256,192,36102,1,0,0:0:0:0:
256,192,36302,1,8,0:0:0:0:
256,192,36502,1,0,0:0:0:0:
256,192,36602,1,0,0:0:0:0:
256,192,36702,1,8,0:0:0:0:
256,192,36802,1,0,0:0:0:0:
256,192,36902,1,8,0:0:0:0:
256,192,37002,1,0,0:0:0:0:
256,192,37102,1,8,0:0:0:0:
256,192,37202,1,8,0:0:0:0:
256,192,37302,1,8,0:0:0:0:
256,192,37502,1,8,0:0:0:0:
256,192,37702,1,0,0:0:0:0:
256,192,37802,1,0,0:0:0:0:
256,192,37902,1,8,0:0:0:0:
256,192,38002,1,8,0:0:0:0:
256,192,38102,1,0,0:0:0:0:
256,192,38302,1,0,0:0:0:0:
256,192,38502,1,0,0:0:0:0:
256,192,38602,1,0,0:0:0:0:
256,192,38702,1,8,0:0:0:0:
256,192,38802,1,0,0:0:0:0:
256,192,38902,1,8,0:0:0:0:
256,192,39102,1,0,0:0:0:0:
256,192,39202,1,0,0:0:0:0:
256,192,39302,1,8,0:0:0:0:
256,192,39502,1,0,0:0:0:0:
256,192,39602,1,0,0:0:0:0:
256,192,39702,1,8,0:0:0:0:
256,192,39802,1,0,0:0:0:0:
256,192,39902,1,8,0:0:0:0:
256,192,40002,1,8,0:0:0:0:
256,192,40102,1,0,0:0:0:0:
256,192,40202,1,0,0:0:0:0:
256,192,40302,1,8,0:0:0:0:
256,192,40502,1,8,0:0:0:0:
256,192,40702,1,8,0:0:0:0:
256,192,40802,1,0,0:0:0:0:
256,192,41002,1,8,0:0:0:0:
256,192,41102,1,0,0:0:0:0:
256,192,41302,1,8,0:0:0:0:
256,192,41402,1,8,0:0:0:0:
256,192,41502,1,0,0:0:0:0:
256,192,41602,1,8,0:0:0:0:
256,192,41702,1,0,0:0:0:0:
256,192,41802,1,0,0:0:0:0:
256,192,41902,1,8,0:0:0:0:
256,192,42002,1,0,0:0:0:0:
256,192,42102,1,8,0:0:0:0:
256,192,42302,1,8,0:0:0:0:
256,192,42402,1,8,0:0:0:0:
256,192,42502,1,0,0:0:0:0:
256,192,42702,1,0,0:0:0:0:
256,192,42802,1,8,0:0:0:0:
256,192,42902,1,8,0:0:0:0:
256,192,43002,1,8,0:0:0:0:
256,192,43102,1,0,0:0:0:0:
256,192,43202,1,0,0:0:0:0:
256,192,43302,1,8,0:0:0:0:
256,192,43502,1,0,0:0:0:0:
256,192,43702,1,8,0:0:0:0:
256,192,43902,1,0,0:0:0:0:
256,192,44002,1,8,0:0:0:0:
256,192,44102,1,8,0:0:0:0:
256,192,44202,1,0,0:0:0:0:
256,192,44302,1,8,0:0:0:0:
256,192,44502,1,8,0:0:0:0:
256,192,44702,1,8,0:0:0:0:
256,192,44902,1,0,0:0:0:0:
256,192,44968,1,0,0:0:0:0:
256,192,45035,1,0,0:0:0:0:
256,192,45102,1,8,0:0:0:0:
256,192,45202,1,8,0:0:0:0:
256,192,45302,1,0,0:0:0:0:
256,192,45502,1,8,0:0:0:0:
256,192,45702,1,0,0:0:0:0:
256,192,45768,1,0,0:0:0:0:
256,192,45835,1,0,0:0:0:0:
256,192,45902,1,8,0:0:0:0:
256,192,46002,1,8,0:0:0:0:
256,192,46102,1,0,0:0:0:0:
256,192,46202,1,0,0:0:0:0:
256,192,46302,1,8,0:0:0:0:
256,192,46402,1,8,0:0:0:0:
256,192,46502,1,0,0:0:0:0:
256,192,46568,1,0,0:0:0:0:
256,192,46635,1,0,0:0:0:0:
256,192,46702,1,8,0:0:0:0:
256,192,46802,1,8,0:0:0:0:
256,192,46902,1,0,0:0:0:0:
256,192,47102,1,8,0:0:0:0:
256,192,47302,1,0,0:0:0:0:
256,192,47368,1,0,0:0:0:0:
256,192,47435,1,0,0:0:0:0:
256,192,47502,1,8,0:0:0:0:
256,192,47602,1,8,0:0:0:0:
256,192,47702,1,0,0:0:0:0:
256,192,47902,1,0,0:0:0:0:
256,192,48102,1,8,0:0:0:0:
256,192,48168,1,8,0:0:0:0:
256,192,48235,1,8,0:0:0:0:
256,192,48302,1,0,0:0:0:0:
256,192,48402,1,0,0:0:0:0:
256,192,48502,1,8,0:0:0:0:
256,192,48568,1,8,0:0:0:0:
256,192,48635,1,8,0:0:0:0:
256,192,48702,1,0,0:0:0:0:
256,192,48802,1,0,0:0:0:0:
256,192,48902,1,8,0:0:0:0:
256,192,48968,1,8,0:0:0:0:
256,192,49035,1,8,0:0:0:0:
256,192,49102,1,0,0:0:0:0:
256,192,49202,1,0,0:0:0:0:
256,192,49302,1,8,0:0:0:0:
256,192,49368,1,8,0:0:0:0:
256,192,49435,1,8,0:0:0:0:
256,192,49502,1,0,0:0:0:0:
256,192,49602,1,0,0:0:0:0:
256,192,49702,1,0,0:0:0:0:
256,192,50502,1,0,0:0:0:0:
256,192,50702,1,8,0:0:0:0:
256,192,50902,1,0,0:0:0:0:
256,192,51102,1,8,0:0:0:0:
256,192,51302,1,12,0:0:0:0:
256,192,51502,1,4,0:0:0:0:
256,192,52102,1,12,0:0:0:0:
256,192,52302,1,4,0:0:0:0:
256,192,52902,1,12,0:0:0:0:
256,192,53102,1,4,0:0:0:0:
256,192,53702,1,4,0:0:0:0:
256,192,53902,1,12,0:0:0:0:
256,192,54102,1,4,0:0:0:0:
256,192,54302,1,4,0:0:0:0:
256,192,54502,1,12,0:0:0:0:
256,192,54702,1,4,0:0:0:0:
256,192,55302,1,12,0:0:0:0:
256,192,55502,1,4,0:0:0:0:
256,192,56102,1,12,0:0:0:0:
256,192,56302,1,4,0:0:0:0:
256,192,56902,1,4,0:0:0:0:
256,192,57102,1,12,0:0:0:0:
256,192,57302,1,4,0:0:0:0:
256,192,57502,1,12,0:0:0:0:
256,192,57702,1,12,0:0:0:0:
256,192,57902,1,4,0:0:0:0:
256,192,58502,1,12,0:0:0:0:
256,192,58702,1,4,0:0:0:0:
256,192,59302,1,12,0:0:0:0:
256,192,59502,1,4,0:0:0:0:
256,192,60102,1,12,0:0:0:0:
256,192,60302,1,4,0:0:0:0:
256,192,60502,1,12,0:0:0:0:
256,192,60702,1,12,0:0:0:0:
256,192,60902,1,4,0:0:0:0:
256,192,61102,1,4,0:0:0:0:
256,192,61302,1,4,0:0:0:0:
256,192,61702,1,12,0:0:0:0:
256,192,61902,1,4,0:0:0:0:
256,192,62502,1,12,0:0:0:0:
256,192,62702,1,4,0:0:0:0:
256,192,63302,1,12,0:0:0:0:
256,192,63502,1,12,0:0:0:0:
256,192,63702,1,4,0:0:0:0:
256,192,63902,1,4,0:0:0:0:
256,192,64102,1,12,0:0:0:0:
256,192,64302,1,4,0:0:0:0:
256,192,64902,1,12,0:0:0:0:
256,192,65102,1,4,0:0:0:0:
256,192,65702,1,12,0:0:0:0:
256,192,65902,1,4,0:0:0:0:
256,192,66502,1,4,0:0:0:0:
256,192,66702,1,12,0:0:0:0:
256,192,66902,1,4,0:0:0:0:
256,192,67102,1,4,0:0:0:0:
256,192,67302,1,12,0:0:0:0:
256,192,67502,1,4,0:0:0:0:
256,192,68102,1,12,0:0:0:0:
256,192,68302,1,4,0:0:0:0:
256,192,68902,1,12,0:0:0:0:
256,192,69102,1,4,0:0:0:0:
256,192,69702,1,4,0:0:0:0:
256,192,69902,1,12,0:0:0:0:
256,192,70102,1,4,0:0:0:0:
256,192,70302,1,12,0:0:0:0:
256,192,70502,1,12,0:0:0:0:
256,192,70702,1,4,0:0:0:0:
256,192,71302,1,12,0:0:0:0:
256,192,71502,1,4,0:0:0:0:
256,192,72102,1,12,0:0:0:0:
256,192,72302,1,4,0:0:0:0:
256,192,72902,1,12,0:0:0:0:
256,192,73102,1,12,0:0:0:0:
256,192,73302,1,4,0:0:0:0:
256,192,73502,1,4,0:0:0:0:
256,192,73702,1,12,0:0:0:0:
256,192,73902,1,4,0:0:0:0:
256,192,74502,1,12,0:0:0:0:
256,192,74702,1,4,0:0:0:0:
256,192,75302,1,12,0:0:0:0:
256,192,75502,1,4,0:0:0:0:
256,192,75702,1,12,0:0:0:0:
256,192,75902,1,12,0:0:0:0:
256,192,76102,1,4,0:0:0:0:
256,192,76302,1,4,0:0:0:0:
256,192,76502,1,12,0:0:0:0:
256,192,76902,1,8,0:0:0:0:
256,192,77102,1,0,0:0:0:0:
256,192,77702,1,8,0:0:0:0:
256,192,77902,1,0,0:0:0:0:
256,192,78502,1,8,0:0:0:0:
256,192,78702,1,0,0:0:0:0:
256,192,79302,1,0,0:0:0:0:
256,192,79502,1,8,0:0:0:0:
256,192,79702,1,0,0:0:0:0:
256,192,79902,1,0,0:0:0:0:
256,192,80102,1,8,0:0:0:0:
256,192,80302,1,0,0:0:0:0:
256,192,80902,1,8,0:0:0:0:
256,192,81102,1,0,0:0:0:0:
256,192,81702,1,8,0:0:0:0:
256,192,81902,1,0,0:0:0:0:
256,192,82502,1,0,0:0:0:0:
256,192,82702,1,8,0:0:0:0:
256,192,82902,1,0,0:0:0:0:
256,192,83102,1,8,0:0:0:0:
256,192,83302,1,8,0:0:0:0:
256,192,83502,1,0,0:0:0:0:
256,192,84102,1,8,0:0:0:0:
256,192,84302,1,0,0:0:0:0:
256,192,84902,1,8,0:0:0:0:
256,192,85102,1,0,0:0:0:0:
256,192,85702,1,8,0:0:0:0:
256,192,85902,1,8,0:0:0:0:
256,192,86102,1,0,0:0:0:0:
256,192,86302,1,0,0:0:0:0:
256,192,86502,1,8,0:0:0:0:
256,192,86702,1,0,0:0:0:0:
256,192,87302,1,8,0:0:0:0:
256,192,87502,1,0,0:0:0:0:
256,192,88102,1,8,0:0:0:0:
256,192,88302,1,0,0:0:0:0:
256,192,88502,1,8,0:0:0:0:
256,192,88702,1,8,0:0:0:0:
256,192,88902,1,0,0:0:0:0:
256,192,89102,1,0,0:0:0:0:
256,192,89302,1,8,0:0:0:0:
256,192,89502,1,8,0:0:0:0:
256,192,89602,1,8,0:0:0:0:
256,192,89702,1,4,0:0:0:0:
256,192,89902,1,8,0:0:0:0:
256,192,90102,1,0,0:0:0:0:
256,192,90202,1,0,0:0:0:0:
256,192,90302,1,8,0:0:0:0:
256,192,90502,1,8,0:0:0:0:
256,192,90702,1,0,0:0:0:0:
256,192,90802,1,8,0:0:0:0:
256,192,91002,1,0,0:0:0:0:
256,192,91102,1,8,0:0:0:0:
256,192,91302,1,0,0:0:0:0:
256,192,91502,1,8,0:0:0:0:
256,192,91602,1,8,0:0:0:0:
256,192,91702,1,0,0:0:0:0:
256,192,91902,1,0,0:0:0:0:
256,192,92102,1,8,0:0:0:0:
256,192,92202,1,0,0:0:0:0:
256,192,92302,1,0,0:0:0:0:
256,192,92402,1,8,0:0:0:0:
256,192,92602,1,0,0:0:0:0:
256,192,92702,1,8,0:0:0:0:
256,192,92902,1,0,0:0:0:0:
256,192,93102,1,0,0:0:0:0:
256,192,93202,1,0,0:0:0:0:
256,192,93302,1,0,0:0:0:0:
256,192,93502,1,0,0:0:0:0:
256,192,93702,1,8,0:0:0:0:
256,192,93802,1,8,0:0:0:0:
256,192,93902,1,0,0:0:0:0:
256,192,94002,1,8,0:0:0:0:
256,192,94202,1,0,0:0:0:0:
256,192,94302,1,8,0:0:0:0:
256,192,94402,1,8,0:0:0:0:
256,192,94502,1,0,0:0:0:0:
256,192,94702,1,8,0:0:0:0:
256,192,94902,1,0,0:0:0:0:
256,192,95002,1,0,0:0:0:0:
256,192,95102,1,8,0:0:0:0:
256,192,95202,1,0,0:0:0:0:
256,192,95302,1,8,0:0:0:0:
256,192,95502,1,0,0:0:0:0:
256,192,95602,1,8,0:0:0:0:
256,192,95802,1,8,0:0:0:0:
256,192,95902,1,8,0:0:0:0:
256,192,96002,1,8,0:0:0:0:
256,192,96102,1,4,0:0:0:0:
256,192,96302,1,8,0:0:0:0:
256,192,96402,1,0,0:0:0:0:
256,192,96502,1,0,0:0:0:0:
256,192,96702,1,0,0:0:0:0:
256,192,96902,1,8,0:0:0:0:
256,192,97102,1,0,0:0:0:0:
256,192,97202,1,8,0:0:0:0:
256,192,97402,1,0,0:0:0:0:
256,192,97502,1,8,0:0:0:0:
256,192,97702,1,0,0:0:0:0:
256,192,97902,1,8,0:0:0:0:
256,192,98002,1,8,0:0:0:0:
256,192,98102,1,0,0:0:0:0:
256,192,98302,1,0,0:0:0:0:
256,192,98502,1,8,0:0:0:0:
256,192,98602,1,0,0:0:0:0:
256,192,98702,1,0,0:0:0:0:
256,192,98802,1,8,0:0:0:0:
256,192,99002,1,0,0:0:0:0:
256,192,99102,1,8,0:0:0:0:
256,192,99302,1,0,0:0:0:0:
256,192,99502,1,8,0:0:0:0:
256,192,99602,1,8,0:0:0:0:
256,192,99702,1,0,0:0:0:0:
256,192,99802,1,0,0:0:0:0:
256,192,99902,1,8,0:0:0:0:
256,192,100102,1,0,0:0:0:0:
256,192,100202,1,0,0:0:0:0:
256,192,100302,1,0,0:0:0:0:
256,192,100402,1,8,0:0:0:0:
256,192,100602,1,0,0:0:0:0:
256,192,100702,1,8,0:0:0:0:
256,192,100802,1,8,0:0:0:0:
256,192,100902,1,0,0:0:0:0:
256,192,101102,1,8,0:0:0:0:
256,192,101202,1,8,0:0:0:0:
256,192,101302,1,0,0:0:0:0:
256,192,101502,1,8,0:0:0:0:
256,192,101602,1,0,0:0:0:0:
256,192,101702,1,8,0:0:0:0:
256,192,101802,1,0,0:0:0:0:
256,192,101902,1,0,0:0:0:0:
256,192,102002,1,0,0:0:0:0:
256,192,102102,1,8,0:0:0:0:
256,192,102302,1,8,0:0:0:0:
256,192,102402,1,8,0:0:0:0:
256,192,102502,1,4,0:0:0:0:
256,192,102902,1,0,0:0:0:0:
256,192,103302,1,12,0:0:0:0:
256,192,103602,1,0,0:0:0:0:
256,192,103902,1,0,0:0:0:0:
256,192,104302,1,0,0:0:0:0:
256,192,104502,1,0,0:0:0:0:
256,192,104902,1,12,0:0:0:0:
256,192,105202,1,0,0:0:0:0:
256,192,105502,1,0,0:0:0:0:
256,192,105702,1,0,0:0:0:0:
256,192,106102,1,0,0:0:0:0:
256,192,106502,1,12,0:0:0:0:
256,192,106802,1,0,0:0:0:0:
256,192,107102,1,0,0:0:0:0:
256,192,107502,1,0,0:0:0:0:
256,192,107602,1,0,0:0:0:0:
256,192,107702,1,0,0:0:0:0:
256,192,107902,1,0,0:0:0:0:
256,192,108102,1,12,0:0:0:0:
256,192,108302,1,0,0:0:0:0:
256,192,108402,1,0,0:0:0:0:
256,192,108602,1,0,0:0:0:0:
256,192,108702,1,0,0:0:0:0:
256,192,108802,1,0,0:0:0:0:
256,192,108902,1,0,0:0:0:0:
256,192,109302,1,0,0:0:0:0:
256,192,109702,1,12,0:0:0:0:
256,192,110002,1,0,0:0:0:0:
256,192,110302,1,0,0:0:0:0:
256,192,110702,1,0,0:0:0:0:
256,192,110902,1,0,0:0:0:0:
256,192,111302,1,12,0:0:0:0:
256,192,111602,1,0,0:0:0:0:
256,192,111902,1,0,0:0:0:0:
256,192,112102,1,0,0:0:0:0:
256,192,112502,1,0,0:0:0:0:
256,192,112902,1,12,0:0:0:0:
256,192,113202,1,0,0:0:0:0:
256,192,113502,1,0,0:0:0:0:
256,192,113902,1,0,0:0:0:0:
256,192,114002,1,0,0:0:0:0:
256,192,114102,1,0,0:0:0:0:
256,192,114202,1,0,0:0:0:0:
256,192,114302,1,0,0:0:0:0:
256,192,114502,1,12,0:0:0:0:
256,192,114802,1,0,0:0:0:0:
256,192,114902,1,0,0:0:0:0:
256,192,115102,1,0,0:0:0:0:
256,192,115302,1,8,0:0:0:0:
256,192,115502,1,0,0:0:0:0:
256,192,115602,1,0,0:0:0:0:
256,192,115702,1,8,0:0:0:0:
256,192,115902,1,0,0:0:0:0:
256,192,116102,1,8,0:0:0:0:
256,192,116302,1,8,0:0:0:0:
256,192,116402,1,0,0:0:0:0:
256,192,116602,1,8,0:0:0:0:
256,192,116702,1,0,0:0:0:0:
256,192,116902,1,8,0:0:0:0:
256,192,117102,1,0,0:0:0:0:
256,192,117202,1,0,0:0:0:0:
256,192,117302,1,8,0:0:0:0:
256,192,117502,1,0,0:0:0:0:
256,192,117702,1,8,0:0:0:0:
256,192,117802,1,8,0:0:0:0:
256,192,117902,1,0,0:0:0:0:
256,192,118002,1,0,0:0:0:0:
256,192,118202,1,8,0:0:0:0:
256,192,118302,1,0,0:0:0:0:
256,192,118402,1,0,0:0:0:0:
256,192,118502,1,8,0:0:0:0:
256,192,118702,1,0,0:0:0:0:
256,192,118802,1,0,0:0:0:0:
256,192,118902,1,8,0:0:0:0:
256,192,119102,1,0,0:0:0:0:
256,192,119302,1,8,0:0:0:0:
256,192,119502,1,0,0:0:0:0:
256,192,119602,1,8,0:0:0:0:
256,192,119802,1,8,0:0:0:0:
256,192,119902,1,0,0:0:0:0:
256,192,120102,1,8,0:0:0:0:
256,192,120302,1,0,0:0:0:0:
256,192,120402,1,8,0:0:0:0:
256,192,120502,1,8,0:0:0:0:
256,192,120702,1,0,0:0:0:0:
256,192,120902,1,8,0:0:0:0:
256,192,121102,1,0,0:0:0:0:
256,192,121202,1,0,0:0:0:0:
256,192,121402,1,8,0:0:0:0:
256,192,121502,1,8,0:0:0:0:
256,192,121602,1,8,0:0:0:0:
256,192,121702,1,0,0:0:0:0:
256,192,121902,1,8,0:0:0:0:
256,192,122002,1,8,0:0:0:0:
256,192,122102,1,0,0:0:0:0:
256,192,122302,1,0,0:0:0:0:
256,192,122502,1,8,0:0:0:0:
256,192,122702,1,8,0:0:0:0:
256,192,122802,1,0,0:0:0:0:
256,192,123002,1,8,0:0:0:0:
256,192,123102,1,0,0:0:0:0:
256,192,123302,1,8,0:0:0:0:
256,192,123502,1,8,0:0:0:0:
256,192,123602,1,8,0:0:0:0:
256,192,123702,1,0,0:0:0:0:
256,192,123902,1,0,0:0:0:0:
256,192,124102,1,8,0:0:0:0:
256,192,124202,1,0,0:0:0:0:
256,192,124302,1,8,0:0:0:0:
256,192,124402,1,0,0:0:0:0:
256,192,124602,1,0,0:0:0:0:
256,192,124702,1,8,0:0:0:0:
256,192,124902,1,0,0:0:0:0:
256,192,125102,1,8,0:0:0:0:
256,192,125202,1,0,0:0:0:0:
256,192,125302,1,8,0:0:0:0:
256,192,125502,1,0,0:0:0:0:
256,192,125602,1,0,0:0:0:0:
256,192,125702,1,8,0:0:0:0:
256,192,125802,1,8,0:0:0:0:
256,192,125902,1,0,0:0:0:0:
256,192,126002,1,8,0:0:0:0:
256,192,126202,1,8,0:0:0:0:
256,192,126302,1,8,0:0:0:0:
256,192,126402,1,8,0:0:0:0:
256,192,126502,1,0,0:0:0:0:
256,192,126702,1,8,0:0:0:0:
256,192,126802,1,8,0:0:0:0:
256,192,126902,1,0,0:0:0:0:
256,192,127102,1,0,0:0:0:0:
256,192,127302,1,8,0:0:0:0:
256,192,127402,1,0,0:0:0:0:
256,192,127502,1,0,0:0:0:0:
256,192,127602,1,8,0:0:0:0:
256,192,127802,1,0,0:0:0:0:
256,192,127902,1,8,0:0:0:0:
256,192,128002,1,8,0:0:0:0:
256,192,128102,1,0,0:0:0:0:
256,192,128502,1,0,0:0:0:0:
256,192,128902,1,12,0:0:0:0:
256,192,129202,1,0,0:0:0:0:
256,192,129502,1,0,0:0:0:0:
256,192,129702,1,0,0:0:0:0:
256,192,130102,1,0,0:0:0:0:
256,192,130502,1,12,0:0:0:0:
256,192,130802,1,0,0:0:0:0:
256,192,130902,1,0,0:0:0:0:
256,192,131102,1,0,0:0:0:0:
256,192,131202,1,0,0:0:0:0:
256,192,131302,1,0,0:0:0:0:
256,192,131702,1,0,0:0:0:0:
256,192,132102,1,12,0:0:0:0:
256,192,132402,1,0,0:0:0:0:
256,192,132702,1,0,0:0:0:0:
256,192,132902,1,0,0:0:0:0:
256,192,133302,1,0,0:0:0:0:
256,192,133702,1,12,0:0:0:0:
256,192,134002,1,0,0:0:0:0:
256,192,134102,1,0,0:0:0:0:
256,192,134302,1,0,0:0:0:0:
256,192,134402,1,0,0:0:0:0:
256,192,134502,1,0,0:0:0:0:
256,192,134702,1,0,0:0:0:0:
256,192,134902,1,8,0:0:0:0:
256,192,135102,1,0,0:0:0:0:
256,192,135202,1,0,0:0:0:0:
256,192,135302,1,8,0:0:0:0:
256,192,135402,1,0,0:0:0:0:
256,192,135502,1,8,0:0:0:0:
256,192,135602,1,8,0:0:0:0:
256,192,135802,1,0,0:0:0:0:
256,192,135902,1,8,0:0:0:0:
256,192,136002,1,8,0:0:0:0:
256,192,136102,1,0,0:0:0:0:
256,192,136302,1,8,0:0:0:0:
256,192,136402,1,8,0:0:0:0:
256,192,136502,1,0,0:0:0:0:
256,192,136702,1,0,0:0:0:0:
256,192,136802,1,8,0:0:0:0:
256,192,136902,1,0,0:0:0:0:
256,192,137002,1,0,0:0:0:0:
256,192,137102,1,0,0:0:0:0:
256,192,137202,1,8,0:0:0:0:
256,192,137402,1,8,0:0:0:0:
256,192,137502,1,8,0:0:0:0:
256,192,137702,1,0,0:0:0:0:
256,192,137802,1,0,0:0:0:0:
256,192,137902,1,0,0:0:0:0:
256,192,138002,1,0,0:0:0:0:
256,192,138102,1,8,0:0:0:0:
256,192,138152,1,8,0:0:0:0:
256,192,138202,1,0,0:0:0:0:
256,192,138302,1,8,0:0:0:0:
256,192,138352,1,8,0:0:0:0:
256,192,138402,1,0,0:0:0:0:
256,192,138502,1,8,0:0:0:0:
256,192,138602,1,8,0:0:0:0:
256,192,138702,1,8,0:0:0:0:
256,192,138802,1,8,0:0:0:0:
256,192,138902,1,0,0:0:0:0:
256,192,138952,1,0,0:0:0:0:
256,192,139002,1,8,0:0:0:0:
256,192,139102,1,0,0:0:0:0:
256,192,139152,1,0,0:0:0:0:
256,192,139202,1,8,0:0:0:0:
256,192,139302,1,0,0:0:0:0:
256,192,139402,1,0,0:0:0:0:
256,192,139502,1,8,0:0:0:0:
256,192,139602,1,0,0:0:0:0:
256,192,139702,1,8,0:0:0:0:
256,192,139752,1,8,0:0:0:0:
256,192,139802,1,0,0:0:0:0:
256,192,139902,1,8,0:0:0:0:
256,192,139952,1,8,0:0:0:0:
256,192,140002,1,0,0:0:0:0:
256,192,140102,1,8,0:0:0:0:
256,192,140202,1,8,0:0:0:0:
256,192,140302,1,0,0:0:0:0:
256,192,140402,1,8,0:0:0:0:
256,192,140502,1,0,0:0:0:0:
256,192,140552,1,0,0:0:0:0:
256,192,140602,1,8,0:0:0:0:
256,192,140702,1,0,0:0:0:0:
256,192,140752,1,0,0:0:0:0:
256,192,140802,1,8,0:0:0:0:
256,192,140902,1,4,0:0:0:0:
256,192,141302,1,0,0:0:0:0:
256,192,141702,1,8,0:0:0:0:
256,192,142102,1,0,0:0:0:0:
256,192,142202,1,0,0:0:0:0:
256,192,142302,1,0,0:0:0:0:
256,192,142602,1,0,0:0:0:0:
256,192,142702,1,0,0:0:0:0:
256,192,142902,1,0,0:0:0:0:
256,192,143102,1,0,0:0:0:0:
256,192,143302,1,8,0:0:0:0:
256,192,143402,1,8,0:0:0:0:
256,192,143502,1,8,0:0:0:0:
256,192,143602,1,8,0:0:0:0:
256,192,143702,1,0,0:0:0:0:
256,192,143802,1,0,0:0:0:0:
256,192,143902,1,0,0:0:0:0:
256,192,144002,1,0,0:0:0:0:
256,192,144102,1,8,0:0:0:0:
256,192,144302,1,0,0:0:0:0:
256,192,144402,1,0,0:0:0:0:
256,192,144502,1,8,0:0:0:0:
256,192,144902,1,0,0:0:0:0:
256,192,145302,1,8,0:0:0:0:
256,192,145502,1,0,0:0:0:0:
256,192,145902,1,0,0:0:0:0:
256,192,146002,1,8,0:0:0:0:
256,192,146102,1,0,0:0:0:0:
256,192,146302,1,8,0:0:0:0:
256,192,146502,1,8,0:0:0:0:
256,192,146602,1,8,0:0:0:0:
256,192,146702,1,8,0:0:0:0:
256,192,146802,1,8,0:0:0:0:
256,192,146902,1,0,0:0:0:0:
256,192,147002,1,0,0:0:0:0:
256,192,147102,1,0,0:0:0:0:
256,192,147202,1,0,0:0:0:0:
256,192,147302,1,8,0:0:0:0:
256,192,147502,1,0,0:0:0:0:
256,192,147602,1,0,0:0:0:0:
256,192,147702,1,8,0:0:0:0:
256,192,148102,1,0,0:0:0:0:
256,192,148502,1,0,0:0:0:0:
256,192,148602,1,0,0:0:0:0:
256,192,148702,1,0,0:0:0:0:
256,192,149002,1,0,0:0:0:0:
256,192,149102,1,0,0:0:0:0:
256,192,149302,1,0,0:0:0:0:
256,192,149502,1,0,0:0:0:0:
256,192,149702,1,8,0:0:0:0:
256,192,149802,1,8,0:0:0:0:
256,192,149902,1,8,0:0:0:0:
256,192,150002,1,8,0:0:0:0:
256,192,150102,1,0,0:0:0:0:
256,192,150202,1,0,0:0:0:0:
256,192,150302,1,0,0:0:0:0:
256,192,150402,1,0,0:0:0:0:
256,192,150502,1,8,0:0:0:0:
256,192,150702,1,0,0:0:0:0:
256,192,150802,1,0,0:0:0:0:
256,192,150902,1,8,0:0:0:0:
256,192,151302,1,0,0:0:0:0:
256,192,151702,1,8,0:0:0:0:
256,192,151902,1,0,0:0:0:0:
256,192,152302,1,0,0:0:0:0:
256,192,152402,1,8,0:0:0:0:
256,192,152502,1,0,0:0:0:0:
256,192,152702,1,8,0:0:0:0:
256,192,152902,1,8,0:0:0:0:
256,192,153002,1,8,0:0:0:0:
256,192,153102,1,8,0:0:0:0:
256,192,153202,1,8,0:0:0:0:
256,192,153302,1,0,0:0:0:0:
256,192,153402,1,0,0:0:0:0:
256,192,153502,1,0,0:0:0:0:
256,192,153602,1,0,0:0:0:0:
256,192,153702,1,8,0:0:0:0:
256,192,153902,1,0,0:0:0:0:
256,192,154502,1,8,0:0:0:0:
256,192,154702,1,0,0:0:0:0:
256,192,155302,1,8,0:0:0:0:
256,192,155502,1,0,0:0:0:0:
256,192,156102,1,0,0:0:0:0:
256,192,156302,1,8,0:0:0:0:
256,192,156502,1,0,0:0:0:0:
256,192,156702,1,0,0:0:0:0:
256,192,156902,1,8,0:0:0:0:
256,192,157102,1,0,0:0:0:0:
256,192,157702,1,8,0:0:0:0:
256,192,157902,1,0,0:0:0:0:
256,192,158502,1,8,0:0:0:0:
256,192,158702,1,0,0:0:0:0:
256,192,159302,1,0,0:0:0:0:
256,192,159502,1,8,0:0:0:0:
256,192,159702,1,0,0:0:0:0:
256,192,159902,1,8,0:0:0:0:
256,192,160102,1,8,0:0:0:0:
256,192,160302,1,0,0:0:0:0:
256,192,160502,1,0,0:0:0:0:
256,192,160702,1,0,0:0:0:0:
256,192,160902,1,0,0:0:0:0:
256,192,161102,1,0,0:0:0:0:
256,192,161302,1,0,0:0:0:0:
256,192,161502,1,0,0:0:0:0:
256,192,161702,1,8,0:0:0:0:
256,192,161902,1,0,0:0:0:0:
256,192,162102,1,0,0:0:0:0:
256,192,162302,1,0,0:0:0:0:
256,192,162502,1,8,0:0:0:0:
256,192,162702,1,0,0:0:0:0:
256,192,162902,1,8,0:0:0:0:
256,192,163102,1,0,0:0:0:0:
256,192,163302,1,0,0:0:0:0:
256,192,163402,1,0,0:0:0:0:
256,192,163502,1,0,0:0:0:0:
256,192,163602,1,0,0:0:0:0:
256,192,163702,1,8,0:0:0:0:
256,192,163752,1,8,0:0:0:0:
256,192,163802,1,0,0:0:0:0:
256,192,163902,1,8,0:0:0:0:
256,192,163952,1,8,0:0:0:0:
256,192,164002,1,0,0:0:0:0:
256,192,164102,1,8,0:0:0:0:
256,192,164202,1,8,0:0:0:0:
256,192,164302,1,8,0:0:0:0:
256,192,164402,1,8,0:0:0:0:
256,192,164502,1,0,0:0:0:0:
256,192,164552,1,0,0:0:0:0:
256,192,164602,1,8,0:0:0:0:
256,192,164702,1,0,0:0:0:0:
256,192,164752,1,0,0:0:0:0:
256,192,164802,1,8,0:0:0:0:
256,192,164902,1,0,0:0:0:0:
256,192,165002,1,0,0:0:0:0:
256,192,165102,1,8,0:0:0:0:
256,192,165202,1,0,0:0:0:0:
256,192,165302,1,8,0:0:0:0:
256,192,165352,1,8,0:0:0:0:
256,192,165402,1,0,0:0:0:0:
256,192,165502,1,8,0:0:0:0:
256,192,165552,1,8,0:0:0:0:
256,192,165602,1,0,0:0:0:0:
256,192,165702,1,8,0:0:0:0:
256,192,165802,1,8,0:0:0:0:
256,192,165902,1,0,0:0:0:0:
256,192,166002,1,8,0:0:0:0:
256,192,166102,1,0,0:0:0:0:
256,192,166152,1,0,0:0:0:0:
256,192,166202,1,8,0:0:0:0:
256,192,166302,1,0,0:0:0:0:
256,192,166352,1,0,0:0:0:0:
256,192,166402,1,8,0:0:0:0:
256,192,166502,1,12,0:0:0:0:
256,192,166702,1,4,0:0:0:0:
256,192,166902,1,12,0:0:0:0:
256,192,167102,1,4,0:0:0:0:
256,192,167302,1,12,0:0:0:0:
256,192,167502,1,4,0:0:0:0:
256,192,167702,1,12,0:0:0:0:
256,192,167902,1,12,0:0:0:0:
256,192,168102,1,4,0:0:0:0:
256,192,168302,1,12,0:0:0:0:
256,192,168502,1,4,0:0:0:0:
256,192,168702,1,12,0:0:0:0:
256,192,168902,1,4,0:0:0:0:
256,192,169102,1,4,0:0:0:0:
256,192,169302,1,12,0:0:0:0:
256,192,169502,1,4,0:0:0:0:
256,192,169702,1,12,0:0:0:0:
256,192,169902,1,4,0:0:0:0:
256,192,170102,1,12,0:0:0:0:
256,192,170302,1,4,0:0:0:0:
256,192,170502,1,12,0:0:0:0:
256,192,170702,1,4,0:0:0:0:
256,192,170902,1,12,0:0:0:0:
256,192,171102,1,12,0:0:0:0:
256,192,171302,1,4,0:0:0:0:
256,192,171502,1,12,0:0:0:0:
256,192,171702,1,4,0:0:0:0:
256,192,171902,1,12,0:0:0:0:
256,192,172102,1,4,0:0:0:0:
256,192,172302,1,4,0:0:0:0:
256,192,172502,1,12,0:0:0:0:
256,192,172702,1,12,0:0:0:0:
256,192,172902,1,12,0:0:0:0:
256,192,173102,1,4,0:0:0:0:
256,192,173302,1,12,0:0:0:0:
256,192,173502,1,4,0:0:0:0:
256,192,173702,1,12,0:0:0:0:
256,192,173902,1,4,0:0:0:0:
256,192,174102,1,12,0:0:0:0:
256,192,174302,1,12,0:0:0:0:
256,192,174502,1,4,0:0:0:0:
256,192,174702,1,12,0:0:0:0:
256,192,174902,1,4,0:0:0:0:
256,192,175102,1,12,0:0:0:0:
256,192,175302,1,4,0:0:0:0:
256,192,175502,1,12,0:0:0:0:
256,192,175702,1,12,0:0:0:0:
256,192,175902,1,4,0:0:0:0:
256,192,176102,1,12,0:0:0:0:
256,192,176302,1,4,0:0:0:0:
256,192,176502,1,12,0:0:0:0:
256,192,176702,1,4,0:0:0:0:
256,192,176902,1,12,0:0:0:0:
256,192,177102,1,4,0:0:0:0:
256,192,177302,1,12,0:0:0:0:
256,192,177502,1,12,0:0:0:0:
256,192,177702,1,4,0:0:0:0:
256,192,177902,1,12,0:0:0:0:
256,192,178102,1,4,0:0:0:0:
256,192,178302,1,12,0:0:0:0:
256,192,178502,1,4,0:0:0:0:
256,192,178702,1,4,0:0:0:0:
256,192,178902,1,12,0:0:0:0:
256,192,179102,1,4,0:0:0:0:
256,192,179302,1,12,0:0:0:0:
256,192,179502,1,4,0:0:0:0:
256,192,180102,1,12,0:0:0:0:
256,192,180302,1,4,0:0:0:0:
256,192,180902,1,12,0:0:0:0:
256,192,181102,1,4,0:0:0:0:
256,192,181702,1,12,0:0:0:0:
256,192,181902,1,4,0:0:0:0:
256,192,182102,1,12,0:0:0:0:
256,192,182302,1,4,0:0:0:0:
256,192,182502,1,12,0:0:0:0:
256,192,182702,1,4,0:0:0:0:
256,192,182902,1,12,0:0:0:0:
256,192,183102,1,4,0:0:0:0:
256,192,183302,1,12,0:0:0:0:
256,192,183502,1,4,0:0:0:0:
256,192,183702,1,12,0:0:0:0:
256,192,183902,1,12,0:0:0:0:
256,192,184102,1,4,0:0:0:0:
256,192,184302,1,12,0:0:0:0:
256,192,184502,1,4,0:0:0:0:
256,192,184702,1,12,0:0:0:0:
256,192,184902,1,4,0:0:0:0:
256,192,185102,1,4,0:0:0:0:
256,192,185302,1,12,0:0:0:0:
256,192,185502,1,4,0:0:0:0:
256,192,185702,1,12,0:0:0:0:
256,192,185902,1,4,0:0:0:0:
256,192,186102,1,12,0:0:0:0:
256,192,186302,1,4,0:0:0:0:
256,192,186502,1,12,0:0:0:0:
256,192,186702,1,4,0:0:0:0:
256,192,186902,1,12,0:0:0:0:
256,192,187102,1,12,0:0:0:0:
256,192,187302,1,12,0:0:0:0:
256,192,187502,1,4,0:0:0:0:
256,192,187702,1,12,0:0:0:0:
256,192,187902,1,4,0:0:0:0:
256,192,188102,1,12,0:0:0:0:
256,192,188302,1,12,0:0:0:0:
256,192,188502,1,4,0:0:0:0:
256,192,188702,1,4,0:0:0:0:
256,192,188902,1,12,0:0:0:0:
256,192,189102,1,4,0:0:0:0:
256,192,189302,1,12,0:0:0:0:
256,192,189502,1,4,0:0:0:0:
256,192,189702,1,12,0:0:0:0:
256,192,189902,1,4,0:0:0:0:
256,192,190102,1,4,0:0:0:0:
256,192,190302,1,12,0:0:0:0:
256,192,190502,1,12,0:0:0:0:
256,192,190702,1,4,0:0:0:0:
256,192,190902,1,12,0:0:0:0:
256,192,191102,1,12,0:0:0:0:
256,192,191302,1,4,0:0:0:0:
256,192,191502,1,4,0:0:0:0:
256,192,191702,1,12,0:0:0:0:
256,192,192102,1,8,0:0:0:0:
256,192,192302,1,0,0:0:0:0:
256,192,192902,1,8,0:0:0:0:
256,192,193102,1,0,0:0:0:0:
256,192,193702,1,8,0:0:0:0:
256,192,193902,1,0,0:0:0:0:
256,192,194502,1,0,0:0:0:0:
256,192,194702,1,8,0:0:0:0:
256,192,194902,1,0,0:0:0:0:
256,192,195102,1,0,0:0:0:0:
256,192,195302,1,8,0:0:0:0:
256,192,195502,1,0,0:0:0:0:
256,192,196102,1,8,0:0:0:0:
256,192,196302,1,0,0:0:0:0:
256,192,196902,1,8,0:0:0:0:
256,192,197102,1,0,0:0:0:0:
256,192,197702,1,0,0:0:0:0:
256,192,197902,1,8,0:0:0:0:
256,192,198102,1,0,0:0:0:0:
256,192,198302,1,8,0:0:0:0:
256,192,198502,1,8,0:0:0:0:
256,192,198702,1,0,0:0:0:0:
256,192,199302,1,8,0:0:0:0:
256,192,199502,1,0,0:0:0:0:
256,192,200102,1,8,0:0:0:0:
256,192,200302,1,0,0:0:0:0:
256,192,200902,1,8,0:0:0:0:
256,192,201102,1,8,0:0:0:0:
256,192,201302,1,0,0:0:0:0:
256,192,201502,1,0,0:0:0:0:
256,192,201702,1,8,0:0:0:0:
256,192,201902,1,0,0:0:0:0:
256,192,202502,1,8,0:0:0:0:
256,192,202702,1,0,0:0:0:0:
256,192,203302,1,8,0:0:0:0:
256,192,203502,1,0,0:0:0:0:
256,192,203702,1,8,0:0:0:0:
256,192,203902,1,8,0:0:0:0:
256,192,204102,1,0,0:0:0:0:
256,192,204302,1,0,0:0:0:0:
256,192,204502,1,8,0:0:0:0:
