osu file format v14

[General]
AudioFilename: audio.mp3
AudioLeadIn: 0
PreviewTime: 92415
Countdown: 0
SampleSet: Soft
StackLeniency: 0.4
Mode: 0
LetterboxInBreaks: 0
WidescreenStoryboard: 1

[Editor]
DistanceSpacing: 1
BeatDivisor: 2
GridSize: 32
TimelineZoom: 1.9

[Metadata]
Title:Leave The Lights On (KROT Remix) (Cut Ver.)
TitleUnicode:Leave The Lights On (KROT Remix) (Cut Ver.)
Artist:Meiko
ArtistUnicode:Meiko
Creator:JayBone
Version:Normal
Source:
Tags:dnb drum and n & bass d&b electronic english female vocal the bright side flowziee
BeatmapID:2874913
BeatmapSetID:1219937

[Difficulty]
HPDrainRate:4.3
CircleSize:3.3
OverallDifficulty:4.2
ApproachRate:5
SliderMultiplier:1
SliderTickRate:1

[Events]
//Background and Video events
0,0,"lights_out_there_by_ryky_d9bfi64.jpg",0,0
//Break Periods
2,48321,58215
//Storyboard Layer 0 (Background)
//Storyboard Layer 1 (Fail)
//Storyboard Layer 2 (Pass)
//Storyboard Layer 3 (Foreground)
//Storyboard Layer 4 (Overlay)
//Storyboard Sound Samples

[TimingPoints]
2945,352.941176470588,4,2,1,35,1,0
2945,-111.111111111111,4,2,1,35,0,0
14239,-111.111111111111,4,2,3,45,0,0
25533,-100,4,2,2,60,0,0
48121,-100,4,2,2,40,0,0
59415,-111.111111111111,4,2,1,50,0,0
87650,-100,4,2,1,50,0,0
88356,-100,4,2,1,55,0,0
89062,-100,4,2,1,60,0,0
89768,-100,4,2,1,65,0,0
90474,-100,4,2,1,70,0,0
91886,-100,4,2,1,75,0,0
93297,-90.9090909090909,4,2,2,80,0,1
104503,-90.9090909090909,4,2,2,80,0,0
104592,-90.9090909090909,4,2,2,80,0,1
115886,-90.9090909090909,4,2,2,50,0,0

[Colours]
Combo1 : 45,105,120
Combo2 : 35,180,60
Combo3 : 80,200,200
Combo4 : 18,114,41

[HitObjects]
154,180,2945,2,0,B|257:266|257:266|344:163,1,269.999991760254,2|0,0:0|3:0,0:0:0:0:
388,85,4356,2,0,B|448:55|448:55|512:75,2,134.999995880127,2|2|0,0:0|0:0|3:0,0:0:0:0:
456,145,5768,2,0,L|467:279,1,134.999995880127,2|2,0:0|0:0,0:0:0:0:
381,383,6827,1,2,0:0:0:0:
298,348,7180,2,0,L|286:213,1,134.999995880127,2|2,0:0|0:0,0:0:0:0:
255,82,8239,1,0,3:0:0:0:
173,44,8592,6,0,B|115:112|115:112|123:203|123:203|191:260,1,269.999991760254,2|0,0:0|3:0,0:0:0:0:
265,209,10003,2,0,B|260:151|260:151|266:133|266:133|261:75,2,134.999995880127,2|2|0,0:0|0:0|3:0,0:0:0:0:
273,299,11415,2,0,B|337:319|337:319|397:289,1,134.999995880127,2|2,0:0|0:0,0:0:0:0:
461,169,12474,1,2,0:0:0:0:
384,123,12827,1,2,0:0:0:0:
259,132,14239,6,0,P|285:192|266:255,2,134.999995880127,2|2|8,3:2|0:0|0:0,0:0:0:0:
203,61,15650,2,0,B|135:44|139:88|72:72,2,134.999995880127,2|2|8,3:2|0:0|0:0,0:0:0:0:
293,50,17062,1,2,3:2:0:0:
376,82,17415,1,8,0:0:0:0:
376,82,17592,2,0,P|411:137|398:202,1,134.999995880127,2|10,0:0|0:0,0:0:0:0:
340,271,18474,1,2,3:2:0:0:
257,239,18827,1,8,0:0:0:0:
257,239,19004,2,0,P|221:183|234:118,1,134.999995880127,2|10,0:0|0:0,0:0:0:0:
293,50,19886,6,0,B|382:57|382:57|411:92,2,134.999995880127,2|2|8,3:2|0:0|0:0,0:0:0:0:
234,118,21297,2,0,B|221:184|221:184|257:241,2,134.999995880127,2|2|8,3:2|0:0|0:0,0:0:0:0:
205,33,22709,1,2,3:2:0:0:
115,14,23062,1,8,0:0:0:0:
115,14,23239,2,0,L|104:149,1,134.999995880127,2|10,0:0|0:0,0:0:0:0:
161,218,24121,1,2,3:2:0:0:
250,236,24474,1,8,0:0:0:0:
250,236,24651,2,0,L|261:101,1,134.999995880127,2|8,0:0|0:0,0:0:0:0:
338,38,25533,6,0,L|437:46,1,100,6|10,3:2|0:0,0:0:0:0:
475,80,26062,2,0,L|466:179,1,100,2|0,0:0|3:2,0:0:0:0:
433,217,26592,1,10,0:0:0:0:
353,156,26944,2,0,P|306:139|257:147,1,100,2|10,3:2|0:0,0:0:0:0:
220,181,27474,2,0,B|145:203|151:145|75:168,1,150,2|8,0:0|0:0,0:0:0:0:
104,264,28356,5,2,3:2:0:0:
133,360,28709,1,8,0:0:0:0:
133,360,28886,2,0,L|232:351,1,100,2|2,0:0|3:2,0:0:0:0:
282,344,29415,1,10,0:0:0:0:
349,270,29768,2,0,P|421:278|454:342,2,150,2|2|10,3:2|0:0|0:0,0:0:0:0:
252,249,31180,5,2,3:2:0:0:
184,322,31533,1,10,0:0:0:0:
184,322,31709,2,0,P|135:330|88:313,1,100,2|0,0:0|3:2,0:0:0:0:
56,276,32239,1,10,0:0:0:0:
0,193,32592,2,0,L|4:143,1,50,2|2,3:2|0:0,0:0:0:0:
31,101,32944,1,10,0:0:0:0:
31,101,33121,2,0,B|130:109|130:109|168:77,1,150,2|8,0:0|0:0,0:0:0:0:
242,9,34003,5,2,3:2:0:0:
338,38,34356,1,8,0:0:0:0:
338,38,34533,2,0,L|346:137,1,100,2|2,0:0|3:2,0:0:0:0:
350,187,35062,1,10,0:0:0:0:
285,263,35415,2,0,B|210:269|210:269|151:223,2,150,2|2|10,3:2|0:0|0:0,0:0:0:0:
384,281,36827,5,2,3:2:0:0:
384,281,37003,2,0,L|433:276,1,50,2|8,0:0|0:0,0:0:0:0:
472,244,37356,2,0,L|458:94,1,150,2|10,0:0|0:0,0:0:0:0:
359,103,38239,2,0,L|363:152,2,50,2|2|10,3:2|0:0|0:0,0:0:0:0:
282,39,38944,2,0,P|235:22|186:30,1,100,2|8,0:0|0:0,0:0:0:0:
106,91,39650,5,2,3:2:0:0:
27,152,40003,1,8,0:0:0:0:
27,152,40180,2,0,L|35:251,1,100,2|2,0:0|3:2,0:0:0:0:
43,301,40709,1,10,0:0:0:0:
134,263,41062,2,0,P|204:276|213:345,2,150,2|2|10,3:2|0:0|0:0,0:0:0:0:
35,252,42474,5,2,3:2:0:0:
35,252,42650,2,0,L|30:202,1,50,2|8,0:0|0:0,0:0:0:0:
62,163,43003,2,0,B|133:184|133:184|200:149,1,150,2|10,0:0|0:0,0:0:0:0:
241,120,43709,1,2,0:0:0:0:
241,120,43886,1,2,3:2:0:0:
308,46,44239,1,10,0:0:0:0:
308,46,44415,2,0,B|407:54|407:54|439:92,1,150,2|8,0:0|0:0,0:0:0:0:
501,172,45297,5,2,3:2:0:0:
422,234,45650,1,8,0:0:0:0:
422,234,45827,2,0,L|322:225,1,100,2|2,0:0|3:2,0:0:0:0:
273,218,46356,1,10,0:0:0:0:
197,153,46709,2,0,B|191:88|191:88|198:68|198:68|192:4,2,150,2|2|10,3:2|0:0|0:0,0:0:0:0:
179,252,48121,1,4,0:0:0:0:
179,252,59415,6,0,L|313:240,1,134.999995880127,2|2,1:2|1:2,0:0:0:0:
354,111,60474,1,2,0:0:0:0:
276,66,60827,2,0,L|186:73,1,89.9999972534181,2|2,1:2|0:0,0:0:0:0:
117,131,61533,1,2,0:0:0:0:
281,204,62239,2,0,B|370:196|370:196|399:161,2,134.999995880127,0|0|0,1:0|1:2|0:0,0:0:0:0:
203,250,63650,2,0,B|198:308|198:308|204:326|204:326|199:384,2,134.999995880127,0|0|0,1:0|1:2|0:0,0:0:0:0:
157,172,65062,6,0,P|140:107|169:48,1,134.999995880127,2|2,1:2|1:2,0:0:0:0:
296,0,66121,1,2,0:0:0:0:
350,71,66474,2,0,P|361:114|342:154,1,89.9999972534181,2|2,1:2|0:0,0:0:0:0:
277,216,67180,1,2,0:0:0:0:
103,169,67886,2,0,P|104:104|162:77,2,134.999995880127,0|0|0,1:2|1:2|0:0,0:0:0:0:
160,239,69297,2,0,B|228:256|224:212|291:228,1,134.999995880127,0|2,1:2|1:2,0:0:0:0:
326,256,70003,2,0,P|369:263|411:248,1,89.9999972534181,2|2,0:0|0:0,0:0:0:0:
469,178,70709,5,2,0:0:0:0:
469,178,70886,2,0,L|476:88,1,89.9999972534181,2|2,0:0|0:0,0:0:0:0:
455,49,71415,2,0,L|365:41,1,89.9999972534181,2|2,0:0|0:0,0:0:0:0:
284,81,72121,1,2,0:0:0:0:
209,31,72474,2,0,L|119:23,2,89.9999972534181,2|2|2,0:0|0:0|0:0,0:0:0:0:
284,81,73533,5,2,0:0:0:0:
359,131,73886,2,0,L|448:138,2,89.9999972534181,2|2|2,0:0|0:0|0:0,0:0:0:0:
284,81,74944,2,0,P|268:122|305:203,1,134.999995880127,2|2,0:0|0:0,0:0:0:0:
340,225,75650,1,2,0:0:0:0:
395,296,76003,1,2,0:0:0:0:
334,362,76356,6,0,P|292:377|248:369,1,89.9999972534181,2|2,0:0|0:0,0:0:0:0:
161,347,77062,2,0,P|119:362|75:354,1,89.9999972534181,2|2,0:0|0:0,0:0:0:0:
8,294,77768,2,0,B|-19:204|50:210|23:120,1,179.999994506836,2|2,0:0|0:0,0:0:0:0:
7,31,78827,1,2,0:0:0:0:
96,20,79180,6,0,B|172:13|172:13|196:21|196:21|273:14,1,179.999994506836,2|2,0:0|0:0,0:0:0:0:
350,62,80239,1,2,0:0:0:0:
303,139,80592,2,0,B|310:228|310:228|345:257,1,134.999995880127,2|2,0:0|0:0,0:0:0:0:
382,283,81297,2,0,L|471:275,1,89.9999972534181,2|2,0:0|0:0,0:0:0:0:
512,194,82003,5,2,0:0:0:0:
512,194,82180,2,0,B|519:150|519:150|504:108,1,89.9999972534181,2|2,0:0|0:0,0:0:0:0:
466,82,82709,2,0,B|422:75|422:75|380:90,1,89.9999972534181,2|2,0:0|0:0,0:0:0:0:
298,130,83415,1,2,0:0:0:0:
223,80,83768,2,0,B|181:65|181:65|137:72,2,89.9999972534181,2|2|2,0:0|0:0|0:0,0:0:0:0:
298,130,84827,5,2,0:0:0:0:
373,180,85180,2,0,B|415:195|415:195|459:188,2,89.9999972534181,2|2|2,0:0|0:0|0:0,0:0:0:0:
298,130,86239,2,0,P|282:171|319:252,1,134.999995880127,2|2,0:0|0:0,0:0:0:0:
351,278,86944,1,2,0:0:0:0:
309,358,87297,1,2,0:0:0:0:
212,384,87650,6,0,L|203:284,1,100,2|2,1:2|1:2,0:0:0:0:
124,223,88356,2,0,L|133:123,1,100,2|2,1:2|1:2,0:0:0:0:
120,24,89062,2,0,B|169:16|169:16|216:33,1,100,2|0,1:2|1:2,0:0:0:0:
183,128,89768,2,0,L|133:123,2,50,2|2|2,1:2|0:0|1:2,0:0:0:0:
281,109,90474,6,0,L|380:100,1,100,2|0,1:2|1:2,0:0:0:0:
474,136,91180,2,0,L|523:131,2,50,2|2|2,1:2|1:2|1:2,0:0:0:0:
396,199,91886,2,0,L|296:207,1,100,2|0,1:2|1:2,0:0:0:0:
250,228,92415,1,2,1:2:0:0:
250,228,92592,2,0,B|242:277|242:277|259:324,1,100,2|2,1:2|1:2,0:0:0:0:
364,354,93297,5,6,3:2:0:0:
364,354,93474,2,0,L|473:344,1,110.000003356934,2|2,0:0|0:0,0:0:0:0:
502,297,94003,2,0,L|492:187,1,110.000003356934,2|10,0:0|0:0,0:0:0:0:
481,78,94709,1,2,3:2:0:0:
380,34,95062,2,0,P|354:25|327:29,1,55.0000016784668,10|2,0:0|0:0,0:0:0:0:
287,67,95415,2,0,P|235:84|181:76,1,110.000003356934,2|10,0:0|0:0,0:0:0:0:
78,36,96121,5,2,3:2:0:0:
37,138,96474,2,0,L|41:192,1,55.0000016784668,10|2,0:0|0:0,0:0:0:0:
87,223,96827,2,0,L|82:277,1,55.0000016784668,2|2,0:0|3:2,0:0:0:0:
37,309,97180,1,10,0:0:0:0:
119,382,97533,2,0,L|228:372,1,110.000003356934,2|8,3:2|0:0,0:0:0:0:
263,329,98062,1,2,0:0:0:0:
263,329,98239,2,0,P|266:302|257:276,1,55.0000016784668,2|2,0:0|3:2,0:0:0:0:
225,232,98592,2,0,P|221:205|230:179,1,55.0000016784668,10|2,0:2|0:0,0:0:0:0:
263,136,98944,5,2,3:2:0:0:
336,54,99297,2,0,L|390:49,1,55.0000016784668,10|2,0:0|0:0,0:0:0:0:
442,69,99650,2,0,L|451:178,1,110.000003356934,2|10,0:0|0:0,0:0:0:0:
391,271,100356,2,0,P|339:288|285:280,1,110.000003356934,2|8,3:2|0:0,0:0:0:0:
192,220,101062,2,0,L|188:165,1,55.0000016784668,2|2,0:0|3:2,0:0:0:0:
186,110,101415,1,10,0:0:0:0:
260,29,101768,6,0,P|312:12|366:20,1,110.000003356934,2|8,3:2|0:0,0:0:0:0:
459,80,102474,2,0,L|463:135,1,55.0000016784668,2|2,0:0|3:2,0:0:0:0:
465,190,102827,1,10,0:0:0:0:
391,271,103180,2,0,P|339:288|285:280,1,110.000003356934,2|8,3:2|0:0,0:0:0:0:
236,253,103709,1,2,0:0:0:0:
236,253,103886,2,0,L|226:143,1,110.000003356934,2|10,0:0|0:0,0:0:0:0:
271,43,104592,5,6,3:2:0:0:
271,43,104768,2,0,B|217:35|217:35|165:52,1,110.000003356934,2|2,0:0|0:0,0:0:0:0:
125,91,105297,2,0,B|117:144|117:144|134:196,1,110.000003356934,2|10,0:0|0:0,0:0:0:0:
176,299,106003,1,2,3:2:0:0:
278,342,106356,2,0,L|332:346,1,55.0000016784668,10|2,0:0|0:0,0:0:0:0:
380,319,106709,2,0,L|389:209,1,110.000003356934,2|10,0:0|0:0,0:0:0:0:
374,100,107415,5,2,3:2:0:0:
285,35,107768,2,0,B|259:26|259:26|232:30,1,55.0000016784668,10|2,0:0|0:0,0:0:0:0:
191,68,108121,2,0,B|165:76|165:76|138:72,1,55.0000016784668,2|2,0:0|3:2,0:0:0:0:
97,35,108474,1,10,0:0:0:0:
46,132,108827,2,0,B|38:185|38:185|55:237,1,110.000003356934,2|8,3:2|0:0,0:0:0:0:
101,268,109356,1,2,0:0:0:0:
101,268,109533,2,0,L|155:263,1,55.0000016784668,2|2,0:0|3:2,0:0:0:0:
200,230,109886,2,0,L|254:234,1,55.0000016784668,10|2,0:0|0:0,0:0:0:0:
299,268,110239,5,2,3:2:0:0:
386,201,110592,2,0,P|412:197|438:206,1,55.0000016784668,10|2,0:0|0:0,0:0:0:0:
482,240,110944,2,0,P|489:293|472:345,1,110.000003356934,2|10,0:0|0:0,0:0:0:0:
367,379,111650,2,0,L|257:369,1,110.000003356934,2|8,3:2|0:0,0:0:0:0:
172,298,112356,2,0,P|168:271|177:245,1,55.0000016784668,2|2,0:0|3:2,0:0:0:0:
204,197,112709,1,10,0:0:0:0:
280,117,113062,6,0,L|389:126,1,110.000003356934,2|8,3:2|0:0,0:0:0:0:
475,198,113768,2,0,P|478:224|469:250,1,55.0000016784668,2|2,0:0|3:2,0:0:0:0:
443,299,114121,1,10,0:0:0:0:
367,379,114474,1,2,3:2:0:0:
278,314,114827,2,0,L|223:318,1,55.0000016784668,10|2,0:0|0:0,0:0:0:0:
170,336,115180,1,2,0:0:0:0:
111,242,115533,2,0,L|101:132,1,110.000003356934,10|4,0:0|0:0,0:0:0:0:
