osu file format v14

[General]
AudioFilename: audio.mp3
AudioLeadIn: 0
PreviewTime: 92415
Countdown: 0
SampleSet: Soft
StackLeniency: 0.4
Mode: 0
LetterboxInBreaks: 0
WidescreenStoryboard: 0

[Editor]
DistanceSpacing: 1.3
BeatDivisor: 4
GridSize: 32
TimelineZoom: 2

[Metadata]
Title:Leave The Lights On (KROT Remix) (Cut Ver.)
TitleUnicode:Leave The Lights On (KROT Remix) (Cut Ver.)
Artist:Meiko
ArtistUnicode:Meiko
Creator:JayBone
Version:Illumination
Source:
Tags:dnb drum and n & bass d&b electronic english female vocal the bright side flowziee
BeatmapID:2537875
BeatmapSetID:1219937

[Difficulty]
HPDrainRate:5.5
CircleSize:4.2
OverallDifficulty:8.8
ApproachRate:9
SliderMultiplier:1.5
SliderTickRate:1

[Events]
//Background and Video events
0,0,"lights_out_there_by_ryky_d9bfi64.jpg",0,0
//Break Periods
2,48321,58815
//Storyboard Layer 0 (Background)
//Storyboard Layer 1 (Fail)
//Storyboard Layer 2 (Pass)
//Storyboard Layer 3 (Foreground)
//Storyboard Layer 4 (Overlay)
//Storyboard Sound Samples

[TimingPoints]
2945,352.941176470588,4,2,1,35,1,0
2945,-125,4,2,1,35,0,0
14239,-125,4,2,3,45,0,0
25533,-90.9090909090909,4,2,2,60,0,0
48121,-90.9090909090909,4,2,2,40,0,0
59415,-125,4,2,1,50,0,0
87650,-100,4,2,1,50,0,0
88356,-100,4,2,1,55,0,0
89062,-100,4,2,1,60,0,0
89768,-100,4,2,1,65,0,0
90474,-100,4,2,1,70,0,0
91886,-100,4,2,1,75,0,0
93297,-76.9230769230769,4,2,2,80,0,1
104503,-76.9230769230769,4,2,2,80,0,0
104592,-76.9230769230769,4,2,2,80,0,1
115886,-76.9230769230769,4,2,2,50,0,0

[Colours]
Combo1 : 45,105,120
Combo2 : 35,180,60
Combo3 : 80,200,200
Combo4 : 18,114,41

[HitObjects]
0,284,2945,6,0,P|31:306|133:287,1,120,2|0,0:0|0:0,0:0:0:0:
175,261,3474,2,0,B|188:188|146:218|158:145,1,120,2|0,0:0|0:0,0:0:0:0:
168,69,4003,1,0,3:0:0:0:
168,69,4180,1,0,0:0:0:0:
235,157,4356,2,0,B|293:172|293:172|351:159,1,120,2|0,0:0|0:0,0:0:0:0:
463,115,4886,2,0,P|428:161|446:216,1,120,2|0,0:0|0:0,0:0:0:0:
512,260,5415,1,0,3:0:0:0:
512,260,5592,1,0,0:0:0:0:
434,373,5768,6,0,L|314:362,1,120,2|0,0:0|0:0,0:0:0:0:
243,331,6297,1,2,0:0:0:0:
243,331,6650,1,2,0:0:0:0:
171,300,6827,1,2,0:0:0:0:
180,377,7003,1,2,0:0:0:0:
234,254,7180,2,0,L|245:134,1,120,2|0,0:0|0:0,0:0:0:0:
207,66,7709,1,2,0:0:0:0:
207,66,8062,1,2,0:0:0:0:
139,105,8239,2,0,P|109:104|81:92,1,60,0|0,3:0|0:0,0:0:0:0:
18,0,8592,6,0,B|13:50|13:50|3:64|3:64|0:115,1,120,2|0,0:0|0:0,0:0:0:0:
14,193,9121,2,0,P|45:215|147:196,1,120,2|0,0:0|0:0,0:0:0:0:
185,163,9650,1,0,3:0:0:0:
185,163,9827,1,0,0:0:0:0:
173,273,10003,2,0,B|208:292|208:292|287:285,1,120,2|0,0:0|0:0,0:0:0:0:
389,344,10533,2,0,P|366:290|397:241,1,120,2|0,0:0|0:0,0:0:0:0:
468,211,11062,1,0,3:0:0:0:
468,211,11239,1,0,0:0:0:0:
382,104,11415,6,0,L|262:114,1,120,2|0,0:0|0:0,0:0:0:0:
184,105,11944,1,2,0:0:0:0:
184,105,12297,1,2,0:0:0:0:
114,140,12474,1,2,0:0:0:0:
118,62,12650,1,2,0:0:0:0:
180,183,12827,1,2,0:0:0:0:
115,384,14239,6,0,P|106:355|109:325,1,60,2|0,3:2|3:0,0:0:0:0:
161,183,14592,2,0,P|169:211|166:241,1,60,8|2,0:0|0:0,0:0:0:0:
153,260,14856,1,0,0:0:0:0:
153,260,14944,1,0,0:0:0:0:
97,137,15121,1,2,1:2:0:0:
232,149,15297,2,0,L|291:143,1,60,8|0,0:0|0:0,0:0:0:0:
314,134,15562,1,0,0:0:0:0:
314,134,15650,6,0,L|373:139,1,60,2|0,3:2|3:0,0:0:0:0:
481,114,16003,1,8,0:0:0:0:
449,189,16180,1,2,0:0:0:0:
449,189,16268,1,0,0:0:0:0:
449,189,16356,2,0,L|451:218,2,30,0|0|2,0:0|0:0|1:2,0:0:0:0:
415,73,16709,1,8,0:0:0:0:
349,32,16886,1,0,0:0:0:0:
349,32,16974,1,0,0:0:0:0:
349,32,17062,6,0,P|319:29|290:36,1,60,2|0,3:2|3:0,0:0:0:0:
223,157,17415,2,0,P|220:186|227:215,1,60,8|2,0:0|0:0,0:0:0:0:
244,234,17680,1,0,0:0:0:0:
267,236,17768,1,0,0:0:0:0:
291,238,17856,1,0,0:0:0:0:
315,240,17944,1,2,1:2:0:0:
348,110,18121,2,0,L|288:115,1,60,10|2,0:0|0:0,0:0:0:0:
154,121,18474,5,2,3:2:0:0:
219,79,18650,1,0,3:0:0:0:
85,85,18827,1,8,0:0:0:0:
89,163,19003,1,2,0:0:0:0:
91,186,19092,1,0,0:0:0:0:
93,210,19180,1,0,0:0:0:0:
95,234,19268,1,0,0:0:0:0:
97,258,19356,1,2,1:2:0:0:
227,216,19533,2,0,P|229:186|222:157,1,60,10|0,0:0|0:0,0:0:0:0:
108,8,19886,6,0,L|167:5,1,60,2|0,3:2|3:0,0:0:0:0:
286,39,20239,1,8,0:0:0:0:
219,79,20415,1,2,0:0:0:0:
219,79,20503,1,0,0:0:0:0:
219,79,20592,2,0,P|212:108|217:137,1,60,0|2,0:0|1:2,0:0:0:0:
224,293,20944,2,0,P|230:263|225:234,1,60,8|0,0:0|0:0,0:0:0:0:
211,214,21209,1,0,0:0:0:0:
211,214,21297,6,0,L|151:208,1,60,2|0,3:2|3:0,0:0:0:0:
20,178,21650,1,8,0:0:0:0:
97,150,21827,1,2,0:0:0:0:
97,150,21915,1,0,0:0:0:0:
97,150,22003,2,0,L|94:120,2,30,0|0|2,0:0|0:0|1:2,0:0:0:0:
3,254,22356,2,0,P|1:284|8:313,1,60,8|0,0:0|0:0,0:0:0:0:
24,331,22621,1,0,0:0:0:0:
24,331,22709,6,0,L|84:337,1,60,2|0,3:2|3:0,0:0:0:0:
210,383,23062,2,0,L|270:377,1,60,8|2,0:0|0:0,0:0:0:0:
293,371,23327,1,0,0:0:0:0:
293,371,23415,2,0,P|300:342|295:313,1,60,0|2,0:0|1:2,0:0:0:0:
216,204,23768,2,0,P|209:175|214:146,1,60,10|2,0:0|0:0,0:0:0:0:
228,126,24033,1,0,0:0:0:0:
228,126,24121,6,0,L|287:120,1,60,2|0,3:2|3:0,0:0:0:0:
415,130,24474,1,8,0:0:0:0:
354,79,24650,1,2,0:0:0:0:
354,79,24739,1,0,0:0:0:0:
354,79,24827,1,0,0:0:0:0:
429,52,25003,1,0,1:2:0:0:
348,170,25180,1,8,0:0:0:0:
0,65,25533,6,0,L|82:72,1,82.5000025177003,6|2,3:2|0:0,0:0:0:0:
287,119,25886,1,10,0:0:0:0:
152,208,26062,1,2,0:0:0:0:
152,208,26150,1,0,0:0:0:0:
152,208,26239,2,0,P|143:167|146:126,1,82.5000025177003,0|0,0:0|3:2,0:0:0:0:
348,170,26592,2,0,P|356:210|353:251,1,82.5000025177003,10|0,0:0|0:0,0:0:0:0:
133,295,26944,6,0,L|216:288,1,82.5000025177003,2|0,3:2|0:0,0:0:0:0:
422,299,27297,1,10,0:0:0:0:
307,384,27474,1,2,0:0:0:0:
307,384,27562,1,0,0:0:0:0:
307,384,27650,2,0,P|286:385|266:381,2,41.2500012588501,0|0|0,0:0|0:0|3:2,0:0:0:0:
504,292,28003,2,0,L|496:209,1,82.5000025177003,8|0,0:0|0:0,0:0:0:0:
481,180,28268,1,0,0:0:0:0:
481,180,28356,6,0,P|441:168|401:177,1,82.5000025177003,2|0,3:2|0:0,0:0:0:0:
231,321,28709,2,0,P|270:332|310:322,1,82.5000025177003,8|2,0:0|0:0,0:0:0:0:
311,289,28974,1,0,0:0:0:0:
314,256,29062,1,0,0:0:0:0:
317,223,29150,1,0,0:0:0:0:
320,190,29239,1,2,3:2:0:0:
152,344,29415,2,0,P|110:347|70:339,1,82.5000025177003,10|2,0:0|0:0,0:0:0:0:
44,319,29680,1,0,0:0:0:0:
44,319,29768,6,0,L|36:236,1,82.5000025177003,2|0,3:2|0:0,0:0:0:0:
132,55,30121,2,0,L|140:138,1,82.5000025177003,8|2,0:0|0:0,0:0:0:0:
126,167,30386,1,0,0:0:0:0:
126,167,30474,2,0,P|105:170|85:169,2,41.2500012588501,0|0|2,0:0|0:0|3:2,0:0:0:0:
339,85,30827,1,10,0:0:0:0:
305,246,31003,1,0,0:0:0:0:
305,246,31092,1,0,0:0:0:0:
305,246,31180,5,2,3:2:0:0:
463,196,31356,1,2,0:0:0:0:
260,110,31533,1,10,0:0:0:0:
226,271,31709,1,2,0:0:0:0:
226,271,31797,1,0,0:0:0:0:
226,271,31886,1,0,0:0:0:0:
384,221,32062,1,0,3:2:0:0:
181,135,32239,2,0,P|139:132|99:140,1,82.5000025177003,10|0,0:0|0:0,0:0:0:0:
198,349,32592,5,2,3:2:0:0:
243,191,32768,1,2,0:0:0:0:
46,204,32944,1,10,0:0:0:0:
116,354,33121,1,2,0:0:0:0:
116,354,33209,1,0,0:0:0:0:
116,354,33297,2,0,L|122:271,1,82.5000025177003,0|0,0:0|3:2,0:0:0:0:
84,52,33650,1,8,0:0:0:0:
181,135,33827,1,0,0:0:0:0:
181,135,33915,1,0,0:0:0:0:
181,135,34003,6,0,P|219:147|260:140,1,82.5000025177003,2|0,3:2|0:0,0:0:0:0:
437,44,34356,2,0,P|398:31|357:38,1,82.5000025177003,8|2,0:0|0:0,0:0:0:0:
331,58,34621,1,0,0:0:0:0:
331,58,34709,1,0,0:0:0:0:
475,117,34886,1,2,3:2:0:0:
319,256,35062,1,10,0:0:0:0:
392,112,35239,1,2,0:0:0:0:
441,323,35415,6,0,P|400:330|359:327,1,82.5000025177003,2|0,3:2|0:0,0:0:0:0:
174,217,35768,2,0,L|181:134,1,82.5000025177003,8|2,0:0|0:0,0:0:0:0:
187,102,36033,1,0,0:0:0:0:
187,102,36121,2,0,P|208:99|228:100,2,41.2500012588501,0|0|2,0:0|0:0|3:2,0:0:0:0:
118,277,36474,2,0,P|154:296|194:296,1,82.5000025177003,10|0,0:0|0:0,0:0:0:0:
420,233,36827,5,2,3:2:0:0:
276,152,37003,1,2,0:0:0:0:
339,377,37180,1,8,0:0:0:0:
492,274,37356,1,2,0:0:0:0:
492,274,37444,1,0,0:0:0:0:
492,274,37533,2,0,P|502:234|493:195,1,82.5000025177003,0|0,0:0|3:0,0:0:0:0:
317,80,37886,2,0,P|277:70|238:79,1,82.5000025177003,10|0,0:0|0:0,0:0:0:0:
132,281,38239,5,2,3:2:0:0:
318,224,38415,1,2,0:0:0:0:
158,101,38592,2,0,P|117:93|76:96,1,82.5000025177003,10|0,0:0|0:0,0:0:0:0:
49,114,38856,1,0,0:0:0:0:
49,114,38944,2,0,L|56:196,1,82.5000025177003,2|0,0:0|3:0,0:0:0:0:
218,341,39297,2,0,L|225:258,1,82.5000025177003,8|0,0:0|0:0,0:0:0:0:
237,228,39562,1,0,0:0:0:0:
237,228,39650,6,0,P|277:220|318:223,1,82.5000025177003,2|0,3:2|0:0,0:0:0:0:
509,346,40003,2,0,P|468:353|427:350,1,82.5000025177003,8|2,0:0|0:0,0:0:0:0:
410,322,40268,1,0,0:0:0:0:
407,289,40356,1,0,0:0:0:0:
404,256,40444,1,0,0:0:0:0:
401,223,40533,1,2,3:2:0:0:
512,67,40709,1,10,0:0:0:0:
400,140,40886,1,2,0:0:0:0:
400,140,40974,1,0,0:0:0:0:
400,140,41062,6,0,L|317:132,1,82.5000025177003,2|0,3:2|0:0,0:0:0:0:
143,28,41415,2,0,L|225:20,1,82.5000025177003,8|2,0:0|0:0,0:0:0:0:
255,36,41680,1,0,0:0:0:0:
255,36,41768,2,0,P|257:56|257:76,2,41.2500012588501,0|0|2,0:0|0:0|3:2,0:0:0:0:
206,217,42121,2,0,B|193:178|193:178|200:136,1,82.5000025177003,10|0,0:0|0:0,0:0:0:0:
380,5,42474,5,2,3:2:0:0:
416,166,42650,1,2,0:0:0:0:
255,36,42827,1,8,0:0:0:0:
398,86,43003,1,2,0:0:0:0:
398,86,43092,1,0,0:0:0:0:
398,86,43180,2,0,L|480:78,1,82.5000025177003,0|0,0:0|3:0,0:0:0:0:
288,224,43533,2,0,L|205:216,1,82.5000025177003,10|2,0:0|0:0,0:0:0:0:
0,169,43886,6,0,B|39:156|39:156|81:163,1,82.5000025177003,2|0,3:2|0:0,0:0:0:0:
241,303,44239,2,0,L|158:295,1,82.5000025177003,10|2,0:0|0:0,0:0:0:0:
129,281,44503,1,0,0:0:0:0:
129,281,44592,2,0,P|125:260|126:240,2,41.2500012588501,0|0|0,0:0|0:0|3:0,0:0:0:0:
356,270,44944,2,0,P|369:231|363:191,1,82.5000025177003,8|0,0:0|0:0,0:0:0:0:
344,164,45209,1,0,0:0:0:0:
344,164,45297,6,0,L|258:156,1,82.5000025177003,2|0,3:2|0:0,0:0:0:0:
63,22,45650,2,0,L|148:14,1,82.5000025177003,8|2,0:0|0:0,0:0:0:0:
174,32,45915,1,0,0:0:0:0:
177,65,46003,1,0,0:0:0:0:
179,98,46092,1,0,0:0:0:0:
182,131,46180,1,2,3:2:0:0:
35,307,46356,2,0,L|27:224,1,82.5000025177003,10|2,0:0|0:0,0:0:0:0:
51,201,46621,1,0,0:0:0:0:
51,201,46709,6,0,P|89:188|130:195,1,82.5000025177003,2|0,3:2|0:0,0:0:0:0:
277,302,47062,2,0,P|315:315|355:308,1,82.5000025177003,8|2,0:0|0:0,0:0:0:0:
383,289,47327,1,0,0:0:0:0:
383,289,47415,1,0,0:0:0:0:
232,371,47592,1,2,3:2:0:0:
339,187,47768,2,0,B|345:146|345:146|332:107,1,82.5000025177003,10|0,0:0|0:0,0:0:0:0:
221,9,48121,1,4,0:0:0:0:
392,12,59415,5,2,1:2:0:0:
344,73,59592,2,0,P|336:102|340:132,1,60,2|2,0:0|0:0,0:0:0:0:
396,187,59944,2,0,L|276:176,1,120,2|0,1:2|0:0,0:0:0:0:
206,141,60474,1,2,0:0:0:0:
135,280,60827,2,0,P|188:306|245:294,1,120,2|2,1:2|0:0,0:0:0:0:
141,184,61533,2,0,B|110:184|83:197|83:197|32:145|60:73,1,180,2|0,0:0|0:0,0:0:0:0:
113,34,62239,6,0,L|232:23,1,120,0|0,1:0|0:0,0:0:0:0:
305,50,62768,1,0,1:2:0:0:
305,50,63121,1,0,0:0:0:0:
378,77,63297,1,0,0:0:0:0:
365,0,63474,1,0,0:0:0:0:
318,127,63650,2,0,P|303:184|319:241,1,120,0|0,1:0|0:0,0:0:0:0:
375,297,64180,1,0,1:2:0:0:
375,297,64533,1,0,0:0:0:0:
430,352,64709,1,0,0:0:0:0:
450,276,64886,1,0,0:0:0:0:
355,373,65062,5,2,1:2:0:0:
300,318,65239,2,0,L|305:258,1,60,2|2,0:0|0:0,0:0:0:0:
367,209,65592,2,0,P|308:220|252:200,1,120,2|0,1:2|0:0,0:0:0:0:
204,139,66121,1,2,0:0:0:0:
196,309,66474,2,0,L|190:249,2,60,2|2|2,1:2|0:0|0:0,0:0:0:0:
45,256,67180,2,0,B|28:210|56:170|56:170|93:197|142:186,1,180,2|0,0:0|0:0,0:0:0:0:
204,139,67886,6,0,P|258:115|315:131,1,120,0|0,1:2|0:0,0:0:0:0:
374,183,68415,1,0,1:2:0:0:
374,183,68768,1,0,0:0:0:0:
433,234,68944,1,0,0:0:0:0:
359,260,69121,1,0,0:0:0:0:
448,157,69297,2,0,L|437:37,1,120,0|0,1:2|0:0,0:0:0:0:
369,0,69827,5,2,1:2:0:0:
315,131,70003,1,2,0:0:0:0:
301,54,70180,1,2,0:0:0:0:
180,129,70356,1,2,0:0:0:0:
166,52,70533,1,2,0:0:0:0:
247,169,70709,1,2,0:0:0:0:
247,169,70886,1,2,0:0:0:0:
32,330,71239,5,2,0:0:0:0:
167,285,71415,1,2,0:0:0:0:
90,279,71592,1,2,0:0:0:0:
244,291,71768,1,2,0:0:0:0:
200,355,71944,1,2,0:0:0:0:
213,191,72121,1,2,0:0:0:0:
213,191,72297,1,2,0:0:0:0:
351,123,72474,5,2,0:0:0:0:
265,33,72650,1,2,0:0:0:0:
282,157,72827,1,2,0:0:0:0:
341,46,73003,1,2,0:0:0:0:
229,101,73180,2,0,L|169:106,1,60,2|0,0:0|0:0,0:0:0:0:
55,35,73533,2,0,P|40:76|51:119,1,90,2|0,0:0|0:0,0:0:0:0:
114,165,73886,5,2,0:0:0:0:
52,275,74062,1,2,0:0:0:0:
167,222,74239,1,2,0:0:0:0:
43,198,74415,1,2,0:0:0:0:
129,291,74592,2,0,P|157:300|186:298,1,60,2|0,0:0|0:0,0:0:0:0:
267,215,74944,2,0,B|284:152|244:163|268:97,1,120,2|0,0:0|0:0,0:0:0:0:
207,265,75474,5,2,0:0:0:0:
339,131,75650,1,2,0:0:0:0:
339,131,75827,1,2,0:0:0:0:
192,188,76003,1,2,0:0:0:0:
192,188,76180,1,2,0:0:0:0:
329,283,76356,2,0,P|373:283|410:259,1,90,2|0,0:0|0:0,0:0:0:0:
425,181,76709,5,2,0:0:0:0:
502,172,76886,1,2,0:0:0:0:
356,147,77062,2,0,L|296:142,1,60,2|0,0:0|0:0,0:0:0:0:
415,27,77415,2,0,L|475:22,1,60,2|0,0:0|0:0,0:0:0:0:
351,70,77768,2,0,L|231:59,1,120,2|0,0:0|0:0,0:0:0:0:
231,59,78297,1,0,0:0:0:0:
104,130,78474,5,2,0:0:0:0:
128,0,78650,1,2,0:0:0:0:
183,121,78827,2,0,P|189:149|185:178,1,60,2|0,0:0|0:0,0:0:0:0:
8,213,79180,2,0,P|66:202|121:224,1,120,2|0,0:0|0:0,0:0:0:0:
121,224,79709,1,0,0:0:0:0:
170,364,79886,5,2,0:0:0:0:
46,317,80062,1,2,0:0:0:0:
176,287,80239,2,0,L|235:281,1,60,2|0,0:0|0:0,0:0:0:0:
415,241,80592,2,0,L|295:230,1,120,2|0,0:0|0:0,0:0:0:0:
119,98,81121,5,2,0:0:0:0:
243,171,81297,1,2,0:0:0:0:
166,160,81474,1,2,0:0:0:0:
229,5,81650,1,2,0:0:0:0:
155,29,81827,1,2,0:0:0:0:
327,80,82003,1,2,0:0:0:0:
327,80,82180,1,2,0:0:0:0:
434,372,82533,5,2,0:0:0:0:
397,231,82709,1,2,0:0:0:0:
386,309,82886,1,2,0:0:0:0:
408,153,83062,1,2,0:0:0:0:
468,202,83239,1,2,0:0:0:0:
328,153,83415,1,2,0:0:0:0:
328,153,83592,1,2,0:0:0:0:
185,221,83768,5,2,0:0:0:0:
320,232,83944,1,2,0:0:0:0:
191,144,84121,1,2,0:0:0:0:
248,264,84297,1,2,0:0:0:0:
261,110,84474,2,0,L|255:50,1,60,2|0,0:0|0:0,0:0:0:0:
54,46,84827,2,0,B|38:88|38:88|61:126,1,90,2|0,0:0|0:0,0:0:0:0:
117,182,85180,5,2,0:0:0:0:
22,278,85356,1,2,0:0:0:0:
172,236,85533,1,2,0:0:0:0:
42,203,85709,1,2,0:0:0:0:
153,312,85886,2,0,P|182:313|210:305,1,60,2|0,0:0|0:0,0:0:0:0:
273,180,86239,2,0,B|268:129|268:129|258:115|258:115|253:64,1,120,2|0,0:0|0:0,0:0:0:0:
192,162,86768,5,2,0:0:0:0:
332,84,86944,1,2,0:0:0:0:
332,84,87121,1,2,0:0:0:0:
176,85,87297,1,2,0:0:0:0:
176,85,87474,1,2,0:0:0:0:
218,236,87650,2,0,P|268:257|320:240,1,112.5,2|0,1:2|0:0,0:0:0:0:
349,159,88003,5,2,1:2:0:0:
307,150,88180,1,2,0:0:0:0:
395,285,88356,1,2,1:2:0:0:
409,244,88533,1,0,0:0:0:0:
203,321,88709,2,0,P|165:324|128:317,1,75,2|0,1:2|0:0,0:0:0:0:
33,132,89062,2,0,L|182:118,1,150,2|0,1:2|1:2,0:0:0:0:
182,118,89592,1,0,0:0:0:0:
114,217,89768,5,2,1:2:0:0:
72,222,89944,1,2,0:0:0:0:
265,142,90121,2,0,P|281:108|280:71,1,75,2|0,1:2|0:0,0:0:0:0:
194,250,90474,5,2,1:2:0:0:
336,190,90650,1,0,1:2:0:0:
248,333,90827,1,0,1:2:0:0:
180,158,91003,1,0,1:2:0:0:
350,282,91180,1,2,1:2:0:0:
161,329,91356,1,2,1:2:0:0:
374,276,91533,1,2,1:2:0:0:
147,241,91709,1,0,1:2:0:0:
358,175,91886,5,2,1:2:0:0:
367,146,91974,1,0,1:2:0:0:
369,116,92062,1,0,1:2:0:0:
361,87,92150,1,0,1:2:0:0:
346,62,92239,1,0,1:2:0:0:
317,79,92327,1,0,1:2:0:0:
284,88,92415,1,0,1:2:0:0:
251,87,92503,1,0,1:2:0:0:
219,76,92592,5,0,1:2:0:0:
183,64,92680,1,0,1:2:0:0:
146,60,92768,1,0,1:2:0:0:
109,66,92856,1,0,1:2:0:0:
75,80,92944,1,0,1:2:0:0:
99,113,93033,1,0,1:2:0:0:
111,153,93121,1,0,1:2:0:0:
109,194,93209,1,0,1:2:0:0:
94,232,93297,5,6,3:2:0:0:
254,159,93474,1,2,0:0:0:0:
190,383,93650,1,8,0:0:0:0:
47,296,93827,1,2,0:0:0:0:
47,296,93915,1,0,0:0:0:0:
47,296,94003,1,2,0:0:0:0:
237,319,94180,1,2,3:2:0:0:
111,153,94356,2,0,P|102:105|117:59,1,97.4999955368044,10|2,0:0|0:0,0:0:0:0:
351,167,94709,6,0,L|253:158,1,97.4999955368044,2|2,3:2|0:0,0:0:0:0:
40,42,95062,1,10,0:0:0:0:
177,9,95239,1,2,0:0:0:0:
177,9,95327,1,0,0:0:0:0:
177,9,95415,1,2,0:0:0:0:
25,163,95592,1,2,3:2:0:0:
266,92,95768,2,0,P|314:84|362:86,1,97.4999955368044,10|0,0:0|0:0,0:0:0:0:
298,280,96121,6,0,B|213:249|240:307|156:277,1,146.249993305207,2|0,3:2|0:0,0:0:0:0:
115,212,96474,1,10,0:0:0:0:
181,362,96650,1,2,0:0:0:0:
269,195,96827,1,2,0:0:0:0:
258,348,97003,1,2,3:2:0:0:
184,127,97180,2,0,L|192:29,1,97.4999955368044,10|0,0:0|0:0,0:0:0:0:
450,148,97533,6,0,B|367:140|367:140|345:123|345:123|262:116,1,194.999991073609,2|8,3:2|0:0,0:0:0:0:
114,40,98062,1,2,0:0:0:0:
114,40,98150,1,0,0:0:0:0:
114,40,98239,1,2,0:0:0:0:
262,116,98415,1,2,3:2:0:0:
48,194,98592,1,10,0:2:0:0:
205,31,98768,1,2,0:0:0:0:
183,282,98944,6,0,B|133:303|88:281|88:281|100:239|143:232,1,146.249993305207,2|0,3:2|0:0,0:0:0:0:
183,203,99297,1,10,0:0:0:0:
152,370,99474,1,2,0:0:0:0:
48,194,99650,1,2,0:0:0:0:
74,363,99827,1,0,3:2:0:0:
263,245,100003,2,0,P|311:237|359:239,1,97.4999955368044,10|0,0:0|0:0,0:0:0:0:
512,384,100356,6,0,P|490:288|483:191,1,194.999991073609,2|8,3:2|0:0,0:0:0:0:
512,15,100886,1,0,0:0:0:0:
512,15,100974,1,0,0:0:0:0:
512,15,101062,1,2,0:0:0:0:
416,150,101239,1,2,3:2:0:0:
229,3,101415,2,0,B|181:-6|181:-6|135:9,1,97.4999955368044,10|0,0:0|0:0,0:0:0:0:
3,231,101768,6,0,P|94:256|184:223,1,194.999991073609,2|8,3:2|0:0,0:0:0:0:
336,154,102297,1,0,0:0:0:0:
336,154,102386,1,0,0:0:0:0:
336,154,102474,1,2,0:0:0:0:
187,73,102650,1,2,3:2:0:0:
247,277,102827,2,0,P|253:326|236:371,1,97.4999955368044,10|0,0:0|0:0,0:0:0:0:
39,147,103180,6,0,B|114:131|181:159|181:159|167:179|140:186,1,194.999991073609,2|8,3:2|0:0,0:0:0:0:
30,68,103709,1,2,0:0:0:0:
89,245,103886,1,2,0:0:0:0:
109,62,104062,1,2,3:2:0:0:
231,223,104239,1,10,0:0:0:0:
39,147,104415,1,2,0:0:0:0:
300,123,104592,5,6,3:2:0:0:
164,263,104768,1,2,0:0:0:0:
387,234,104944,1,8,0:0:0:0:
340,56,105121,1,2,0:0:0:0:
340,56,105209,1,0,0:0:0:0:
340,56,105297,1,2,0:0:0:0:
204,196,105474,1,2,3:2:0:0:
427,167,105650,2,0,P|441:121|432:73,1,97.4999955368044,10|2,0:0|0:0,0:0:0:0:
162,40,106003,6,0,P|147:85|156:133,1,97.4999955368044,2|2,3:2|0:0,0:0:0:0:
203,332,106356,1,10,0:0:0:0:
291,204,106533,1,2,0:0:0:0:
291,204,106621,1,0,0:0:0:0:
291,204,106709,1,2,0:0:0:0:
98,305,106886,1,2,3:2:0:0:
332,364,107062,2,0,P|340:316|338:268,1,97.4999955368044,10|0,0:0|0:0,0:0:0:0:
259,1,107415,6,0,B|236:30|236:30|246:139,1,146.249993305207,2|0,3:2|0:0,0:0:0:0:
291,204,107768,1,10,0:0:0:0:
328,39,107944,1,2,0:0:0:0:
213,210,108121,1,2,0:0:0:0:
158,51,108297,1,2,3:2:0:0:
257,274,108474,2,0,L|248:372,1,97.4999955368044,10|0,0:0|0:0,0:0:0:0:
25,193,108827,6,0,B|88:187|88:187|147:215|147:215|213:210,1,194.999991073609,2|8,3:2|0:0,0:0:0:0:
359,305,109356,1,2,0:0:0:0:
359,305,109444,1,0,0:0:0:0:
359,305,109533,1,2,0:0:0:0:
213,210,109709,1,2,3:2:0:0:
439,184,109886,1,10,0:0:0:0:
257,302,110062,1,2,0:0:0:0:
316,59,110239,6,0,B|339:43|360:39|360:39|391:77|379:134,1,146.249993305207,2|0,3:2|0:0,0:0:0:0:
365,209,110592,1,10,0:0:0:0:
448,32,110768,1,2,0:0:0:0:
256,108,110944,1,2,0:0:0:0:
460,109,111121,1,0,3:2:0:0:
244,31,111297,2,0,P|196:23|148:25,1,97.4999955368044,10|0,0:0|0:0,0:0:0:0:
0,228,111650,6,0,B|109:267|83:180|185:221,1,194.999991073609,2|8,3:2|0:0,0:0:0:0:
305,344,112180,1,0,0:0:0:0:
305,344,112268,1,0,0:0:0:0:
305,344,112356,1,2,0:0:0:0:
335,160,112533,1,2,3:2:0:0:
139,291,112709,2,0,P|125:337|134:385,1,97.4999955368044,10|0,0:0|0:0,0:0:0:0:
411,384,113062,6,0,P|436:293|403:203,1,194.999991073609,2|8,3:2|0:0,0:0:0:0:
269,118,113592,1,0,0:0:0:0:
269,118,113680,1,0,0:0:0:0:
269,118,113768,1,2,0:0:0:0:
443,134,113944,1,2,3:2:0:0:
272,270,114121,2,0,P|223:272|175:264,1,97.4999955368044,10|0,0:0|0:0,0:0:0:0:
22,46,114474,6,0,B|43:16|43:16|96:-5|151:16,1,146.249993305207,2|0,3:2|0:0,0:0:0:0:
214,63,114827,1,10,0:0:0:0:
436,0,115003,1,2,0:0:0:0:
277,215,115180,2,0,L|269:118,1,97.4999955368044,2|0,0:0|3:0,0:0:0:0:
507,34,115533,2,0,L|489:228,1,194.999991073609,10|4,0:0|0:0,0:0:0:0:
