osu file format v14

[General]
AudioFilename: audio.mp3
AudioLeadIn: 0
PreviewTime: 92415
Countdown: 0
SampleSet: Soft
StackLeniency: 0.4
Mode: 0
LetterboxInBreaks: 0
WidescreenStoryboard: 1

[Editor]
DistanceSpacing: 1.2
BeatDivisor: 4
GridSize: 32
TimelineZoom: 2

[Metadata]
Title:Leave The Lights On (KROT Remix) (Cut Ver.)
TitleUnicode:Leave The Lights On (KROT Remix) (Cut Ver.)
Artist:Meiko
ArtistUnicode:Meiko
Creator:JayBone
Version:Hard
Source:
Tags:dnb drum and n & bass d&b electronic english female vocal the bright side flowziee
BeatmapID:2592869
BeatmapSetID:1219937

[Difficulty]
HPDrainRate:4.5
CircleSize:3.8
OverallDifficulty:6.5
ApproachRate:7.5
SliderMultiplier:1.5
SliderTickRate:1

[Events]
//Background and Video events
0,0,"lights_out_there_by_ryky_d9bfi64.jpg",0,0
//Break Periods
2,48321,58590
//Storyboard Layer 0 (Background)
//Storyboard Layer 1 (Fail)
//Storyboard Layer 2 (Pass)
//Storyboard Layer 3 (Foreground)
//Storyboard Layer 4 (Overlay)
//Storyboard Sound Samples

[TimingPoints]
2945,352.941176470588,4,2,1,35,1,0
2945,-125,4,2,1,35,0,0
14239,-125,4,2,3,45,0,0
25533,-111.111111111111,4,2,2,60,0,0
48121,-111.111111111111,4,2,2,40,0,0
59415,-125,4,2,1,50,0,0
87650,-111.111111111111,4,2,1,50,0,0
88356,-111.111111111111,4,2,1,55,0,0
89062,-111.111111111111,4,2,1,60,0,0
89768,-111.111111111111,4,2,1,65,0,0
90474,-111.111111111111,4,2,1,70,0,0
91886,-111.111111111111,4,2,1,75,0,0
93297,-100,4,2,2,80,0,1
104503,-100,4,2,2,80,0,0
104592,-100,4,2,2,80,0,1
115886,-100,4,2,2,50,0,0

[Colours]
Combo1 : 45,105,120
Combo2 : 35,180,60
Combo3 : 80,200,200
Combo4 : 18,114,41

[HitObjects]
180,124,2945,6,0,L|60:134,1,120,2|0,0:0|0:0,0:0:0:0:
59,62,3474,2,0,L|178:51,1,120,2|0,0:0|0:0,0:0:0:0:
242,87,4003,1,0,3:0:0:0:
242,87,4356,2,0,B|361:76|361:76|416:100,2,180,2|2|0,0:0|0:0|3:0,0:0:0:0:
242,87,5768,6,0,L|122:97,1,120,2|0,0:0|0:0,0:0:0:0:
58,130,6297,2,0,B|42:187|42:187|57:245,1,120,2|2,0:0|0:0,0:0:0:0:
116,289,6827,2,0,L|175:283,1,60,2|2,0:0|0:0,0:0:0:0:
219,225,7180,2,0,P|201:280|228:332,1,120,2|0,0:0|0:0,0:0:0:0:
303,324,7709,2,0,L|292:205,1,120,2|2,0:0|0:0,0:0:0:0:
238,155,8239,1,0,3:0:0:0:
292,21,8592,6,0,L|411:31,1,120,2|0,0:0|0:0,0:0:0:0:
477,63,9121,2,0,P|491:120|476:177,1,120,2|0,0:0|0:0,0:0:0:0:
444,244,9650,1,0,3:0:0:0:
444,244,10003,2,0,P|497:310|455:383,2,180,2|2|0,0:0|0:0|3:0,0:0:0:0:
444,244,11415,6,0,P|386:228|328:242,1,120,2|0,0:0|0:0,0:0:0:0:
275,290,11944,2,0,P|217:305|159:291,1,120,2|2,0:0|0:0,0:0:0:0:
105,244,12474,2,0,L|99:184,1,60,2|2,0:0|0:0,0:0:0:0:
135,121,12827,1,2,0:0:0:0:
316,148,14239,6,0,P|321:177|313:205,2,60,2|0|8,3:2|3:0|0:0,0:0:0:0:
255,109,14768,2,0,L|136:120,1,120,2|2,0:0|1:2,0:0:0:0:
73,156,15297,1,8,0:0:0:0:
164,44,15650,2,0,L|283:33,1,120,2|8,3:2|0:0,0:0:0:0:
354,50,16180,2,0,B|368:108|368:108|353:166,1,120,2|2,0:0|1:2,0:0:0:0:
311,225,16709,1,8,0:0:0:0:
183,158,17062,6,0,P|124:147|68:167,1,120,2|8,3:2|0:0,0:0:0:0:
33,231,17592,2,0,P|22:289|42:345,1,120,2|2,0:0|1:2,0:0:0:0:
106,380,18121,2,0,P|134:388|163:383,1,60,10|2,0:0|0:0,0:0:0:0:
222,341,18474,2,0,L|282:336,2,60,2|0|8,3:2|3:0|0:0,0:0:0:0:
158,310,19003,2,0,P|130:258|148:202,1,120,2|2,0:0|1:2,0:0:0:0:
197,149,19533,2,0,P|201:119|193:91,1,60,10|0,0:0|0:0,0:0:0:0:
136,47,19886,6,0,P|187:19|243:37,1,120,2|8,3:2|0:0,0:0:0:0:
274,102,20415,2,0,P|329:119|381:92,1,120,2|2,0:0|1:2,0:0:0:0:
414,27,20944,1,8,0:0:0:0:
401,171,21297,2,0,L|407:230,1,60,2|0,3:2|3:0,0:0:0:0:
467,279,21650,1,8,0:0:0:0:
467,279,21827,2,0,B|409:260|409:260|356:287,1,120,2|2,0:0|1:2,0:0:0:0:
300,332,22356,1,8,0:0:0:0:
165,281,22709,6,0,L|154:162,1,120,2|8,3:2|0:0,0:0:0:0:
129,93,23239,2,0,P|158:88|186:96,1,60,2|0,0:0|0:0,0:0:0:0:
229,155,23592,2,0,L|234:214,2,60,2|10|2,1:2|0:0|0:0,0:0:0:0:
260,90,24121,2,0,P|286:76|316:76,1,60,2|0,3:2|3:0,0:0:0:0:
383,115,24474,1,8,0:0:0:0:
383,115,24650,2,0,B|391:143|391:143|386:172,1,60,2|0,0:0|0:0,0:0:0:0:
339,229,25003,1,0,1:2:0:0:
339,229,25180,1,8,0:0:0:0:
195,95,25533,6,0,P|226:84|259:89,2,67.4999979400635,6|2|10,3:2|0:0|0:0,0:0:0:0:
143,157,26062,2,0,L|155:291,1,134.999995880127,2|0,0:0|3:2,0:0:0:0:
217,345,26592,2,0,B|250:350|250:350|281:339,1,67.4999979400635,10|0,0:0|0:0,0:0:0:0:
326,271,26944,2,0,P|295:212|315:150,1,134.999995880127,2|10,3:2|0:0,0:0:0:0:
373,93,27474,2,0,L|440:87,1,67.4999979400635,2|0,0:0|0:0,0:0:0:0:
512,125,27827,1,0,3:2:0:0:
444,168,28003,1,8,0:0:0:0:
503,348,28356,6,0,B|443:342|443:342|432:333|432:333|371:328,1,134.999995880127,2|8,3:2|0:0,0:0:0:0:
310,274,28886,2,0,L|242:279,1,67.4999979400635,2|0,0:0|0:0,0:0:0:0:
181,333,29239,1,2,3:2:0:0:
105,306,29415,1,10,0:0:0:0:
105,306,29592,1,2,0:0:0:0:
132,230,29768,2,0,B|146:150|107:177|119:98,1,134.999995880127,2|8,3:2|0:0,0:0:0:0:
93,21,30297,2,0,P|127:15|158:26,1,67.4999979400635,2|0,0:0|0:0,0:0:0:0:
224,75,30650,1,2,3:2:0:0:
224,75,30827,1,10,0:0:0:0:
382,94,31180,6,0,B|371:63|371:63|377:30,2,67.4999979400635,2|2|10,3:2|0:0|0:0,0:0:0:0:
426,162,31709,2,0,P|416:221|358:206,1,134.999995880127,2|0,0:0|3:2,0:0:0:0:
314,138,32239,2,0,B|283:127|283:127|250:133,1,67.4999979400635,10|0,0:0|0:0,0:0:0:0:
176,170,32592,2,0,L|108:164,2,67.4999979400635,2|2|10,3:2|0:0|0:0,0:0:0:0:
244,214,33121,2,0,B|275:225|275:225|308:219,1,67.4999979400635,2|0,0:0|0:0,0:0:0:0:
382,182,33474,1,0,3:2:0:0:
458,208,33650,1,8,0:0:0:0:
385,361,34003,6,0,L|250:349,1,134.999995880127,2|8,3:2|0:0,0:0:0:0:
174,377,34533,2,0,P|167:344|177:312,1,67.4999979400635,2|0,0:0|0:0,0:0:0:0:
233,253,34886,1,2,3:2:0:0:
311,273,35062,1,10,0:0:0:0:
311,273,35239,1,2,0:0:0:0:
367,215,35415,2,0,B|379:148|379:148|356:85,1,134.999995880127,2|8,3:2|0:0,0:0:0:0:
289,39,35944,2,0,L|221:33,1,67.4999979400635,2|0,0:0|0:0,0:0:0:0:
140,40,36297,1,2,3:2:0:0:
140,40,36474,1,10,0:0:0:0:
225,190,36827,5,2,3:2:0:0:
155,230,37003,2,0,L|87:224,1,67.4999979400635,2|8,0:0|0:0,0:0:0:0:
37,161,37356,2,0,P|4:218|26:279,1,134.999995880127,2|0,0:0|3:0,0:0:0:0:
103,309,37886,2,0,L|170:314,1,67.4999979400635,10|0,0:0|0:0,0:0:0:0:
237,269,38239,1,2,3:2:0:0:
237,269,38415,1,2,0:0:0:0:
305,314,38592,2,0,L|372:308,1,67.4999979400635,10|0,0:0|0:0,0:0:0:0:
449,335,38944,2,0,B|455:300|455:300|444:269,1,67.4999979400635,2|0,0:0|3:0,0:0:0:0:
375,227,39297,1,8,0:0:0:0:
469,68,39650,6,0,L|334:56,1,134.999995880127,2|8,3:2|0:0,0:0:0:0:
263,16,40180,2,0,L|195:21,1,67.4999979400635,2|0,0:0|0:0,0:0:0:0:
124,62,40533,1,2,3:2:0:0:
55,19,40709,1,10,0:0:0:0:
55,19,40886,1,2,0:0:0:0:
12,88,41062,2,0,P|0:154|22:217,1,134.999995880127,2|8,3:2|0:0,0:0:0:0:
99,244,41592,2,0,L|167:239,1,67.4999979400635,2|0,0:0|0:0,0:0:0:0:
238,202,41944,1,2,3:2:0:0:
238,202,42121,1,10,0:0:0:0:
403,247,42474,5,2,3:2:0:0:
345,304,42650,2,0,L|277:309,1,67.4999979400635,2|8,0:0|0:0,0:0:0:0:
219,366,43003,2,0,B|151:382|154:338|87:354,1,134.999995880127,2|0,0:0|3:0,0:0:0:0:
6,360,43533,1,10,0:0:0:0:
6,360,43709,1,2,0:0:0:0:
0,279,43886,2,0,L|5:211,1,67.4999979400635,2|0,3:2|0:0,0:0:0:0:
56,148,44239,1,10,0:0:0:0:
132,176,44415,2,0,P|197:187|260:165,1,134.999995880127,2|0,0:0|3:0,0:0:0:0:
314,104,44944,1,8,0:0:0:0:
464,127,45297,6,0,B|438:149|438:149|430:250,1,134.999995880127,2|8,3:2|0:0,0:0:0:0:
456,328,45827,2,0,B|423:334|423:334|391:322,1,67.4999979400635,2|0,0:0|0:0,0:0:0:0:
327,273,46180,1,2,3:2:0:0:
252,305,46356,1,10,0:0:0:0:
252,305,46533,1,2,0:0:0:0:
188,256,46709,2,0,P|165:194|198:137,1,134.999995880127,2|8,3:2|0:0,0:0:0:0:
268,95,47239,2,0,L|335:89,1,67.4999979400635,2|0,0:0|0:0,0:0:0:0:
410,119,47592,1,2,3:2:0:0:
410,119,47768,1,10,0:0:0:0:
327,258,48121,1,4,0:0:0:0:
157,78,59415,6,0,P|127:84|99:76,2,60,2|2|2,1:2|0:0|0:0,0:0:0:0:
219,42,59944,2,0,P|276:27|333:42,1,120,2|0,1:2|0:0,0:0:0:0:
393,84,60474,1,2,0:0:0:0:
345,219,60827,2,0,L|225:208,1,120,2|2,1:2|0:0,0:0:0:0:
110,294,61533,2,0,B|135:347|135:347|193:365|254:359,1,180,2|0,0:0|0:0,0:0:0:0:
319,326,62239,6,0,P|375:307|433:316,1,120,0|0,1:0|0:0,0:0:0:0:
501,343,62768,1,0,1:2:0:0:
404,236,63121,1,0,0:0:0:0:
404,236,63297,2,0,L|409:176,1,60
465,131,63650,2,0,P|413:103|358:122,1,120,0|0,1:0|0:0,0:0:0:0:
308,175,64180,1,0,1:2:0:0:
182,103,64533,1,0,0:0:0:0:
182,103,64709,2,0,L|122:108,1,60
54,85,65062,6,0,P|46:56|52:27,2,60,2|2|2,1:2|0:0|0:0,0:0:0:0:
67,156,65592,2,0,P|82:213|67:270,1,120,2|0,1:2|0:0,0:0:0:0:
33,334,66121,1,2,0:0:0:0:
169,380,66474,2,0,P|198:385|226:377,2,60,2|2|2,1:2|0:0|0:0,0:0:0:0:
154,236,67180,2,0,B|240:208|240:208|301:273,1,180,2|0,0:0|0:0,0:0:0:0:
310,345,67886,6,0,P|362:373|417:354,1,120,0|0,1:2|0:0,0:0:0:0:
439,286,68415,1,0,1:2:0:0:
351,171,68768,1,0,0:0:0:0:
351,171,68944,2,0,L|291:176,1,60
233,219,69297,2,0,L|113:208,1,120,0|0,1:2|0:0,0:0:0:0:
55,165,69827,1,2,1:2:0:0:
55,165,70003,2,0,P|50:136|58:108,1,60,2|2,0:0|0:0,0:0:0:0:
113,60,70356,2,0,P|142:55|170:63,1,60,2|2,0:0|0:0,0:0:0:0:
224,120,70709,5,2,0:0:0:0:
224,120,70886,2,0,P|281:135|338:120,1,120,2|2,0:0|0:0,0:0:0:0:
387,66,71415,2,0,P|417:62|445:70,1,60,2|2,0:0|0:0,0:0:0:0:
485,130,71768,2,0,P|489:160|481:188,1,60,2|2,0:0|0:0,0:0:0:0:
421,228,72121,2,0,P|391:232|363:224,1,60,2|2,0:0|0:0,0:0:0:0:
332,158,72474,2,0,L|337:98,2,60,2|2|2,0:0|0:0|0:0,0:0:0:0:
291,217,73003,1,2,0:0:0:0:
291,217,73180,1,2,0:0:0:0:
149,189,73533,5,2,0:0:0:0:
217,62,73886,2,0,B|247:66|247:66|275:58,2,60,2|2|2,0:0|0:0|0:0,0:0:0:0:
161,16,74415,1,2,0:0:0:0:
161,16,74592,1,2,0:0:0:0:
67,124,74944,2,0,L|77:243,1,120,2|0,0:0|0:0,0:0:0:0:
123,307,75474,1,2,0:0:0:0:
123,307,75650,2,0,P|153:310|183:308,1,60,2|2,0:0|0:0,0:0:0:0:
234,257,76003,2,0,P|264:254|294:256,1,60,2|2,0:0|0:0,0:0:0:0:
348,303,76356,6,0,P|365:247|335:197,1,120,2|2,0:0|0:0,0:0:0:0:
271,166,76886,1,2,0:0:0:0:
271,166,77062,2,0,L|151:155,1,120,2|2,0:0|0:0,0:0:0:0:
39,64,77768,2,0,L|158:53,1,120,2|0,0:0|0:0,0:0:0:0:
302,72,78474,2,0,P|301:42|296:12,2,60,2|2|2,0:0|0:0|0:0,0:0:0:0:
213,186,79180,6,0,P|197:243|212:300,1,120,2|0,0:0|0:0,0:0:0:0:
347,249,79886,2,0,L|287:243,2,60,2|2|2,0:0|0:0|0:0,0:0:0:0:
478,308,80592,2,0,P|492:251|477:194,1,120,2|0,0:0|0:0,0:0:0:0:
424,146,81121,1,2,0:0:0:0:
424,146,81297,2,0,P|395:137|365:141,1,60,2|2,0:0|0:0,0:0:0:0:
303,178,81650,2,0,P|274:186|244:182,1,60,2|2,0:0|0:0,0:0:0:0:
182,146,82003,5,2,0:0:0:0:
182,146,82180,2,0,B|161:89|161:89|171:31,1,120,2|2,0:0|0:0,0:0:0:0:
238,1,82709,2,0,L|297:6,1,60,2|2,0:0|0:0,0:0:0:0:
362,39,83062,2,0,L|421:33,1,60,2|2,0:0|0:0,0:0:0:0:
487,1,83415,2,0,B|495:29|495:29|491:59,1,60,2|2,0:0|0:0,0:0:0:0:
434,105,83768,2,0,L|374:110,2,60,2|2|2,0:0|0:0|0:0,0:0:0:0:
504,137,84297,1,2,0:0:0:0:
504,137,84474,1,2,0:0:0:0:
408,245,84827,5,2,0:0:0:0:
299,150,85180,2,0,P|302:120|293:92,2,60,2|2|2,0:0|0:0|0:0,0:0:0:0:
255,208,85709,1,2,0:0:0:0:
255,208,85886,1,2,0:0:0:0:
359,307,86239,2,0,P|417:317|473:298,1,120,2|0,0:0|0:0,0:0:0:0:
502,232,86768,1,2,0:0:0:0:
502,232,86944,2,0,P|501:202|496:172,1,60,2|2,0:0|0:0,0:0:0:0:
439,128,87297,2,0,P|440:98|445:68,1,60,2|2,0:0|0:0,0:0:0:0:
499,7,87650,6,0,P|436:-13|379:17,1,134.999995880127,2|2,1:2|1:2,0:0:0:0:
340,91,88180,1,2,0:0:0:0:
340,91,88356,2,0,P|306:96|273:94,1,67.4999979400635,2|0,1:2|0:0,0:0:0:0:
207,48,88709,2,0,P|173:42|140:44,1,67.4999979400635,2|0,1:2|0:0,0:0:0:0:
74,91,89062,2,0,L|85:225,1,134.999995880127,2|0,1:2|1:2,0:0:0:0:
214,325,89768,1,2,1:2:0:0:
288,293,89944,1,2,0:0:0:0:
297,212,90121,2,0,L|291:144,1,67.4999979400635,2|0,1:2|0:0,0:0:0:0:
249,75,90474,6,0,P|280:63|313:67,1,67.4999979400635,2|0,1:2|1:2,0:0:0:0:
373,123,90827,2,0,L|378:190,1,67.4999979400635,0|0,1:2|1:2,0:0:0:0:
365,270,91180,1,2,1:2:0:0:
437,308,91356,1,2,1:2:0:0:
495,251,91533,1,2,1:2:0:0:
459,178,91709,1,0,1:2:0:0:
378,190,91886,2,0,L|344:187,3,33.7499989700318,2|0|0|0,1:2|1:2|1:2|1:2,0:0:0:0:
324,169,92239,2,0,L|290:171,3,33.7499989700318,0|0|0|0,1:2|1:2|1:2|1:2,0:0:0:0:
270,190,92592,2,0,L|236:187,3,33.7499989700318,0|0|0|0,1:2|1:2|1:2|1:2,0:0:0:0:
216,169,92944,2,0,L|182:171,3,33.7499989700318,0|0|0|0,1:2|1:2|1:2|1:2,0:0:0:0:
162,190,93297,5,6,3:2:0:0:
85,238,93474,2,0,P|70:203|74:166,1,75,2|8,0:0|0:0,0:0:0:0:
137,101,93827,1,2,0:0:0:0:
137,101,94003,2,0,L|211:94,1,75,2|2,0:0|3:2,0:0:0:0:
279,35,94356,2,0,L|353:41,1,75,10|2,0:0|0:0,0:0:0:0:
456,15,94709,6,0,P|443:50|449:87,1,75,2|2,3:2|0:0,0:0:0:0:
512,160,95062,1,10,0:0:0:0:
512,160,95239,1,2,0:0:0:0:
464,236,95415,1,2,0:0:0:0:
464,236,95592,1,2,3:2:0:0:
377,213,95768,2,0,B|340:207|340:207|305:219,1,75,10|0,0:0|0:0,0:0:0:0:
212,329,96121,6,0,B|248:325|248:325|282:309|282:309|320:306,1,112.5,2|0,3:2|0:0,0:0:0:0:
350,299,96474,1,10,0:0:0:0:
350,299,96650,1,2,0:0:0:0:
377,213,96827,1,2,0:0:0:0:
377,213,97003,1,2,3:2:0:0:
316,146,97180,2,0,L|241:152,1,75,10|0,0:0|0:0,0:0:0:0:
128,75,97533,6,0,P|150:144|115:207,1,150,2|8,3:2|0:0,0:0:0:0:
51,273,98062,1,2,0:0:0:0:
105,347,98239,1,2,0:0:0:0:
105,347,98415,1,2,3:2:0:0:
187,306,98592,1,10,0:2:0:0:
187,306,98768,1,2,0:0:0:0:
113,207,98944,6,0,B|95:152|95:152|123:102,1,112.5,2|0,3:2|0:0,0:0:0:0:
150,94,99297,1,10,0:0:0:0:
229,136,99474,1,2,0:0:0:0:
304,88,99650,2,0,P|306:50|298:14,1,75,2|0,0:0|3:2,0:0:0:0:
229,136,100003,2,0,P|226:173|234:209,1,75,10|0,0:0|0:0,0:0:0:0:
395,263,100356,6,0,P|418:193|383:129,1,150,2|8,3:2|0:0,0:0:0:0:
304,88,100886,1,0,0:0:0:0:
304,88,100974,1,0,0:0:0:0:
304,88,101062,1,2,0:0:0:0:
229,136,101239,1,2,3:2:0:0:
181,61,101415,1,8,0:0:0:0:
60,245,101768,6,0,L|208:231,1,150,2|8,3:2|0:0,0:0:0:0:
297,210,102297,1,0,0:0:0:0:
297,210,102386,1,0,0:0:0:0:
297,210,102474,1,2,0:0:0:0:
270,295,102650,1,2,3:2:0:0:
330,360,102827,1,10,0:0:0:0:
501,225,103180,6,0,P|453:170|381:178,1,150,2|8,3:2|0:0,0:0:0:0:
297,210,103709,1,2,0:0:0:0:
233,146,103886,2,0,L|239:71,1,75,2|2,0:0|3:2,0:0:0:0:
297,210,104239,2,0,L|290:284,1,75,10|2,0:0|0:0,0:0:0:0:
174,348,104592,5,6,3:2:0:0:
131,269,104768,2,0,P|165:256|202:262,1,75,2|8,0:0|0:0,0:0:0:0:
294,288,105121,1,2,0:0:0:0:
294,288,105297,2,0,P|328:301|365:295,1,75,2|2,0:0|3:2,0:0:0:0:
431,233,105650,2,0,L|438:159,1,75,10|2,0:0|0:0,0:0:0:0:
483,62,106003,6,0,B|446:68|446:68|411:55,1,75,2|2,3:2|0:0,0:0:0:0:
332,11,106356,1,10,0:0:0:0:
332,11,106533,1,2,0:0:0:0:
288,90,106709,1,2,0:0:0:0:
288,90,106886,1,2,3:2:0:0:
209,46,107062,2,0,P|175:33|138:39,1,75,10|0,0:0|0:0,0:0:0:0:
37,133,107415,6,0,B|68:152|68:152|143:145,1,112.5,2|0,3:2|0:0,0:0:0:0:
166,125,107768,1,10,0:0:0:0:
166,125,107944,1,2,0:0:0:0:
209,46,108121,1,2,0:0:0:0:
209,46,108297,1,2,3:2:0:0:
288,90,108474,2,0,L|294:164,1,75,10|0,0:0|0:0,0:0:0:0:
237,292,108827,6,0,B|301:254|301:254|373:277,1,150,2|8,3:2|0:0,0:0:0:0:
447,328,109356,1,2,0:0:0:0:
511,264,109533,1,2,0:0:0:0:
511,264,109709,1,2,3:2:0:0:
459,189,109886,1,10,0:0:0:0:
459,189,110062,1,2,0:0:0:0:
373,277,110239,6,0,P|321:296|266:286,1,112.5,2|0,3:2|0:0,0:0:0:0:
246,264,110592,1,10,0:0:0:0:
279,180,110768,1,2,0:0:0:0:
209,122,110944,2,0,L|134:115,1,75,2|0,0:0|3:2,0:0:0:0:
279,180,111297,2,0,L|353:173,1,75,10|0,0:0|0:0,0:0:0:0:
369,25,111650,6,0,P|302:-2|241:36,1,150,2|8,3:2|0:0,0:0:0:0:
209,122,112180,1,0,0:0:0:0:
209,122,112268,1,0,0:0:0:0:
209,122,112356,1,2,0:0:0:0:
279,180,112533,1,2,3:2:0:0:
221,250,112709,1,10,0:0:0:0:
390,363,113062,6,0,L|376:213,1,150,2|8,3:2|0:0,0:0:0:0:
351,126,113592,1,0,0:0:0:0:
351,126,113680,1,0,0:0:0:0:
351,126,113768,1,2,0:0:0:0:
279,180,113944,1,2,3:2:0:0:
209,122,114121,1,10,0:0:0:0:
362,0,114474,6,0,B|381:31|381:31|374:106,1,112.5,2|0,3:2|0:0,0:0:0:0:
351,126,114827,1,10,0:0:0:0:
405,198,115003,1,2,0:0:0:0:
333,252,115180,2,0,L|259:245,1,75,2|0,0:0|3:0,0:0:0:0:
178,203,115533,2,0,L|28:217,1,150,10|4,0:0|0:0,0:0:0:0:
