osu file format v14

[General]
AudioFilename: audio.mp3
AudioLeadIn: 0
PreviewTime: 263806
Countdown: 1
SampleSet: Soft
StackLeniency: 0.7
Mode: 0
LetterboxInBreaks: 0
WidescreenStoryboard: 0

[Editor]
Bookmarks: 11549,22178,66406,110292,177492,214520,220006,258406,261149,263549,263892,329720,351663,370863,373435
DistanceSpacing: 2.1
BeatDivisor: 4
GridSize: 8
TimelineZoom: 1.6

[Metadata]
Title:Romantic Fall
TitleUnicode:Romantic Fall
Artist:Mei Ayakura
ArtistUnicode:綾倉盟
Creator:felys
Version:Longing thoughts dyed in crimson
Source:東方風神録 ~ Mountain of Faith.
Tags:Touhou Fuujinroku 東方Project 人恋し神様 ~ Romantic Fall Stage 1 Theme Shizuha Aki Masayoshi Minoshima Haruka Ayakura Mei 綾倉盟 Team Shanghai Alice ZUN
BeatmapID:1353352
BeatmapSetID:637934

[Difficulty]
HPDrainRate:5
CircleSize:4
OverallDifficulty:8
ApproachRate:9
SliderMultiplier:1.7
SliderTickRate:1

[Events]
//Background and Video events
0,0,"uwu.jpg",0,0
//Break Periods
2,110492,120663
2,214720,219406
2,338149,340092
//Storyboard Layer 0 (Background)
//Storyboard Layer 1 (Fail)
//Storyboard Layer 2 (Pass)
//Storyboard Layer 3 (Foreground)
//Storyboard Sound Samples

[TimingPoints]
578,342.857142857143,4,2,1,100,1,0
11549,-125,4,2,1,60,0,0
22520,-100,4,2,1,80,0,0
27663,-76.9230769230769,4,2,1,80,0,0
28006,-100,4,2,1,80,0,0
33149,-76.9230769230769,4,2,1,80,0,0
33492,-100,4,2,1,80,0,0
38635,-76.9230769230769,4,2,1,80,0,0
38978,-100,4,2,1,80,0,0
44120,-76.9230769230769,4,2,1,80,0,0
44463,-100,4,2,1,80,0,0
49606,-76.9230769230769,4,2,1,80,0,0
49949,-100,4,2,1,80,0,0
66406,-100,4,2,1,60,0,0
121263,-125,4,2,1,60,0,0
126749,-142.857142857143,4,2,1,60,0,0
128120,-117.647058823529,4,2,1,60,0,0
128806,-100,4,2,1,60,0,0
132235,-100,4,2,1,90,0,1
175949,-76.9230769230769,4,2,1,90,0,0
176120,-100,4,2,1,90,0,1
181263,-76.9230769230769,4,2,1,90,0,1
181606,-100,4,2,1,90,0,1
186749,-76.9230769230769,4,2,1,90,0,1
187092,-100,4,2,1,90,0,1
192235,-76.9230769230769,4,2,1,90,0,1
192578,-100,4,2,1,90,0,1
197720,-76.9230769230769,4,2,1,90,0,1
198063,-100,4,2,1,90,0,0
203206,-76.9230769230769,4,2,1,90,0,0
203549,-100,4,2,1,90,0,0
208692,-76.9230769230769,4,2,1,90,0,0
209035,-100,4,2,1,90,0,0
214178,-76.9230769230769,4,2,1,90,0,0
214520,-100,4,2,1,70,0,0
220006,-100,4,2,1,60,0,0
241949,-125,4,2,1,60,0,0
252578,-100,4,2,1,60,0,0
252920,-125,4,2,1,60,0,0
258063,-100,4,2,1,60,0,0
263892,-100,4,2,1,90,0,1
307435,-76.9230769230769,4,2,1,90,0,1
307778,-100,4,2,1,90,0,0
312920,-76.9230769230769,4,2,1,90,0,0
313263,-100,4,2,1,90,0,0
323892,-76.9230769230769,4,2,1,90,0,0
324235,-100,4,2,1,90,0,0
329720,-142.857142857143,4,2,1,60,0,0
340692,-142.857142857143,4,2,1,50,0,0
351663,-125,4,2,1,60,0,0
351749,-125,4,2,1,30,0,0

[Colours]
Combo1 : 192,237,210
Combo2 : 255,182,108
Combo3 : 255,145,145
Combo4 : 188,157,225

[HitObjects]
118,108,11549,6,0,P|184:98|277:86,2,136,2|2|0,0:0|0:0|0:0,0:0:0:0:
40,211,12406,1,2,0:0:0:0:
147,283,12578,2,0,L|158:209,1,68,8|0,0:0|0:0,0:0:0:0:
188,355,12920,6,0,P|143:367|70:307,2,136,2|2|0,0:0|0:0|0:0,0:0:0:0:
272,253,13778,1,2,0:0:0:0:
436,343,13949,2,0,P|402:341|370:329,1,68,8|0,0:0|0:0,0:0:0:0:
284,220,14292,6,0,P|321:207|357:207,1,68,2|2,0:0|0:0,0:0:0:0:
473,254,14635,2,0,P|434:257|387:183,1,136,2|0,0:0|0:0,0:0:0:0:
437,102,15149,1,2,0:0:0:0:
293,34,15320,2,0,P|239:41|166:66,1,102,8|0,0:0|0:0,0:0:0:0:
170,96,15663,6,0,L|149:258,2,136,2|2|0,0:0|0:0|0:0,0:0:0:0:
88,33,16520,1,2,0:0:0:0:
11,156,16692,2,0,L|91:140,1,68,8|0,0:0|0:0,0:0:0:0:
225,208,17035,6,0,L|87:234,2,136,2|2|0,0:0|0:0|0:0,0:0:0:0:
356,285,17892,1,2,0:0:0:0:
244,357,18063,2,0,P|231:312|226:291,1,68,8|0,0:0|0:0,0:0:0:0:
314,137,18406,6,0,L|304:222,1,68,2|0,0:0|0:0,0:0:0:0:
474,255,18749,2,0,L|464:340,1,68,2|0,0:0|0:0,0:0:0:0:
395,172,19092,1,0,0:0:0:0:
451,95,19263,1,2,0:0:0:0:
378,32,19435,1,8,0:0:0:0:
378,32,19606,1,0,0:0:0:0:
297,83,19778,6,0,L|201:67,2,68,2|2|2,0:0|0:0|0:0,0:0:0:0:
395,172,20292,1,0,0:0:0:0:
279,214,20463,2,0,P|236:238|210:259,1,68,0|2,0:0|0:0,0:0:0:0:
91,362,20806,2,0,P|106:324|108:263,1,102,8|0,0:0|0:0,0:0:0:0:
54,206,21149,5,0,0:0:0:0:
54,206,21492,1,0,0:0:0:0:
54,206,21835,1,0,0:0:0:0:
188,126,22006,1,0,0:0:0:0:
54,43,22178,1,2,0:3:0:0:
57,55,22263,1,0,0:0:0:0:
61,68,22349,1,2,0:3:0:0:
65,81,22435,1,0,0:0:0:0:
69,93,22520,6,0,P|153:81|243:71,1,170,4|8,0:1|0:0,0:0:0:0:
343,179,23035,1,0,0:0:0:0:
469,111,23206,2,0,P|424:103|385:98,1,85,0|2,0:0|0:0,0:0:0:0:
261,149,23549,1,0,0:0:0:0:
281,321,23720,6,0,P|320:343|411:271,1,170,8|2,0:0|0:0,0:0:0:0:
496,217,24235,2,0,P|453:197|411:186,1,85,8|0,0:0|0:0,0:0:0:0:
214,262,24578,2,0,P|257:242|299:231,1,85,0|2,0:0|0:0,0:0:0:0:
160,355,24920,2,0,L|23:342,1,127.5,8|0,0:0|0:0,0:0:0:0:
14,309,25263,5,2,0:0:0:0:
140,222,25435,1,0,0:0:0:0:
0,160,25606,2,0,P|-10:109|-15:63,1,85,8|0,0:0|0:0,0:0:0:0:
93,103,25949,1,0,0:0:0:0:
40,232,26120,1,2,0:0:0:0:
224,196,26292,1,0,0:0:0:0:
194,79,26463,6,0,P|149:65|54:42,1,127.5,8|0,0:0|0:0,0:0:0:0:
54,53,26806,1,2,0:0:0:0:
119,147,26978,1,8,0:0:0:0:
268,35,27149,1,0,0:0:0:0:
411,117,27320,2,0,P|361:106|313:100,1,85,0|2,0:0|0:0,0:0:0:0:
480,51,27663,2,0,P|467:105|452:218,1,165.749992412568,8|0,0:0|0:0,0:0:0:0:
489,254,28006,6,0,P|429:248|356:334,1,170,2|8,0:0|0:0,0:0:0:0:
249,345,28520,1,0,0:0:0:0:
186,265,28692,2,0,P|234:245|271:235,2,85,0|2|0,0:0|0:0|0:0,0:0:0:0:
111,132,29206,6,0,P|156:139|291:157,1,170,8|2,0:0|0:0,0:0:0:0:
249,345,29720,1,8,0:0:0:0:
70,365,29892,1,0,0:0:0:0:
5,227,30063,2,0,P|59:237|106:252,1,85,0|2,0:0|0:0,0:0:0:0:
318,265,30406,2,0,P|264:255|217:240,1,85,8|0,0:0|0:0,0:0:0:0:
24,72,30749,6,0,B|92:67|151:92,1,127.5,2|0,0:0|0:0,0:0:0:0:
181,63,31092,2,0,P|172:125|173:153,1,85,8|0,0:0|0:0,0:0:0:0:
318,265,31435,2,0,P|376:255|419:255,2,85,0|2|0,0:0|0:0|0:0,0:0:0:0:
230,243,31949,6,0,P|150:230|100:294,1,170,8|2,0:0|0:0,0:0:0:0:
286,188,32463,2,0,P|309:231|321:293,1,85,8|0,0:0|0:0,0:0:0:0:
262,343,32806,1,0,0:0:0:0:
413,354,32978,1,2,0:0:0:0:
487,210,33149,2,0,P|423:197|374:203,1,110.499994941712,8|8,0:0|0:0,0:0:0:0:
369,208,33406,1,8,0:0:0:0:
362,213,33492,6,0,L|375:126,1,85,4|0,0:1|0:0,0:0:0:0:
377,20,33835,1,8,0:0:0:0:
489,96,34006,1,0,0:0:0:0:
290,150,34178,2,0,P|240:135|201:128,2,85,0|2|0,0:0|0:0|0:0,0:0:0:0:
115,119,34692,6,0,P|158:100|278:68,1,170,8|2,0:0|0:0,0:0:0:0:
91,212,35206,2,0,P|54:179|23:143,1,85,8|0,0:0|0:0,0:0:0:0:
74,306,35549,1,0,0:0:0:0:
74,306,35892,1,8,0:0:0:0:
177,192,36063,1,0,0:0:0:0:
304,324,36235,6,0,P|212:340|164:290,1,170,2|8,0:0|0:0,0:0:0:0:
258,202,36749,1,0,0:0:0:0:
390,340,36920,2,0,P|440:322|493:308,2,85,0|2|0,0:0|0:0|0:0,0:0:0:0:
258,202,37435,6,0,P|313:227|451:244,1,170,8|2,0:0|0:0,0:0:0:0:
473,135,37949,2,0,P|427:150|395:168,1,85,8|0,0:0|0:0,0:0:0:0:
368,70,38292,2,0,P|335:105|316:137,1,85,0|2,0:0|0:0,0:0:0:0:
122,246,38635,2,0,P|178:262|262:184,1,165.749992412568,8|0,0:0|0:0,0:0:0:0:
236,174,38978,6,0,P|166:162|136:157,1,85,2|0,0:0|0:0,0:0:0:0:
53,184,39320,1,8,0:0:0:0:
23,86,39492,1,0,0:0:0:0:
120,56,39663,1,0,0:0:0:0:
59,191,39835,1,0,0:0:0:0:
25,96,40006,1,2,0:0:0:0:
94,287,40178,6,0,L|286:272,1,170,8|2,0:0|0:0,0:0:0:0:
386,356,40692,2,0,P|343:353|311:318,1,85,8|0,0:0|0:0,0:0:0:0:
441,218,41035,2,0,P|484:221|516:256,1,85,0|2,0:0|0:0,0:0:0:0:
377,278,41378,6,0,B|352:198|388:103,1,170,8|2,0:0|0:0,0:0:0:0:
385,111,42063,2,0,L|495:127,1,85,8|0,0:0|0:0,0:0:0:0:
275,198,42406,2,0,P|266:152|259:109,1,85,0|2,0:0|0:0,0:0:0:0:
192,24,42749,1,0,0:0:0:0:
117,108,42920,6,0,P|136:171|157:274,1,170,8|2,0:0|0:0,0:0:0:0:
326,341,43435,1,8,0:0:0:0:
248,253,43606,1,0,0:0:0:0:
116,353,43778,2,0,L|33:334,1,85,0|2,0:0|0:0,0:0:0:0:
248,253,44120,2,0,L|358:278,1,110.499994941712,8|8,0:0|0:0,0:0:0:0:
378,294,44378,1,8,0:0:0:0:
399,310,44463,6,0,B|382:218|434:237|414:135,1,170,4|8,0:1|0:0,0:0:0:0:
485,56,44978,1,0,0:0:0:0:
382,16,45149,2,0,P|315:22|288:32,1,85,0|2,0:0|0:0,0:0:0:0:
221,152,45492,1,0,0:0:0:0:
59,16,45663,6,0,P|109:16|218:74,1,170,8|2,0:0|0:0,0:0:0:0:
320,196,46178,2,0,P|304:146|293:101,1,85,8|0,0:0|0:0,0:0:0:0:
236,232,46520,1,0,0:0:0:0:
384,122,46692,1,2,0:0:0:0:
213,69,46863,1,8,0:0:0:0:
81,162,47035,1,0,0:0:0:0:
175,361,47206,6,0,P|192:309|190:175,1,170,2|8,0:0|0:0,0:0:0:0:
46,274,47720,1,0,0:0:0:0:
241,322,47892,2,0,L|343:303,2,85,0|2|0,0:0|0:0|0:0,0:0:0:0:
405,358,48406,6,0,P|370:323|399:200,1,170,8|2,0:0|0:0,0:0:0:0:
493,158,48920,2,0,L|510:254,1,85,8|0,0:0|0:0,0:0:0:0:
364,111,49263,2,0,L|378:27,1,85,0|2,0:0|0:0,0:0:0:0:
276,191,49606,2,0,B|184:162|207:231|115:208,1,165.749992412568,8|0,0:0|0:0,0:0:0:0:
72,154,49949,6,0,P|130:136|184:229,1,170,2|8,0:0|0:0,0:0:0:0:
86,275,50463,1,0,0:0:0:0:
226,348,50635,1,0,0:0:0:0:
355,254,50806,2,0,P|301:246|264:243,1,85,2|0,0:0|0:0,0:0:0:0:
434,348,51149,6,0,P|450:301|474:178,1,170,8|2,0:0|0:0,0:0:0:0:
317,90,51663,2,0,P|331:134|351:182,1,85,8|0,0:0|0:0,0:0:0:0:
467,79,52006,2,0,P|454:38|438:0,1,85,0|2,0:0|0:0,0:0:0:0:
226,57,52349,1,8,0:0:0:0:
226,57,52520,1,0,0:0:0:0:
345,169,52692,6,0,P|392:162|417:137,1,85,2|0,0:0|0:0,0:0:0:0:
226,57,53035,2,0,L|210:143,1,85,8|0,0:0|0:0,0:0:0:0:
354,93,53378,1,0,0:0:0:0:
412,251,53549,1,2,0:0:0:0:
412,251,53892,6,0,L|221:232,1,170,8|2,0:0|0:0,0:0:0:0:
271,326,54406,2,0,L|255:239,1,85,8|0,0:0|0:0,0:0:0:0:
442,156,54749,2,0,L|426:239,1,85,0|2,0:0|0:0,0:0:0:0:
403,338,55092,1,8,0:0:0:0:
255,242,55263,1,8,0:0:0:0:
292,232,55349,1,8,0:0:0:0:
329,222,55435,6,0,P|351:168|296:71,1,170,4|8,0:1|0:0,0:0:0:0:
151,35,55949,1,0,0:0:0:0:
151,35,56120,2,0,P|137:85|132:118,1,85,0|2,0:0|0:0,0:0:0:0:
209,149,56463,1,0,0:0:0:0:
71,284,56635,2,0,P|33:233|58:117,1,170,8|2,0:0|0:0,0:0:0:0:
217,234,57149,2,0,P|183:271|144:293,1,85,8|0,0:0|0:0,0:0:0:0:
132,117,57492,2,0,P|172:127|209:149,1,85,0|2,0:0|0:0,0:0:0:0:
366,312,57835,1,8,0:0:0:0:
255,362,58006,1,0,0:0:0:0:
217,234,58178,6,0,L|408:200,1,170,2|8,0:0|0:0,0:0:0:0:
327,62,58692,1,0,0:0:0:0:
483,141,58863,2,0,L|388:123,1,85,0|2,0:0|0:0,0:0:0:0:
446,25,59206,1,0,0:0:0:0:
384,204,59378,6,0,L|210:180,1,170,8|2,0:0|0:0,0:0:0:0:
78,109,59892,1,8,0:0:0:0:
146,46,60063,1,0,0:0:0:0:
109,204,60235,1,0,0:0:0:0:
19,178,60406,1,2,0:0:0:0:
165,131,60578,1,8,0:0:0:0:
137,281,60749,1,0,0:0:0:0:
137,281,60835,1,0,0:0:0:0:
137,281,60920,6,0,P|143:326|152:373,1,85,2|0,0:0|0:0,0:0:0:0:
301,292,61263,1,8,0:0:0:0:
301,292,61606,1,0,0:0:0:0:
452,335,61778,2,0,L|365:356,1,85,2|0,0:0|0:0,0:0:0:0:
341,188,62120,6,0,P|410:172|479:252,1,170,8|2,0:0|0:0,0:0:0:0:
301,292,62635,2,0,P|268:252|248:218,1,85,8|0,0:0|0:0,0:0:0:0:
174,78,62978,1,0,0:0:0:0:
266,122,63149,1,2,0:0:0:0:
286,18,63320,2,0,P|337:23|382:28,1,85,8|0,0:0|0:0,0:0:0:0:
181,161,63663,6,0,P|126:154|0:122,1,170,2|8,0:0|0:0,0:0:0:0:
77,56,64178,1,0,0:0:0:0:
181,161,64349,2,0,P|192:213|192:248,1,85,0|2,0:0|0:0,0:0:0:0:
76,365,64692,1,0,0:0:0:0:
230,308,64863,6,0,P|173:317|121:228,1,170,8|2,0:0|0:0,0:0:0:0:
255,122,65378,2,0,P|208:152|163:163,1,85,8|0,0:0|0:0,0:0:0:0:
71,146,65720,1,0,0:0:0:0:
234,218,65892,1,0,0:0:0:0:
375,109,66063,1,8,0:0:0:0:
505,233,66235,1,8,0:0:0:0:
505,233,66320,1,8,0:0:0:0:
505,233,66406,6,0,P|434:246|319:279,1,170,4|8,0:1|0:0,0:0:0:0:
271,339,66920,2,0,P|187:323|105:300,1,170,0|2,0:0|0:0,0:0:0:0:
28,232,67435,2,0,P|70:207|107:193,1,85,8|0,0:0|0:0,0:0:0:0:
190,247,67778,6,0,P|146:216|161:106,1,170,2|8,0:0|0:0,0:0:0:0:
202,28,68292,2,0,P|258:86|236:164,1,170,0|2,0:0|0:0,0:0:0:0:
51,142,68806,2,0,P|70:93|88:64,1,85,8|0,0:0|0:0,0:0:0:0:
202,28,69149,6,0,L|377:38,1,170,2|8,0:0|0:0,0:0:0:0:
447,106,69663,1,0,0:0:0:0:
443,122,70006,1,2,0:0:0:0:
377,177,70178,2,0,P|326:166|290:148,1,85,8|0,0:0|0:0,0:0:0:0:
443,122,70520,6,0,P|461:172|467:291,1,170,2|8,0:0|0:0,0:0:0:0:
391,344,71035,1,0,0:0:0:0:
302,313,71206,2,0,P|301:262|307:222,1,85,0|2,0:0|0:0,0:0:0:0:
215,236,71549,2,0,P|231:187|250:152,1,85,8|0,0:0|0:0,0:0:0:0:
367,116,71892,6,0,B|324:173|257:163|212:96,1,170,2|8,0:0|0:0,0:0:0:0:
141,42,72406,2,0,P|193:34|314:23,1,170,0|2,0:0|0:0,0:0:0:0:
472,140,72920,1,8,0:0:0:0:
338,183,73092,6,0,P|327:223|317:271,2,85,0|2|0,0:0|0:0|0:0,0:0:0:0:
309,23,73606,1,8,0:0:0:0:
456,163,73778,2,0,P|501:207|470:319,1,170,0|2,0:0|0:0,0:0:0:0:
425,372,74292,2,0,P|415:335|406:282,1,85,8|0,0:0|0:0,0:0:0:0:
343,227,74635,6,0,P|277:241|219:157,1,170,2|8,0:0|0:0,0:0:0:0:
67,270,75149,2,0,P|133:256|191:340,1,170,0|2,0:0|0:0,0:0:0:0:
266,329,75663,1,8,0:0:0:0:
131,235,75835,6,0,L|156:62,1,170,0|0,0:0|0:0,0:0:0:0:
36,19,76349,2,0,L|51:108,2,85,8|0|0,0:0|0:0|0:0,0:0:0:0:
184,42,76863,1,2,0:0:0:0:
39,134,77035,1,8,0:0:0:0:
185,234,77206,1,0,0:0:0:0:
344,153,77378,6,0,P|276:132|166:117,1,170,2|8,0:0|0:0,0:0:0:0:
285,82,77892,2,0,P|369:70|450:46,1,170,0|2,0:0|0:0,0:0:0:0:
496,192,78406,2,0,P|448:184|384:176,1,85,8|0,0:0|0:0,0:0:0:0:
278,312,78749,5,2,0:0:0:0:
278,312,79092,1,8,0:0:0:0:
374,259,79263,2,0,P|389:212|366:90,1,170,0|2,0:0|0:0,0:0:0:0:
285,61,79778,1,8,0:0:0:0:
285,61,80120,6,0,P|210:62|121:123,1,170,2|8,0:0|0:0,0:0:0:0:
60,249,80635,2,0,P|50:199|30:141,1,85
248,280,80978,2,0,P|235:320|227:362,1,85,2|8,0:0|0:0,0:0:0:0:
163,273,81320,1,0,0:0:0:0:
142,163,81492,6,0,P|184:180|230:195,1,85,2|0,0:0|0:0,0:0:0:0:
393,258,81835,2,0,P|351:275|305:290,2,85,8|0|0,0:0|0:0|0:0,0:0:0:0:
221,192,82349,1,2,0:0:0:0:
267,122,82520,1,8,0:0:0:0:
393,258,82692,1,0,0:0:0:0:
506,193,82863,6,0,P|404:179|317:171,1,170,2|8,0:0|0:0,0:0:0:0:
335,67,83378,2,0,P|268:84|251:93,1,85,0|0,0:0|0:0,0:0:0:0:
442,33,83720,2,0,P|379:2|360:-1,1,85,2|8,0:0|0:0,0:0:0:0:
247,177,84063,6,0,P|296:169|334:63,1,170
161,138,84578,1,8,0:0:0:0:
178,234,84749,2,0,B|259:208|259:269|346:233,1,170,0|2,0:0|0:0,0:0:0:0:
161,138,85263,2,0,L|71:123,1,85,8|0,0:0|0:0,0:0:0:0:
310,352,85606,6,0,L|334:176,1,170,2|8,0:0|0:0,0:0:0:0:
120,261,86120,1,0,0:0:0:0:
124,277,86463,1,2,0:0:0:0:
219,314,86635,1,8,0:0:0:0:
306,262,86806,6,0,P|366:254|476:258,2,170,0|0|0,0:0|0:0|0:0,0:0:0:0:
216,197,87663,1,0,0:0:0:0:
288,112,87835,1,2,0:0:0:0:
214,29,88006,1,8,0:0:0:0:
214,29,88178,1,0,0:0:0:0:
115,169,88349,6,0,P|50:177|-6:84,1,170,6|8,0:0|0:0,0:0:0:0:
210,112,88863,2,0,L|189:303,1,170,0|2,0:0|0:0,0:0:0:0:
98,342,89378,1,8,0:0:0:0:
27,257,89549,1,0,0:0:0:0:
191,280,89720,6,0,P|250:265|372:242,1,170,2|8,0:0|0:0,0:0:0:0:
485,350,90235,2,0,P|417:362|370:276,1,170,0|2,0:0|0:0,0:0:0:0:
449,207,90749,2,0,P|449:259|439:297,1,85,8|0,0:0|0:0,0:0:0:0:
316,366,91092,6,0,P|296:301|321:190,1,170,2|8,0:0|0:0,0:0:0:0:
469,110,91606,1,0,0:0:0:0:
463,125,91949,1,2,0:0:0:0:
374,59,92120,1,8,0:0:0:0:
274,108,92292,2,0,P|187:95|108:68,1,170,0|0,0:0|0:0,0:0:0:0:
28,209,92806,2,0,P|79:192|127:179,2,85,8|0|0,0:0|0:0|0:0,0:0:0:0:
35,110,93320,2,0,P|18:59|5:11,2,85,2|8|0,0:0|0:0|0:0,0:0:0:0:
199,167,93835,6,0,P|191:215|169:344,1,170,2|8,0:0|0:0,0:0:0:0:
361,207,94349,2,0,L|268:189,1,85
343,314,94692,2,0,L|436:296,1,85,2|8,0:0|0:0,0:0:0:0:
465,136,95035,6,0,L|448:219,1,85,0|2,0:0|0:0,0:0:0:0:
249,370,95378,2,0,L|232:286,1,85,0|8,0:0|0:0,0:0:0:0:
321,45,95720,2,0,L|353:215,1,170,0|2,0:0|0:0,0:0:0:0:
232,286,96235,2,0,L|146:270,1,85,8|0,0:0|0:0,0:0:0:0:
31,168,96578,6,0,P|93:139|178:199,1,170,2|8,0:0|0:0,0:0:0:0:
230,309,97092,2,0,L|46:281,1,170,0|2,0:0|0:0,0:0:0:0:
31,168,97606,2,0,P|26:118|29:72,1,85,8|0,0:0|0:0,0:0:0:0:
153,29,97949,6,0,L|249:43,2,85,2|0|8,0:0|0:0|0:0,0:0:0:0:
320,110,98463,2,0,L|416:96,2,85,0|0|2,0:0|0:0|0:0,0:0:0:0:
341,18,98978,1,8,0:0:0:0:
492,133,99149,1,0,0:0:0:0:
351,220,99320,6,0,P|271:198|168:176,1,170,4|8,0:0|0:0,0:0:0:0:
80,161,99835,2,0,P|128:161|168:57,1,170,0|2,0:0|0:0,0:0:0:0:
21,122,100349,2,0,L|35:222,1,85,8|0,0:0|0:0,0:0:0:0:
163,347,100692,6,0,L|187:171,1,170,2|8,0:0|0:0,0:0:0:0:
288,239,101206,1,0,0:0:0:0:
397,192,101378,2,0,P|455:201|483:235,1,85,0|2,0:0|0:0,0:0:0:0:
377,358,101720,2,0,L|366:264,1,85,8|0,0:0|0:0,0:0:0:0:
469,140,102063,6,0,B|379:106|383:170|290:134,1,170,2|8,0:0|0:0,0:0:0:0:
226,68,102578,2,0,L|315:55,1,85,0|0,0:0|0:0,0:0:0:0:
213,156,102920,2,0,L|124:143,1,85,2|8,0:0|0:0,0:0:0:0:
28,65,103263,6,0,P|14:116|6:251,1,170,0|0,0:0|0:0,0:0:0:0:
97,322,103778,2,0,P|117:268|129:224,2,85,8|0|0,0:0|0:0|0:0,0:0:0:0:
213,156,104292,2,0,P|228:195|240:236,2,85,2|8|0,0:0|0:0|0:0,0:0:0:0:
195,323,104806,6,0,P|236:338|329:260,1,170,2|8,0:0|0:0,0:0:0:0:
416,310,105320,2,0,P|418:269|402:193,1,85,0|0,0:0|0:0,0:0:0:0:
328,179,105663,1,2,0:0:0:0:
439,116,105835,1,8,0:0:0:0:
330,49,106006,1,0,0:0:0:0:
202,129,106178,6,0,L|218:216,1,85,2|0,0:0|0:0,0:0:0:0:
236,14,106520,1,8,0:0:0:0:
140,74,106692,2,0,P|91:90|-4:16,1,170,0|2,0:0|0:0,0:0:0:0:
236,14,107206,2,0,P|268:50|284:92,1,85,8|0,0:0|0:0,0:0:0:0:
186,299,107549,6,0,L|203:127,1,170,2|8,0:0|0:0,0:0:0:0:
265,218,108063,2,0,P|216:234|112:182,1,170,0|2,0:0|0:0,0:0:0:0:
11,297,108578,2,0,L|111:279,1,85,8|0,0:0|0:0,0:0:0:0:
247,352,108920,6,0,L|339:337,1,85,2|0,0:0|0:0,0:0:0:0:
456,362,109263,1,8,0:0:0:0:
372,264,109435,1,0,0:0:0:0:
475,190,109606,2,0,P|489:141|492:93,2,85,0|2|8,0:0|0:0|0:0,0:0:0:0:
372,264,110120,1,0,0:0:0:0:
276,178,110292,5,4,0:0:0:0:
197,202,121263,6,0,L|62:189,2,136,4|0|2,0:0|0:0|0:0,0:0:0:0:
263,250,122120,1,0,0:0:0:0:
333,209,122292,1,2,0:0:0:0:
406,243,122463,1,0,0:0:0:0:
461,183,122635,6,0,P|474:139|457:47,2,136,2|0|2,0:0|0:0|0:0,0:0:0:0:
366,143,123492,1,0,0:0:0:0:
289,209,123663,2,0,L|211:197,1,68,2|0,0:0|0:0,0:0:0:0:
173,87,124006,6,0,B|236:106|230:57|306:80,2,136,2|0|2,0:0|0:0|0:0,0:0:0:0:
86,32,124863,1,0,0:0:0:0:
14,104,125035,2,0,P|36:146|50:192,1,68,2|0,0:0|0:0,0:0:0:0:
31,266,125378,6,0,P|74:240|167:219,2,136,2|0|2,0:0|0:0|0:0,0:0:0:0:
120,350,126235,1,0,0:0:0:0:
227,292,126406,1,0,0:0:0:0:
327,362,126578,1,0,0:0:0:0:
244,197,126749,6,0,L|229:119,3,59.4999981842042,2|0|2|0,0:0|0:0|0:0|0:0,0:0:0:0:
307,96,127435,2,0,L|322:18,3,59.4999981842042,2|0|2|0,0:0|0:0|0:0|0:0,0:0:0:0:
208,152,128120,2,0,P|160:144|120:128,1,72.2500013780594,2|0,0:0|0:0,0:0:0:0:
52,29,128463,2,0,P|62:63|67:99,1,72.2500013780594,2|0,0:0|0:0,0:0:0:0:
18,344,128806,2,0,P|25:259|45:177,1,170,2|2,0:0|0:0,0:0:0:0:
137,136,129320,1,0,0:0:0:0:
202,248,129492,6,0,L|116:255,1,85,2|0,0:0|0:0,0:0:0:0:
228,334,129835,2,0,L|312:327,1,85,0|0,1:0|0:0,0:0:0:0:
419,358,130178,1,2,0:0:0:0:
419,358,130349,1,0,0:0:0:0:
465,258,130520,1,0,1:0:0:0:
465,258,130692,1,0,0:0:0:0:
364,212,130863,5,2,0:0:0:0:
314,311,131035,1,0,1:1:0:0:
453,170,131206,5,2,0:0:0:0:
403,71,131378,1,0,1:1:0:0:
151,156,131549,5,2,0:0:0:0:
250,206,131721,1,0,1:1:0:0:
169,276,131892,1,0,1:0:0:0:
169,276,131978,1,0,1:0:0:0:
169,276,132063,1,0,1:0:0:0:
169,276,132149,1,0,1:0:0:0:
169,276,132235,6,0,P|217:258|344:233,1,170,4|8,0:0|0:0,0:0:0:0:
496,269,132749,1,0,0:0:0:0:
496,269,132835,1,0,0:0:0:0:
496,269,132920,2,0,P|480:340|474:358,1,85,0|2,0:0|0:0,0:0:0:0:
394,265,133263,1,0,0:0:0:0:
508,165,133435,1,8,0:0:0:0:
362,91,133606,6,0,P|344:44|339:-3,2,85,2|2|8,0:0|0:0|0:0,0:0:0:0:
286,179,134120,1,0,0:0:0:0:
286,179,134206,1,0,0:0:0:0:
286,179,134292,2,0,L|177:165,1,85,0|2,0:0|0:0,0:0:0:0:
36,102,134635,1,8,0:0:0:0:
146,27,134806,1,0,0:0:0:0:
41,134,134978,6,0,P|26:185|20:221,1,85,2|0,0:0|0:0,0:0:0:0:
94,319,135320,1,8,0:0:0:0:
202,251,135492,2,0,L|155:234,1,42.5,0|0,0:0|0:0,0:0:0:0:
180,346,135663,2,0,L|269:329,1,85,0|2,0:0|0:0,0:0:0:0:
323,167,136006,1,0,0:0:0:0:
162,236,136178,1,8,0:0:0:0:
363,358,136349,6,0,L|346:265,1,85,2|2,0:0|0:0,0:0:0:0:
217,169,136692,1,8,0:0:0:0:
429,94,136863,1,0,0:0:0:0:
422,131,136949,1,0,0:0:0:0:
416,169,137035,1,0,0:0:0:0:
442,249,137206,1,2,0:0:0:0:
511,102,137378,1,8,0:0:0:0:
363,36,137549,1,0,0:0:0:0:
284,176,137720,6,0,P|221:175|168:127,1,127.5,2|0,0:0|0:0,0:0:0:0:
141,157,138063,2,0,P|127:117|126:68,1,85,8|0,0:0|0:0,0:0:0:0:
282,1,138406,2,0,L|296:95,1,85,0|2,0:0|0:0,0:0:0:0:
201,60,138749,1,8,0:0:0:0:
349,152,138920,1,0,0:0:0:0:
349,152,139006,1,0,0:0:0:0:
349,152,139092,5,2,0:0:0:0:
214,262,139263,1,2,0:0:0:0:
397,349,139435,2,0,P|409:303|411:265,1,85,8|0,0:0|0:0,0:0:0:0:
349,152,139778,1,0,0:0:0:0:
456,106,139949,1,2,0:0:0:0:
504,216,140120,1,8,0:0:0:0:
311,262,140292,2,0,P|281:248|264:233,1,42.5
315,75,140463,6,0,P|338:111|349:160,1,85,2|0,0:0|0:0,0:0:0:0:
177,107,140806,2,0,L|192:17,1,85,8|0,0:0|0:0,0:0:0:0:
263,142,141149,1,0,0:0:0:0:
107,196,141320,2,0,L|13:180,1,85,2|0,0:0|0:0,0:0:0:0:
78,103,141663,1,8,0:0:0:0:
211,217,141835,5,2,0:0:0:0:
211,217,142006,1,2,0:0:0:0:
123,349,142178,2,0,L|36:330,1,85,8|0,0:0|0:0,0:0:0:0:
108,254,142520,1,0,0:0:0:0:
108,254,142692,1,2,0:0:0:0:
231,295,142863,1,8,0:0:0:0:
364,336,143035,1,10,0:0:0:0:
364,336,143120,1,10,0:0:0:0:
364,336,143206,6,0,P|347:271|341:194,1,127.5,4|0,0:0|0:0,0:0:0:0:
365,181,143549,1,8,0:0:0:0:
464,201,143720,1,0,0:0:0:0:
489,68,143892,2,0,L|403:78,1,85,0|2,0:0|0:0,0:0:0:0:
263,191,144235,1,0,0:0:0:0:
176,64,144406,1,8,0:0:0:0:
256,31,144578,6,0,P|303:44|344:64,1,85,2|2,0:0|0:0,0:0:0:0:
181,150,144920,1,8,0:0:0:0:
48,88,145092,2,0,L|61:-2,1,85,0|0,0:0|0:0,0:0:0:0:
181,150,145435,1,2,0:0:0:0:
2,240,145606,1,8,0:0:0:0:
166,320,145778,1,0,0:0:0:0:
212,243,145949,6,0,P|264:226|342:218,1,127.5,2|0,0:0|0:0,0:0:0:0:
375,242,146292,1,8,0:0:0:0:
474,334,146463,2,0,P|460:261|451:188,1,127.5
475,167,146806,1,2,0:0:0:0:
394,56,146978,1,0,0:0:0:0:
269,110,147149,1,8,0:0:0:0:
162,43,147320,6,0,L|69:18,2,85,2|2|8,0:0|0:0|0:0,0:0:0:0:
269,110,147835,1,0,0:0:0:0:
156,234,148006,2,0,P|131:179|123:137,1,85,0|2,0:0|0:0,0:0:0:0:
271,219,148349,1,8,0:0:0:0:
86,277,148520,6,0,P|132:267|217:345,1,170
358,355,149035,2,0,L|347:268,1,85,8|0,0:0|0:0,0:0:0:0:
357,252,149292,1,0,0:0:0:0:
367,233,149378,2,0,L|458:243,1,85,0|2,0:0|0:0,0:0:0:0:
505,169,149720,1,0,0:0:0:0:
357,252,149892,6,0,P|303:254|258:159,1,170,8|2,0:0|0:0,0:0:0:0:
289,54,150406,1,8,0:0:0:0:
399,43,150578,1,0,0:0:0:0:
399,43,150663,1,0,0:0:0:0:
399,43,150749,2,0,P|422:94|431:129,1,85,0|2,0:0|0:0,0:0:0:0:
193,219,151092,1,8,0:0:0:0:
110,118,151263,6,0,P|166:118|288:130,1,170
433,213,151778,1,8,0:0:0:0:
433,213,152120,1,0,0:0:0:0:
240,341,152292,1,2,0:0:0:0:
240,341,152635,1,8,0:0:0:0:
341,207,152806,5,2,0:0:0:0:
205,136,152978,1,2,0:0:0:0:
100,293,153149,2,0,P|151:281|198:273,1,85,8|0,0:0|0:0,0:0:0:0:
40,358,153492,1,0,0:0:0:0:
10,260,153663,1,2,0:0:0:0:
104,176,153835,1,8,0:0:0:0:
0,39,154006,1,10,0:0:0:0:
24,55,154092,1,10,0:0:0:0:
51,67,154178,6,0,P|111:81|229:37,1,170,4|8,0:0|0:0,0:0:0:0:
386,65,154692,2,0,P|336:42|290:136,1,170,0|2,0:0|0:0,0:0:0:0:
344,215,155206,2,0,P|373:266|390:308,1,85,0|8,0:0|0:0,0:0:0:0:
384,147,155549,5,2,0:0:0:0:
280,280,155720,1,2,0:0:0:0:
456,358,155892,2,0,L|470:261,1,85,8|0,0:0|0:0,0:0:0:0:
468,273,156149,1,0,0:0:0:0:
468,273,156235,1,0,0:0:0:0:
361,299,156406,1,2,0:0:0:0:
253,325,156578,2,0,P|186:312|109:294,1,127.5,8|0,0:0|0:0,0:0:0:0:
92,340,156920,6,0,P|102:283|107:180,1,127.5,2|0,0:0|0:0,0:0:0:0:
79,175,157263,1,8,0:0:0:0:
219,52,157435,6,0,P|209:109|204:212,1,127.5,0|0,0:0|0:0,0:0:0:0:
232,217,157778,1,2,0:0:0:0:
133,113,157949,1,0,0:0:0:0:
6,165,158120,1,8,0:0:0:0:
118,305,158292,6,0,P|132:282|145:225,1,85,2|2,0:0|0:0,0:0:0:0:
61,235,158635,1,8,0:0:0:0:
216,342,158806,1,0,0:0:0:0:
216,342,158892,1,0,0:0:0:0:
216,342,158978,2,0,P|258:346|324:352,1,85,0|2,0:0|0:0,0:0:0:0:
441,341,159320,1,8,0:0:0:0:
504,250,159492,6,0,P|442:259|331:280,1,170
441,341,160006,1,8,0:0:0:0:
441,341,160349,1,0,0:0:0:0:
335,231,160520,1,2,0:0:0:0:
453,106,160692,1,0,0:0:0:0:
473,191,160863,6,0,B|369:197|412:141|313:146,1,170,8|2,0:0|0:0,0:0:0:0:
249,99,161378,2,0,P|307:85|348:61,1,85,8|0,0:0|0:0,0:0:0:0:
229,187,161720,2,0,P|190:169|148:161,1,85,0|2,0:0|0:0,0:0:0:0:
35,215,162063,1,8,0:0:0:0:
238,340,162235,6,0,P|262:295|221:180,1,170
46,130,162749,2,0,L|33:222,1,85,8|0,0:0|0:0,0:0:0:0:
133,55,163092,1,0,0:0:0:0:
229,187,163263,2,0,L|381:164,1,127.5,2|0,0:0|0:0,0:0:0:0:
391,185,163606,1,8,0:0:0:0:
490,72,163778,6,0,L|401:55,1,85,2|2,0:0|0:0,0:0:0:0:
278,100,164120,1,8,0:0:0:0:
391,29,164292,1,0,0:0:0:0:
492,229,164463,2,0,P|482:188|467:149,1,85,0|2,0:0|0:0,0:0:0:0:
286,115,164806,1,8,0:0:0:0:
212,288,164978,1,8,0:0:0:0:
212,288,165063,1,8,0:0:0:0:
212,288,165149,6,0,P|276:276|364:270,1,127.5,4|0,0:0|0:0,0:0:0:0:
375,291,165492,1,8,0:0:0:0:
148,365,165663,2,0,P|120:324|136:207,1,170,0|2,0:0|0:0,0:0:0:0:
217,142,166178,1,0,0:0:0:0:
38,206,166349,1,8,0:0:0:0:
1,65,166520,6,0,L|96:78,1,85,2|2,0:0|0:0,0:0:0:0:
217,142,166863,1,8,0:0:0:0:
339,36,167035,2,0,P|291:28|195:42,1,127.5
178,61,167378,1,2,0:0:0:0:
325,185,167549,2,0,P|358:154|386:117,1,85,8|0,0:0|0:0,0:0:0:0:
442,36,167892,6,0,P|434:91|436:218,1,170,2|8,0:0|0:0,0:0:0:0:
478,297,168406,1,0,0:0:0:0:
362,352,168578,1,0,0:0:0:0:
483,313,168749,1,2,0:0:0:0:
364,267,168920,1,0,0:0:0:0:
248,323,169092,1,8,0:0:0:0:
173,220,169263,6,0,P|221:225|275:234,1,85,2|2,0:0|0:0,0:0:0:0:
86,314,169606,1,8,0:0:0:0:
86,314,169778,1,0,0:0:0:0:
15,206,169949,2,0,P|20:165|30:115,2,85,0|2|8,0:0|0:0|0:0,0:0:0:0:
186,133,170463,6,0,P|153:83|40:101,1,170,0|0,0:0|0:0,0:0:0:0:
150,172,170978,2,0,P|193:176|240:143,1,85,8|0,0:0|0:0,0:0:0:0:
326,62,171320,1,0,0:0:0:0:
418,123,171492,1,2,0:0:0:0:
472,27,171663,1,0,0:0:0:0:
434,131,171835,1,8,0:0:0:0:
394,233,172006,6,0,P|326:213|302:207,1,85,2|2,0:0|0:0,0:0:0:0:
267,362,172349,2,0,P|335:342|359:336,1,85,8|0,0:0|0:0,0:0:0:0:
444,308,172692,1,0,0:0:0:0:
444,308,173035,1,8,0:0:0:0:
285,276,173206,1,0,0:0:0:0:
141,350,173378,6,0,P|100:338|51:322,1,85,2|0,0:0|0:0,0:0:0:0:
150,224,173720,1,8,0:0:0:0:
150,224,174063,2,0,P|161:182|167:138,2,85,0|2|0,0:0|0:0|0:0,0:0:0:0:
59,324,174578,6,0,P|39:251|28:155,1,170,8|2,0:0|0:0,0:0:0:0:
110,59,175092,1,8,0:0:0:0:
233,90,175263,1,0,0:0:0:0:
265,79,175349,1,0,0:0:0:0:
297,69,175435,1,0,0:0:0:0:
386,132,175606,1,2,0:0:0:0:
484,80,175778,1,8,0:0:0:0:
398,10,175949,2,8,P|380:33|369:62,1,55.2499974708558
462,304,176120,6,0,P|499:264|461:158,1,170,6|8,0:0|0:0,0:0:0:0:
370,191,176635,1,0,0:0:0:0:
275,228,176806,2,0,L|177:210,1,85,0|2,0:0|0:0,0:0:0:0:
265,329,177149,2,0,L|363:311,1,85,8|0,0:0|0:0,0:0:0:0:
141,293,177492,6,0,P|108:252|146:132,1,170,2|8,0:0|0:0,0:0:0:0:
214,86,178006,1,0,0:0:0:0:
129,28,178178,2,0,P|83:15|40:12,1,85,0|2,0:0|0:0,0:0:0:0:
222,101,178520,2,0,P|264:96|304:84,1,85,8|0,0:0|0:0,0:0:0:0:
448,256,178863,6,0,L|248:240,1,170,2|8,0:0|0:0,0:0:0:0:
208,320,179378,1,0,0:0:0:0:
136,248,179549,2,0,P|192:216|216:208,1,85,0|2,0:0|0:0,0:0:0:0:
296,320,179892,1,8,0:0:0:0:
131,367,180063,1,0,0:0:0:0:
76,308,180235,6,0,P|60:260|60:220,1,85,2|0,0:0|0:0,0:0:0:0:
141,165,180578,1,8,0:0:0:0:
55,109,180749,1,0,0:0:0:0:
130,41,180920,2,0,P|176:59|222:72,1,85,0|2,0:0|0:0,0:0:0:0:
364,149,181263,2,0,P|300:167|200:205,1,165.749992412568,8|0,0:0|0:0,0:0:0:0:
196,219,181606,6,0,P|177:262|186:301,1,85,2|0,0:0|0:0,0:0:0:0:
386,285,181949,1,8,0:0:0:0:
375,370,182120,1,0,0:0:0:0:
375,370,182206,1,0,0:0:0:0:
375,370,182292,2,0,L|388:276,1,85,0|2,0:0|0:0,0:0:0:0:
309,237,182635,1,8,0:0:0:0:
469,143,182806,6,0,L|486:319,1,170,0|0,0:0|0:0,0:0:0:0:
309,237,183320,2,0,P|348:213|392:198,1,85,8|0,0:0|0:0,0:0:0:0:
349,34,183663,2,0,P|373:73|388:117,1,85,0|2,0:0|0:0,0:0:0:0:
221,349,184006,2,0,P|208:287|200:204,1,127.5,8|0,0:0|0:0,0:0:0:0:
220,195,184349,5,2,0:0:0:0:
107,254,184520,1,0,0:0:0:0:
39,145,184692,2,0,P|88:110|122:92,1,85,8|0,0:0|0:0,0:0:0:0:
251,32,185035,1,0,0:0:0:0:
133,100,185206,1,2,0:0:0:0:
220,195,185378,1,8,0:0:0:0:
370,146,185549,6,0,P|423:150|461:255,1,170,0|0,0:0|0:0,0:0:0:0:
315,218,186063,2,0,P|298:267|294:306,1,85,8|0,0:0|0:0,0:0:0:0:
482,222,186406,2,0,P|475:180|461:140,1,85,0|2,0:0|0:0,0:0:0:0:
423,372,186749,2,0,B|429:279|373:300|393:210,1,165.749992412568,8|0,0:0|0:0,0:0:0:0:
461,140,187092,6,0,P|409:160|332:82,1,170,6|8,0:0|0:0,0:0:0:0:
282,1,187606,1,0,0:0:0:0:
207,71,187778,2,0,L|122:61,1,85,0|2,0:0|0:0,0:0:0:0:
6,166,188120,1,8,0:0:0:0:
41,56,188292,1,0,0:0:0:0:
204,168,188463,6,0,P|259:143|287:116,1,85,2|0,0:0|0:0,0:0:0:0:
122,61,188806,1,8,0:0:0:0:
80,161,188978,1,0,0:0:0:0:
92,192,189063,1,2,0:0:0:0:
104,223,189150,1,0,0:0:0:0:
203,286,189320,1,2,0:0:0:0:
114,366,189492,1,8,0:0:0:0:
21,291,189663,1,0,0:0:0:0:
180,191,189835,6,0,P|238:198|347:217,1,170,2|8,0:0|0:0,0:0:0:0:
256,331,190349,1,0,0:0:0:0:
335,303,190520,2,0,P|389:283|436:272,1,85,0|2,0:0|0:0,0:0:0:0:
480,335,190863,1,8,0:0:0:0:
429,189,191035,1,0,0:0:0:0:
379,44,191206,6,0,P|371:86|366:137,1,85,2|0,0:0|0:0,0:0:0:0:
293,13,191549,1,8,0:0:0:0:
461,91,191720,1,0,0:0:0:0:
296,180,191892,1,0,0:0:0:0:
146,68,192063,1,2,0:0:0:0:
296,180,192235,2,0,P|306:247|243:331,1,165.749992412568,8|0,0:0|0:0,0:0:0:0:
117,213,192578,6,0,P|155:206|203:206,1,85,2|0,0:0|0:0,0:0:0:0:
139,319,192920,2,0,P|96:319|54:311,1,85,8|0,0:0|0:0,0:0:0:0:
46,301,193178,1,0,0:0:0:0:
38,290,193263,2,0,L|31:201,1,85,0|2,0:0|0:0,0:0:0:0:
75,132,193606,1,8,0:0:0:0:
279,96,193778,6,0,P|218:115|140:35,1,170
272,167,194292,2,0,P|319:133|362:117,1,85,8|0,0:0|0:0,0:0:0:0:
454,123,194635,1,0,0:0:0:0:
318,35,194806,1,2,0:0:0:0:
193,174,194978,2,0,P|183:242|182:312,1,127.5,8|0,0:0|0:0,0:0:0:0:
195,316,195320,6,0,P|256:339|320:271,1,170,2|8,0:0|0:0,0:0:0:0:
151,238,195835,1,0,0:0:0:0:
46,336,196006,2,0,P|79:349|128:356,1,85,0|2,0:0|0:0,0:0:0:0:
320,270,196349,1,8,0:0:0:0:
169,68,196520,6,0,L|150:244,1,170,0|0,0:0|0:0,0:0:0:0:
51,173,197035,2,0,L|61:83,1,85,8|0,0:0|0:0,0:0:0:0:
150,253,197378,2,0,L|138:343,1,85,0|2,0:0|0:0,0:0:0:0:
56,222,197720,2,0,P|87:207|216:215,1,165.749992412568,8|0,0:0|0:0,0:0:0:0:
311,267,198063,6,0,B|300:94,1,170,6|8,0:0|0:0,0:0:0:0:
137,22,198578,1,0,0:0:0:0:
301,98,198749,2,0,P|359:78|386:62,1,85,0|2,0:0|0:0,0:0:0:0:
284,6,199092,1,8,0:0:0:0:
204,137,199263,6,0,P|266:199|359:186,1,170,0|0,0:0|0:0,0:0:0:0:
467,252,199778,1,8,0:0:0:0:
467,252,199949,1,0,0:0:0:0:
404,131,200120,2,0,P|379:202|374:244,1,85,0|2,0:0|0:0,0:0:0:0:
435,334,200463,2,0,P|391:313|302:333,1,127.5,8|0,0:0|0:0,0:0:0:0:
294,338,200806,6,0,P|241:363|142:311,1,170,2|8,0:0|0:0,0:0:0:0:
41,283,201320,1,0,0:0:0:0:
125,211,201492,2,0,P|182:219|222:230,1,85,0|2,0:0|0:0,0:0:0:0:
41,283,201835,1,8,0:0:0:0:
16,179,202006,6,0,P|41:102|65:11,1,170,0|0,0:0|0:0,0:0:0:0:
185,97,202520,2,0,P|145:117|100:145,1,85,8|0,0:0|0:0,0:0:0:0:
148,26,202863,1,0,0:0:0:0:
279,88,203035,1,2,0:0:0:0:
417,46,203206,2,0,P|362:28|304:16,1,110.499994941712,8|0,0:0|0:0,0:0:0:0:
214,181,203549,6,0,L|393:168,1,170,2|8,0:0|0:0,0:0:0:0:
493,156,204063,1,0,0:0:0:0:
475,322,204235,2,0,L|451:228,1,85,0|2,0:0|0:0,0:0:0:0:
493,156,204578,1,8,0:0:0:0:
373,252,204749,2,0,P|322:232|314:122,1,170,0|0,0:0|0:0,0:0:0:0:
224,42,205263,2,0,P|212:83|195:128,1,85,8|0,0:0|0:0,0:0:0:0:
99,176,205606,2,0,P|84:136|72:95,1,85,0|2,0:0|0:0,0:0:0:0:
216,214,205949,2,0,P|192:276|162:343,1,127.5,8|0,0:0|0:0,0:0:0:0:
138,350,206292,5,2,0:0:0:0:
138,350,206635,2,0,L|35:338,1,85,8|0,0:0|0:0,0:0:0:0:
109,255,206978,1,0,0:0:0:0:
229,327,207149,1,2,0:0:0:0:
272,192,207320,1,8,0:0:0:0:
229,327,207492,2,0,L|402:308,1,170,0|0,0:0|0:0,0:0:0:0:
368,152,208006,2,0,L|352:248,1,85,8|0,0:0|0:0,0:0:0:0:
294,77,208349,2,0,L|393:67,1,85,0|2,0:0|0:0,0:0:0:0:
269,171,208692,2,0,L|96:151,1,165.749992412568,8|0,0:0|0:0,0:0:0:0:
15,66,209035,6,0,P|89:43|186:49,1,170,6|8,0:0|0:0,0:0:0:0:
269,171,209549,1,0,0:0:0:0:
145,241,209720,2,0,L|161:143,1,85,0|2,0:0|0:0,0:0:0:0:
256,80,210063,1,8,0:0:0:0:
98,16,210235,6,0,L|69:196,1,170,0|0,0:0|0:0,0:0:0:0:
17,290,210749,2,0,P|60:293|117:299,1,85,8|0,0:0|0:0,0:0:0:0:
271,343,211092,2,0,P|228:340|186:335,1,85,0|2,0:0|0:0,0:0:0:0:
151,162,211435,2,0,P|170:205|244:256,1,127.5,8|0,0:0|0:0,0:0:0:0:
265,261,211778,6,0,L|355:245,1,85,2|0,0:0|0:0,0:0:0:0:
489,338,212120,1,8,0:0:0:0:
361,329,212292,1,0,0:0:0:0:
410,181,212463,2,0,P|433:231|439:265,2,85,0|2|8,0:0|0:0|0:0,0:0:0:0:
303,126,212978,6,0,P|350:145|447:77,1,170
240,12,213492,2,0,L|227:108,1,85,8|0,0:0|0:0,0:0:0:0:
129,177,213835,2,0,L|117:92,1,85,0|2,0:0|0:0,0:0:0:0:
42,216,214178,2,0,B|170:192|96:285|269:248,1,220.999989883423,8|0,0:0|0:0,0:0:0:0:
230,329,220006,6,0,P|180:336|36:310,1,170,6|8,0:0|0:0,0:0:0:0:
18,237,220520,2,0,L|28:57,1,170,0|2,0:0|0:0,0:0:0:0:
114,102,221035,2,0,L|110:193,1,85,8|0,0:0|0:0,0:0:0:0:
257,43,221378,6,0,P|218:25|83:28,1,170,2|8,0:0|0:0,0:0:0:0:
196,170,221892,2,0,P|289:135|360:117,1,170,0|2,0:0|0:0,0:0:0:0:
469,21,222406,2,0,P|416:41|375:47,1,85,8|0,0:0|0:0,0:0:0:0:
436,265,222749,6,2,P|469:228|426:110,1,170,2|8,0:0|0:0,0:0:0:0:
334,246,223263,2,0,P|338:297|356:338,1,85,0|0,0:0|0:0,0:0:0:0:
386,185,223606,2,0,P|346:170|303:168,1,85,2|8,0:0|0:0,0:0:0:0:
177,307,223949,6,0,P|224:298|355:229,1,170,0|0,0:0|0:0,0:0:0:0:
228,126,224463,2,0,P|219:170|216:217,2,85,8|0|0,0:0|0:0|0:0,0:0:0:0:
182,34,224978,2,0,P|152:67|126:106,2,85,2|8|0,0:0|0:0|0:0,0:0:0:0:
397,144,225492,6,0,P|311:135|220:125,1,170,2|8,0:0|0:0,0:0:0:0:
130,178,226006,1,0,0:0:0:0:
28,132,226178,2,0,P|21:87|15:42,1,85,0|2,0:0|0:0,0:0:0:0:
130,178,226520,1,8,0:0:0:0:
37,238,226692,6,0,P|94:227|166:310,1,170,0|0,0:0|0:0,0:0:0:0:
245,349,227206,1,8,0:0:0:0:
335,307,227378,1,0,0:0:0:0:
335,307,227720,1,2,0:0:0:0:
444,241,227892,1,8,0:0:0:0:
343,177,228063,1,0,0:0:0:0:
457,71,228235,6,0,L|443:253,1,170,2|8,0:0|0:0,0:0:0:0:
258,188,228749,2,0,L|356:175,1,85,0|0,0:0|0:0,0:0:0:0:
369,69,229092,1,2,0:0:0:0:
269,21,229263,1,8,0:0:0:0:
180,87,229435,6,0,P|129:93|56:12,1,170
258,188,229949,2,0,P|268:240|270:283,2,85,8|0|0,0:0|0:0|0:0,0:0:0:0:
141,267,230463,2,0,P|131:319|129:362,2,85,2|8|0,0:0|0:0|0:0,0:0:0:0:
258,188,230978,6,0,L|444:199,1,170,6|8,0:0|0:0,0:0:0:0:
473,301,231492,2,0,P|422:318|359:218,1,170,0|2,0:0|0:0,0:0:0:0:
481,136,232006,2,0,P|501:183|507:220,1,85,8|0,0:0|0:0,0:0:0:0:
323,161,232349,6,0,P|355:128|330:7,1,170,2|8,0:0|0:0,0:0:0:0:
223,139,232863,1,0,0:0:0:0:
223,139,233035,2,0,P|235:196|250:230,1,85,0|2,0:0|0:0,0:0:0:0:
273,78,233378,1,8,0:0:0:0:
164,61,233549,1,0,0:0:0:0:
54,45,233720,6,0,P|46:117|40:182,1,127.5,2|0,0:0|0:0,0:0:0:0:
66,205,234063,1,8,0:0:0:0:
226,332,234235,2,0,P|179:326|31:301,1,170,0|2,0:0|0:0,0:0:0:0:
176,220,234749,1,8,0:0:0:0:
249,349,234920,6,0,P|292:360|377:279,1,170,0|0,0:0|0:0,0:0:0:0:
278,183,235435,2,0,L|287:271,2,85,8|0|0,0:0|0:0|0:0,0:0:0:0:
470,244,235949,2,0,L|462:329,2,85,2|8|0,0:0|0:0|0:0,0:0:0:0:
409,53,236463,6,0,P|384:121|387:217,1,170,2|8,0:0|0:0,0:0:0:0:
479,145,236978,1,0,0:0:0:0:
311,121,237320,1,2,0:0:0:0:
311,121,237492,1,8,0:0:0:0:
142,98,237663,6,2,P|38:111|-38:135,2,170,2|2|0,0:0|0:0|0:0,0:0:0:0:
246,156,238520,1,0,0:0:0:0:
160,239,238692,1,2,0:0:0:0:
232,333,238863,2,0,P|251:288|258:251,1,85,8|0,0:0|0:0,0:0:0:0:
75,170,239206,6,0,L|87:348,1,170,2|8,0:0|0:0,0:0:0:0:
342,263,239720,2,0,L|253:252,1,85,0|0,0:0|0:0,0:0:0:0:
318,352,240063,1,2,0:0:0:0:
424,203,240235,2,0,P|442:255|451:298,1,85,8|0,0:0|0:0,0:0:0:0:
257,252,240578,6,0,P|263:189|282:79,1,170,2|8,0:0|0:0,0:0:0:0:
388,31,241092,1,0,0:0:0:0:
388,31,241263,1,0,0:0:0:0:
379,143,241435,2,0,P|436:131|477:128,2,85,2|8|0,0:0|0:0|0:0,0:0:0:0:
186,197,241949,6,0,L|32:182,2,136,6|2|2,0:0|0:0|0:0,0:0:0:0:
242,312,242806,1,0,0:0:0:0:
242,312,243149,1,0,0:0:0:0:
270,192,243320,6,0,P|317:193|386:275,2,136,2|2|2,0:0|0:0|0:0,0:0:0:0:
316,319,244178,1,0,0:0:0:0:
410,336,244349,2,0,P|449:308|470:277,1,68,2|0,0:0|0:0,0:0:0:0:
413,119,244692,6,0,P|397:164|379:259,2,136,2|2|2,0:0|0:0|0:0,0:0:0:0:
493,81,245549,2,0,P|449:81|363:35,1,136
269,149,246063,6,0,L|256:-2,1,136,2|2,0:0|0:0,0:0:0:0:
257,13,246578,1,0,0:0:0:0:
109,108,246749,2,0,P|141:119|174:121,1,68,2|0,0:0|0:0,0:0:0:0:
117,10,247092,2,0,P|83:12|51:23,1,68,2|0,0:0|0:0,0:0:0:0:
24,173,247435,6,0,P|36:213|74:298,1,136,2|2,0:0|0:0,0:0:0:0:
159,350,247949,1,0,0:0:0:0:
159,350,248120,2,0,P|175:309|177:282,1,68,2|0,0:0|0:0,0:0:0:0:
56,234,248463,2,0,P|60:267|74:298,1,68,2|0,0:0|0:0,0:0:0:0:
270,215,248806,6,0,L|114:197,1,136,2|2,0:0|0:0,0:0:0:0:
268,314,249320,1,0,0:0:0:0:
343,267,249492,6,0,P|410:264|477:251,1,136,2|2,0:0|0:0,0:0:0:0:
372,116,250006,1,0,0:0:0:0:
279,185,250178,6,0,P|268:137|264:36,1,136,2|2,0:0|0:0,0:0:0:0:
263,50,250863,1,2,0:0:0:0:
174,148,251035,1,0,0:0:0:0:
174,148,251206,1,2,0:0:0:0:
43,39,251378,6,0,P|86:36|187:67,1,136,0|0,0:0|0:0,0:0:0:0:
96,205,251892,2,0,L|80:132,1,68,2|0,0:0|0:0,0:0:0:0:
161,279,252235,2,0,L|146:345,1,68,2|0,0:0|0:0,0:0:0:0:
34,219,252578,2,0,P|94:206|169:196,1,127.5,2|0,0:0|0:0,0:0:0:0:
189,206,252920,6,0,P|148:174|174:97,1,136,6|2,0:0|0:0,0:0:0:0:
274,172,253435,1,0,0:0:0:0:
378,108,253606,2,0,P|328:90|284:84,1,68,2|0,0:0|0:0,0:0:0:0:
258,269,253949,2,0,P|290:260|322:248,1,68,2|0,0:0|0:0,0:0:0:0:
446,182,254292,6,0,P|459:146|470:44,2,136,2|2|2,0:0|0:0|0:0,0:0:0:0:
393,244,255149,1,0,0:0:0:0:
461,290,255320,2,0,P|476:339|483:366,1,68,2|0,0:0|0:0,0:0:0:0:
292,300,255663,6,0,P|306:264|397:247,1,136,2|2,0:0|0:0,0:0:0:0:
369,320,256178,1,0,0:0:0:0:
259,361,256349,2,0,P|246:299|241:214,1,136,2|2,0:0|0:0,0:0:0:0:
301,171,256863,1,0,0:0:0:0:
190,76,257035,6,0,P|182:122|176:165,1,68,2|0,0:0|0:0,0:0:0:0:
240,226,257378,1,2,0:0:0:0:
120,274,257549,1,0,0:0:0:0:
193,334,257720,1,2,0:0:0:0:
193,334,258063,2,0,P|168:285|130:214,1,127.5,2|0,0:0|0:0,0:0:0:0:
119,211,258406,6,0,P|61:202|16:198,1,85,6|0,0:0|0:0,0:0:0:0:
0,102,258749,2,0,P|58:93|103:89,1,85,0|0,1:0|0:0,0:0:0:0:
252,178,259092,2,0,P|277:230|299:277,1,85,2|0,0:0|0:0,0:0:0:0:
167,111,259435,2,0,P|185:72|203:34,1,85,0|0,1:0|0:0,0:0:0:0:
492,159,259778,5,2,0:0:0:0:
422,189,259949,1,0,0:0:0:0:
357,147,260120,1,0,1:0:0:0:
354,70,260292,1,0,0:0:0:0:
501,213,260463,5,2,0:0:0:0:
424,208,260635,1,0,0:0:0:0:
347,212,260806,1,0,1:0:0:0:
276,243,260978,1,0,0:0:0:0:
384,354,261149,5,0,0:0:0:0:
424,208,261320,1,0,1:0:0:0:
342,288,261492,5,0,0:0:0:0:
356,137,261663,1,0,1:0:0:0:
276,243,261835,5,0,0:0:0:0:
263,91,262006,1,0,1:0:0:0:
202,212,262178,5,0,0:0:0:0:
162,64,262349,1,0,1:0:0:0:
16,176,262520,6,0,L|104:160,2,85,2|0|0,0:0|0:0|1:0,0:0:0:0:
162,64,263035,1,0,3:0:0:0:
288,160,263206,1,0,0:0:0:0:
176,272,263378,1,0,1:0:0:0:
24,176,263549,1,0,1:0:0:0:
34,172,263634,1,0,1:0:0:0:
44,169,263720,1,0,1:0:0:0:
54,166,263806,1,0,1:0:0:0:
67,164,263892,6,0,B|149:140|143:204|236:176,1,170,4|8,0:1|0:0,0:0:0:0:
329,68,264406,1,0,0:0:0:0:
329,68,264492,1,0,0:0:0:0:
329,68,264578,2,0,P|277:52|241:47,1,85,0|2,0:0|0:0,0:0:0:0:
327,187,264920,1,0,0:0:0:0:
511,238,265092,1,8,0:0:0:0:
434,76,265263,6,0,P|418:126|406:172,2,85,2|2|8,0:0|0:0|0:0,0:0:0:0:
511,238,265778,2,0,P|456:220|313:194,1,170,0|2,0:0|0:0,0:0:0:0:
231,253,266292,1,8,0:0:0:0:
346,197,266463,1,0,0:0:0:0:
213,25,266635,6,0,P|165:95|190:175,1,170,2|8,0:0|0:0,0:0:0:0:
379,100,267149,1,0,0:0:0:0:
373,93,267235,1,0,0:0:0:0:
367,86,267320,2,0,L|279:76,1,85,0|2,0:0|0:0,0:0:0:0:
119,61,267663,1,0,0:0:0:0:
246,181,267835,1,8,0:0:0:0:
109,244,268006,6,0,P|102:200|96:152,1,85,2|2,0:0|0:0,0:0:0:0:
21,88,268349,1,8,0:0:0:0:
246,181,268520,1,0,0:0:0:0:
157,301,268692,2,0,P|115:320|36:241,1,170,0|8,0:0|0:0,0:0:0:0:
246,181,269206,6,0,L|262:359,1,170,0|0,0:0|0:0,0:0:0:0:
160,254,269720,2,0,L|171:355,1,85,8|0,0:0|0:0,0:0:0:0:
356,365,270063,2,0,L|365:277,2,85,0|2|0,0:0|0:0|0:0,0:0:0:0:
478,303,270578,1,8,0:0:0:0:
399,186,270749,6,0,P|329:194|304:206,1,85,2|2,0:0|0:0,0:0:0:0:
296,276,271092,1,8,0:0:0:0:
248,151,271263,1,0,0:0:0:0:
380,21,271435,2,0,L|366:108,1,85,0|2,0:0|0:0,0:0:0:0:
491,203,271778,1,8,0:0:0:0:
366,104,271949,6,0,P|263:111|181:115,1,170,0|0,0:0|0:0,0:0:0:0:
21,34,272463,2,0,P|46:78|67:124,1,85,8|0,0:0|0:0,0:0:0:0:
88,242,272806,1,0,0:0:0:0:
88,242,272978,1,2,0:0:0:0:
20,173,273149,1,0,0:0:0:0:
176,236,273320,1,8,0:0:0:0:
56,335,273492,5,2,0:0:0:0:
183,250,273663,1,2,0:0:0:0:
325,305,273835,2,0,P|359:297|430:288,1,85,8|0,0:0|0:0,0:0:0:0:
250,353,274178,1,0,0:0:0:0:
465,232,274349,1,2,0:0:0:0:
270,90,274520,2,0,L|270:179,1,85,8|8,0:0|0:0,0:0:0:0:
265,186,274778,1,8,0:0:0:0:
259,197,274863,6,0,L|391:180,1,127.5,6|0,0:0|0:0,0:0:0:0:
413,148,275206,1,8,0:0:0:0:
307,21,275378,1,0,0:0:0:0:
127,107,275549,2,0,P|174:120|220:136,2,85,0|2|0,0:0|0:0|0:0,0:0:0:0:
8,77,276063,1,8,0:0:0:0:
180,36,276235,6,0,P|214:92|167:184,1,170,2|8,0:0|0:0,0:0:0:0:
48,253,276749,1,0,0:0:0:0:
48,253,276835,1,0,0:0:0:0:
48,253,276920,2,0,L|39:158,1,85,0|2,0:0|0:0,0:0:0:0:
160,244,277263,1,8,0:0:0:0:
81,355,277435,1,0,0:0:0:0:
300,297,277606,6,0,P|279:263|155:246,1,170,2|8,0:0|0:0,0:0:0:0:
283,379,278120,2,0,P|326:377|364:350,1,85,0|0,0:0|0:0,0:0:0:0:
399,199,278463,2,0,P|376:234|374:276,1,85,2|0,0:0|0:0,0:0:0:0:
471,153,278806,6,0,L|296:138,1,170,8|2,0:0|0:0,0:0:0:0:
208,50,279320,1,8,0:0:0:0:
111,134,279492,1,0,0:0:0:0:
297,67,279663,1,0,0:0:0:0:
297,67,279835,1,2,0:0:0:0:
112,38,280006,1,8,0:0:0:0:
77,222,280178,1,0,0:0:0:0:
133,285,280349,6,0,P|155:229|187:113,1,170,2|8,0:0|0:0,0:0:0:0:
329,214,280863,1,0,0:0:0:0:
253,338,281035,2,0,P|237:289|226:249,1,85,0|2,0:0|0:0,0:0:0:0:
184,123,281378,1,0,0:0:0:0:
333,125,281549,6,0,P|397:151|405:261,1,170,8|2,0:0|0:0,0:0:0:0:
261,84,282063,2,0,L|270:-11,1,85,8|0,0:0|0:0,0:0:0:0:
416,111,282406,2,0,L|327:125,1,85,0|2,0:0|0:0,0:0:0:0:
351,31,282749,1,8,0:0:0:0:
470,188,282920,6,0,L|300:221,1,170,0|0,0:0|0:0,0:0:0:0:
141,255,283435,1,8,0:0:0:0:
141,255,283778,2,0,P|129:203|125:170,2,85,0|2|0,0:0|0:0|0:0,0:0:0:0:
246,311,284292,1,8,0:0:0:0:
243,192,284463,5,2,0:0:0:0:
141,255,284635,1,2,0:0:0:0:
315,249,284806,1,8,0:0:0:0:
151,159,284978,1,0,0:0:0:0:
155,337,285149,1,0,0:0:0:0:
48,285,285320,1,2,0:0:0:0:
172,330,285492,1,8,0:0:0:0:
62,198,285663,1,8,0:0:0:0:
74,186,285749,1,8,0:0:0:0:
86,174,285835,6,0,P|99:115|101:3,1,170,4|8,0:1|0:0,0:0:0:0:
304,134,286349,1,0,0:0:0:0:
223,161,286520,2,0,P|186:184|147:216,1,85,0|2,0:0|0:0,0:0:0:0:
176,39,286863,1,0,0:0:0:0:
131,111,287035,1,8,0:0:0:0:
281,36,287206,6,0,P|329:41|366:48,2,85,2|2|8,0:0|0:0|0:0,0:0:0:0:
419,151,287720,2,0,P|464:118|474:-2,1,170,0|2,0:0|0:0,0:0:0:0:
316,132,288235,2,0,L|333:230,1,85,8|0,0:0|0:0,0:0:0:0:
456,269,288578,6,0,B|366:226|364:306|267:256,1,170,2|8,0:0|0:0,0:0:0:0:
217,349,289092,1,0,0:0:0:0:
118,266,289263,2,0,P|106:207|104:167,1,85,0|2,0:0|0:0,0:0:0:0:
189,212,289606,1,0,0:0:0:0:
52,318,289778,6,0,P|30:232|26:144,1,170,8|2,0:0|0:0,0:0:0:0:
134,127,290292,1,8,0:0:0:0:
43,63,290463,1,0,0:0:0:0:
43,63,290549,1,0,0:0:0:0:
43,63,290635,1,0,0:0:0:0:
142,44,290806,1,2,0:0:0:0:
242,25,290978,1,8,0:0:0:0:
367,160,291149,1,0,0:0:0:0:
288,266,291320,6,0,P|269:218|261:95,1,170,2|8,0:0|0:0,0:0:0:0:
346,45,291835,1,0,0:0:0:0:
488,165,292006,1,0,0:0:0:0:
392,200,292178,1,2,0:0:0:0:
422,102,292349,1,0,0:0:0:0:
311,151,292520,6,0,P|298:201|291:243,2,85,8|2|2,0:0|0:0|0:0,0:0:0:0:
469,239,293035,2,0,P|482:289|489:331,1,85,8|0,0:0|0:0,0:0:0:0:
323,351,293378,2,0,L|140:332,1,170,0|8,0:0|0:0,0:0:0:0:
22,370,293892,1,0,0:0:0:0:
114,270,294063,6,0,P|130:213|133:183,1,85,2|0,0:0|0:0,0:0:0:0:
18,39,294406,2,0,L|30:135,1,85,8|0,0:0|0:0,0:0:0:0:
226,157,294749,1,0,0:0:0:0:
112,83,294920,1,2,0:0:0:0:
58,208,295092,1,0,0:0:0:0:
58,208,295263,1,8,0:0:0:0:
112,83,295435,6,0,P|173:73|284:59,1,170,2|8,0:0|0:0,0:0:0:0:
413,103,295949,1,0,0:0:0:0:
303,191,296120,2,0,P|254:168|205:149,1,85,0|2,0:0|0:0,0:0:0:0:
434,203,296463,1,8,0:0:0:0:
326,340,296635,1,8,0:0:0:0:
326,340,296720,1,8,0:0:0:0:
326,340,296806,6,0,P|290:298|297:207,1,127.5,4|0,0:1|0:0,0:0:0:0:
303,191,297149,1,8,0:0:0:0:
412,286,297320,1,0,0:0:0:0:
234,358,297492,2,0,P|185:347|144:343,1,85,0|2,0:0|0:0,0:0:0:0:
41,358,297835,1,0,0:0:0:0:
2,228,298006,6,0,P|78:247|171:261,1,170,8|0,0:0|0:0,0:0:0:0:
224,134,298520,1,8,0:0:0:0:
106,166,298692,1,0,0:0:0:0:
48,61,298863,2,0,P|100:68|134:78,1,85,0|2,0:0|0:0,0:0:0:0:
241,18,299206,2,0,P|287:42|315:63,1,85,8|0,0:0|0:0,0:0:0:0:
342,203,299549,6,0,P|244:191|227:117,1,170,2|8,0:0|0:0,0:0:0:0:
431,123,300063,2,0,P|455:197|478:290,2,170,0|2|8,0:0|0:0|0:0,0:0:0:0:
342,203,300920,5,2,0:0:0:0:
342,203,301092,1,2,0:0:0:0:
472,241,301263,1,8,0:0:0:0:
498,107,301435,1,0,0:0:0:0:
313,212,301606,2,0,L|222:200,2,85,0|2|8,0:0|0:0|0:0,0:0:0:0:
409,315,302120,1,0,0:0:0:0:
253,357,302292,6,0,P|226:319|229:198,1,170,2|8,0:0|0:0,0:0:0:0:
311,247,302806,1,0,0:0:0:0:
133,239,302978,1,0,0:0:0:0:
227,200,303149,1,2,0:0:0:0:
37,273,303320,1,0,0:0:0:0:
119,333,303492,1,8,0:0:0:0:
51,177,303663,6,0,P|40:101|41:73,2,85,2|2|8,0:0|0:0|0:0,0:0:0:0:
295,248,304178,1,0,0:0:0:0:
299,117,304349,2,0,P|344:103|387:97,1,85
150,192,304692,1,8,0:0:0:0:
195,58,304863,1,0,0:0:0:0:
380,194,305035,6,0,P|441:199|496:115,1,170,2|8,0:0|0:0,0:0:0:0:
378,22,305549,1,0,0:0:0:0:
296,175,305720,2,0,P|301:221|312:260,1,85,0|2,0:0|0:0,0:0:0:0:
397,314,306063,1,0,0:0:0:0:
493,281,306235,1,8,0:0:0:0:
297,349,306406,6,0,L|205:336,2,85,2|2|8,0:0|0:0|0:0,0:0:0:0:
127,323,306920,1,0,0:0:0:0:
211,181,307092,2,0,L|231:263,1,85,0|2,0:0|0:0,0:0:0:0:
23,350,307435,2,0,L|47:230,1,110.499994941712,8|8,0:0|0:0,0:0:0:0:
54,236,307692,1,8,0:0:0:0:
64,231,307778,6,0,P|58:160|151:130,1,170,4|8,0:1|0:0,0:0:0:0:
256,150,308292,1,0,0:0:0:0:
214,21,308463,2,0,P|162:37|118:38,1,85,0|2,0:0|0:0,0:0:0:0:
324,76,308806,2,0,P|366:80|406:93,1,85,0|8,0:0|0:0,0:0:0:0:
498,231,309149,6,0,P|409:246|325:257,1,170,2|8,0:0|0:0,0:0:0:0:
211,269,309663,1,0,0:0:0:0:
93,291,309835,2,0,L|109:378,1,85,0|2,0:0|0:0,0:0:0:0:
221,249,310178,2,0,L|205:165,1,85,8|0,0:0|0:0,0:0:0:0:
57,30,310520,6,0,P|31:93|0:202,1,170,2|8,0:0|0:0,0:0:0:0:
122,198,311035,1,0,0:0:0:0:
156,86,311206,2,0,P|203:73|247:70,1,85,0|2,0:0|0:0,0:0:0:0:
330,146,311549,1,0,0:0:0:0:
303,30,311720,1,8,0:0:0:0:
238,155,311892,5,2,0:0:0:0:
393,65,312063,1,2,0:0:0:0:
238,69,312235,1,8,0:0:0:0:
412,160,312406,1,0,0:0:0:0:
314,290,312578,2,0,P|302:247|293:205,1,85,0|2,0:0|0:0,0:0:0:0:
500,112,312920,2,0,P|492:159|459:275,1,165.749992412568,8|0,0:0|0:0,0:0:0:0:
410,337,313263,6,0,L|241:324,1,170,2|8,0:0|0:0,0:0:0:0:
144,362,313778,1,0,0:0:0:0:
70,291,313949,2,0,L|166:272,1,85,0|2,0:0|0:0,0:0:0:0:
258,254,314292,1,0,0:0:0:0:
94,192,314463,6,0,P|63:152|87:37,1,170,8|2,0:0|0:0,0:0:0:0:
224,27,314978,2,0,P|220:75|213:117,1,85,8|0,0:0|0:0,0:0:0:0:
94,192,315320,1,0,0:0:0:0:
140,86,315492,1,2,0:0:0:0:
274,187,315663,2,0,L|363:172,1,85,8|0,0:0|0:0,0:0:0:0:
499,60,316006,6,0,P|436:59|321:32,1,170,2|8,0:0|0:0,0:0:0:0:
247,93,316520,1,0,0:0:0:0:
375,255,316692,2,0,P|364:210|356:164,2,85,0|2|0,0:0|0:0|0:0,0:0:0:0:
472,366,317206,6,0,P|486:303|491:182,1,170,8|2,0:0|0:0,0:0:0:0:
290,243,317720,2,0,L|396:258,1,85,8|0,0:0|0:0,0:0:0:0:
238,338,318063,2,0,L|153:326,1,85,0|2,0:0|0:0,0:0:0:0:
22,357,318406,1,8,0:0:0:0:
150,225,318578,1,8,0:0:0:0:
150,225,318663,1,8,0:0:0:0:
150,225,318749,6,0,L|127:31,1,170,4|8,0:1|0:0,0:0:0:0:
129,56,319263,1,0,0:0:0:0:
32,22,319435,2,0,P|27:68|19:109,1,85,0|2,0:0|0:0,0:0:0:0:
74,227,319778,2,0,P|96:191|114:152,1,85,0|8,0:0|0:0,0:0:0:0:
300,29,320120,6,0,P|246:47|117:60,1,170,2|8,0:0|0:0,0:0:0:0:
231,157,320635,1,0,0:0:0:0:
366,163,320806,2,0,P|332:134|297:114,1,85,0|2,0:0|0:0,0:0:0:0:
465,28,321149,2,0,P|436:62|416:97,1,85,8|0,0:0|0:0,0:0:0:0:
488,343,321492,6,0,P|480:299|436:155,1,170,2|8,0:0|0:0,0:0:0:0:
319,295,322006,1,0,0:0:0:0:
262,225,322178,1,0,0:0:0:0:
400,309,322349,1,2,0:0:0:0:
238,304,322520,1,0,0:0:0:0:
92,375,322692,1,8,0:0:0:0:
1,277,322863,6,0,P|47:259|165:226,1,170,2|8,0:0|0:0,0:0:0:0:
262,225,323378,1,0,0:0:0:0:
70,129,323549,2,0,L|90:227,1,85,0|2,0:0|0:0,0:0:0:0:
240,333,323892,2,0,L|262:220,1,110.499994941712,8|0,0:0|0:0,0:0:0:0:
205,25,324235,6,0,P|173:86|196:202,1,170,2|8,0:0|0:0,0:0:0:0:
391,133,324749,1,0,0:0:0:0:
364,59,324920,2,0,P|316:38|266:31,1,85,0|2,0:0|0:0,0:0:0:0:
184,183,325263,1,0,0:0:0:0:
378,217,325435,6,0,P|421:215|468:105,1,170,8|2,0:0|0:0,0:0:0:0:
285,160,325949,2,0,L|304:257,1,85,8|0,0:0|0:0,0:0:0:0:
426,332,326292,1,0,0:0:0:0:
286,270,326463,1,2,0:0:0:0:
148,338,326635,2,0,P|196:355|247:369,1,85,8|0,0:0|0:0,0:0:0:0:
40,358,326978,6,0,P|45:324|56:183,1,170,2|8,0:0|0:0,0:0:0:0:
163,266,327492,1,0,0:0:0:0:
132,185,327663,2,0,P|127:140|126:87,1,85,0|2,0:0|0:0,0:0:0:0:
43,48,328006,1,0,0:0:0:0:
201,132,328178,6,0,P|255:147|331:63,1,170,8|2,0:0|0:0,0:0:0:0:
245,59,328692,1,8,0:0:0:0:
393,116,328863,1,0,0:0:0:0:
393,116,329035,1,0,0:0:0:0:
245,59,329206,1,2,0:0:0:0:
324,219,329378,1,8,0:0:0:0:
143,333,329549,1,8,0:0:0:0:
143,333,329635,1,8,0:0:0:0:
143,333,329720,6,0,P|135:303|124:88,1,237.999992736817
190,46,330578,1,0,0:0:0:0:
258,92,330749,2,0,P|272:129|280:169,1,59.4999981842042,0|0,0:0|0:0,0:0:0:0:
200,192,331092,6,0,B|330:147|299:251|433:197,1,237.999992736817,0|0,0:0|0:0,0:0:0:0:
479,132,331949,2,0,P|491:91|493:70,2,59.4999981842042,0|0|0,0:0|0:0|0:0,0:0:0:0:
230,115,332463,6,0,P|289:39|410:86,1,237.999992736817,0|0,0:0|0:0,0:0:0:0:
396,163,333320,1,0,0:0:0:0:
396,163,333492,2,0,P|345:152|320:142,1,59.4999981842042,0|0,0:0|0:0,0:0:0:0:
268,311,333835,6,0,P|306:289|511:223,1,237.999992736817,0|0,0:0|0:0,0:0:0:0:
497,305,334692,1,0,0:0:0:0:
421,333,334863,2,0,P|391:346|363:361,1,59.4999981842042,0|0,0:0|0:0,0:0:0:0:
256,192,335206,12,0,337949,0:0:0:0:
265,357,340692,6,0,P|261:302|256:103,1,237.999992736817,0|0,0:0|0:0,0:0:0:0:
295,25,341549,1,0,0:0:0:0:
194,28,341720,2,0,L|120:39,1,59.4999981842042,0|0,0:0|0:0,0:0:0:0:
34,214,342063,6,0,P|58:163|224:185,1,237.999992736817,0|0,0:0|0:0,0:0:0:0:
261,261,342920,1,0,0:0:0:0:
167,301,343092,2,0,P|158:259|155:232,1,59.4999981842042,0|0,0:0|0:0,0:0:0:0:
77,347,343435,6,0,P|66:298|44:98,1,237.999992736817
44,111,344292,1,0,0:0:0:0:
125,51,344463,2,0,P|169:51|210:57,1,59.4999981842042,0|0,0:0|0:0,0:0:0:0:
331,57,344806,6,0,P|288:43|176:184,1,237.999992736817,0|0,0:0|0:0,0:0:0:0:
283,122,345663,1,0,0:0:0:0:
237,192,345835,2,0,P|226:227|221:257,1,59.4999981842042,0|0,0:0|0:0,0:0:0:0:
256,192,346178,12,0,351492,0:0:0:0:
255,191,351663,5,4,0:0:0:0:
331,162,351835,1,2,0:0:0:0:
359,238,352006,1,0,0:0:0:0:
283,269,352178,1,0,0:0:0:0:
283,269,352349,6,0,L|204:260,2,68,2|0|0,0:0|0:0|0:0,0:0:0:0:
255,191,352863,2,0,L|176:182,2,68,2|0|0,0:0|0:0|0:0,0:0:0:0:
235,115,353378,2,0,L|156:106,2,68,2|0|0,0:0|0:0|0:0,0:0:0:0:
331,38,353892,5,2,0:0:0:0:
353,123,354063,1,2,0:0:0:0:
375,208,354235,1,2,0:0:0:0:
446,311,354406,6,0,P|482:295|516:287,1,68,0|0,1:0|0:0,0:0:0:0:
375,208,354749,2,0,P|342:199|311:185,1,68,2|0,0:0|0:0,0:0:0:0:
446,129,355092,5,2,0:0:0:0:
477,218,355263,1,0,0:0:0:0:
388,253,355435,1,0,0:0:0:0:
253,309,355606,1,2,0:0:0:0:
222,220,355777,1,0,0:0:0:0:
311,185,355949,1,0,0:0:0:0:
253,309,356120,1,2,0:0:0:0:
158,292,356292,1,0,0:0:0:0:
65,271,356463,1,0,0:0:0:0:
124,150,356635,6,0,L|141:234,2,68,2|2|2,0:0|0:0|0:0,0:0:0:0:
281,101,357149,5,0,1:0:0:0:
309,178,357320,1,2,0:0:0:0:
195,104,357492,1,0,0:0:0:0:
223,27,357663,1,0,0:0:0:0:
369,116,357835,6,0,P|409:105|448:102,2,68,2|0|0,0:0|0:0|0:0,0:0:0:0:
244,222,358349,2,0,P|204:211|165:208,2,68,2|0|0,0:0|0:0|0:0,0:0:0:0:
384,296,358863,2,0,P|424:285|463:282,2,68,2|0|0,0:0|0:0|0:0,0:0:0:0:
297,338,359378,1,2,0:0:0:0:
364,212,359549,1,2,0:0:0:0:
226,175,359720,1,2,0:0:0:0:
154,299,359892,5,0,1:0:0:0:
154,299,360063,1,2,0:0:0:0:
69,272,360235,1,0,0:0:0:0:
69,272,360406,1,0,0:0:0:0:
132,210,360578,6,0,P|140:172|146:132,2,68,2|0|0,0:0|0:0|0:0,0:0:0:0:
59,151,361092,2,0,P|51:113|45:73,2,68,2|0|0,0:0|0:0|0:0,0:0:0:0:
211,88,361606,1,2,0:0:0:0:
127,98,361778,2,0,P|134:53|138:28,1,68
205,172,362120,1,2,0:0:0:0:
201,192,362292,1,2,0:0:0:0:
197,212,362463,1,2,0:0:0:0:
73,286,362635,6,0,L|58:219,1,68,0|2,1:0|0:0,0:0:0:0:
177,297,362978,2,0,L|192:364,1,68
289,258,363320,6,0,L|274:191,2,68,2|0|0,0:0|0:0|0:0,0:0:0:0:
393,269,363835,2,0,L|408:336,2,68,2|0|0,0:0|0:0|0:0,0:0:0:0:
470,212,364349,1,2,0:0:0:0:
393,238,364520,1,0,0:0:0:0:
319,202,364692,1,0,0:0:0:0:
267,86,364863,1,2,0:0:0:0:
344,60,365034,1,2,0:0:0:0:
418,96,365206,1,2,0:0:0:0:
231,160,365378,6,0,P|184:157|156:142,1,68,0|2,1:0|0:0,0:0:0:0:
38,87,365720,2,0,P|85:90|113:105,1,68
96,241,366063,6,0,P|78:193|72:163,2,68,2|0|0,0:0|0:0|0:0,0:0:0:0:
167,303,366578,2,0,P|185:255|191:225,2,68,2|0|0,0:0|0:0|0:0,0:0:0:0:
99,349,367092,1,2,0:0:0:0:
99,349,367263,1,0,0:0:0:0:
99,349,367435,1,0,0:0:0:0:
188,238,367606,1,2,0:0:0:0:
269,249,367778,1,2,0:0:0:0:
349,262,367949,1,2,0:0:0:0:
238,159,368120,5,0,1:0:0:0:
238,159,368292,2,0,P|231:120|242:88,2,68,2|0|0,0:0|0:0|0:0,0:0:0:0:
303,25,368806,6,0,L|220:12,2,68,2|0|0,0:0|0:0|0:0,0:0:0:0:
413,165,369320,1,2,0:0:0:0:
330,104,369492,1,0,0:0:0:0:
445,74,369663,1,0,0:0:0:0:
322,194,369835,2,0,P|310:244|305:271,2,68,2|0|0,0:0|0:0|0:0,0:0:0:0:
413,165,370349,1,2,0:0:0:0:
332,155,370520,1,2,0:0:0:0:
250,145,370692,1,2,0:0:0:0:
30,209,370863,6,0,P|14:162|31:73,1,136,2|0,0:0|0:0,0:0:0:0:
101,41,371378,1,0,0:0:0:0:
185,167,371549,6,0,P|150:176|111:179,2,68,2|0|0,0:0|0:0|0:0,0:0:0:0:
252,107,372063,2,0,P|238:153|219:241,1,136,2|0,0:0|0:0,0:0:0:0:
160,296,372578,2,0,P|126:288|94:285,2,68,2|0|0,0:0|0:0|0:0,0:0:0:0:
240,319,373092,1,2,0:0:0:0:
143,213,373263,1,2,0:0:0:0:
276,161,373435,1,2,0:0:0:0:
