osu file format v14

[General]
AudioFilename: audio.mp3
AudioLeadIn: 0
PreviewTime: 59172
Countdown: 0
SampleSet: Soft
StackLeniency: 0.7
Mode: 0
LetterboxInBreaks: 0
WidescreenStoryboard: 1

[Editor]
Bookmarks: 15530,28522,30648,45766,59231,60884,72223,76002,87341,91121
DistanceSpacing: 0.1
BeatDivisor: 4
GridSize: 32
TimelineZoom: 2.2

[Metadata]
Title:Wake Up, Get Up, Get Out There -Opening Movie Version-
TitleUnicode:Wake Up, Get Up, Get Out There -Opening Movie Version-
Artist:Meguro Shoji feat. Lyn
ArtistUnicode:目黒将司 feat. Lyn
Creator:Icekalt
Version:Normal
Source:Persona 5
Tags:jazz video game ost english ps4 ps3 play celerih mir station atlus games op 稲泉りん Inaizumi p5 ペルソナ5 original soundtrack
BeatmapID:2260156
BeatmapSetID:1079913

[Difficulty]
HPDrainRate:5
CircleSize:3
OverallDifficulty:5
ApproachRate:6
SliderMultiplier:1.3
SliderTickRate:1

[Events]
//Background and Video events
0,0,"p5 1.jpg",0,0
//Break Periods
//Storyboard Layer 0 (Background)
//Storyboard Layer 1 (Fail)
//Storyboard Layer 2 (Pass)
//Storyboard Layer 3 (Foreground)
//Storyboard Layer 4 (Overlay)
//Storyboard Sound Samples

[TimingPoints]
422,472.44094488189,4,2,0,40,1,0
3138,-100,4,2,0,5,0,0
3493,-100,4,2,0,40,0,0
7627,-100,4,2,0,5,0,0
7745,-100,4,2,0,40,0,0
7981,-100,4,2,0,50,0,0
10697,-100,4,2,0,5,0,0
11052,-100,4,2,0,50,0,0
15422,-100,4,2,1,65,0,0
16662,-100,4,2,1,5,0,0
16721,-100,4,2,1,65,0,0
24221,-100,4,2,1,5,0,0
24280,-100,4,2,1,65,0,0
28532,-100,4,2,1,35,0,0
29713,-100,4,2,1,60,0,0
30658,-100,4,2,1,55,0,0
45776,-100,4,2,1,60,0,0
58768,-100,4,2,1,70,0,0
58886,-100,4,2,1,5,0,0
59241,-100,4,2,1,60,0,0
60894,-100,4,2,1,70,0,0
72233,-100,4,2,1,65,0,0
76012,-100,4,2,1,70,0,0
87351,-100,4,2,1,65,0,0
90186,-100,4,2,1,70,0,0

[Colours]
Combo1 : 228,48,52
Combo2 : 202,202,202
Combo3 : 253,107,100
Combo4 : 143,143,143

[HitObjects]
122,164,422,6,0,L|106:61,2,97.4999999999999,2|2|2,3:2|0:0|3:2,0:0:0:0:
247,39,1603,2,0,L|242:92,1,32.5,2|0,0:0|0:0,0:0:0:0:
234,221,2312,1,4,0:3:0:0:
459,92,3020,5,2,0:0:0:0:
374,195,3493,2,0,P|417:253|416:319,1,130,2|0,0:0|0:0,0:0:0:0:
354,372,4201,2,0,L|249:383,2,97.5,2|2|2,3:2|0:0|3:2,0:0:0:0:
164,275,5383,6,0,L|168:243,2,32.5,2|2|2,0:0|0:0|0:0,0:0:0:0:
83,316,5855,2,0,L|48:112,1,195,2|0,0:2|0:0,0:0:0:0:
84,39,6800,1,2,0:0:0:0:
217,120,7272,2,0,B|292:132|274:79|358:88,1,130,2|2,2:0|0:0,0:0:0:0:
402,152,7981,6,0,L|392:272,2,97.5,2|2|2,3:2|0:2|3:2,0:0:0:0:
249,252,9162,2,0,L|188:261,1,32.5,2|2,0:0|0:0,0:0:0:0:
135,146,9634,1,0,0:0:0:0:
135,146,9871,1,0,3:2:0:0:
71,316,10343,1,0,1:0:0:0:
13,245,10579,2,0,L|4:189,1,32.5,2|0,0:0|0:0,0:0:0:0:
48,82,11052,2,0,P|111:92|179:129,1,130,2|0,0:0|0:0,0:0:0:0:
244,70,11760,6,0,L|350:62,2,97.5,0|2|2,3:2|0:2|3:2,0:2:0:0:
334,200,12942,2,0,L|384:212,2,32.5,2|2|2,0:0|0:0|0:0,0:0:0:0:
282,275,13414,2,0,P|274:173|231:86,1,195,2|0,0:2|0:0,0:2:0:0:
63,28,14595,2,0,L|55:103,1,65
14,174,15068,1,10,2:3:0:0:
91,338,15540,6,0,P|37:315|-4:315,2,97.5,0|2|2,1:0|3:2|0:0,0:0:0:0:
174,175,16721,2,0,L|164:133,1,32.5,2|2,3:2|2:0,0:0:0:0:
262,240,17194,2,0,L|252:282,2,32.5,2|2|0,3:2|0:0|3:0,0:0:0:0:
341,196,17666,1,0,3:0:0:0:
400,264,17902,1,4,3:0:0:0:
476,215,18138,2,0,P|484:177|479:106,1,97.5,2|0,3:2|0:0,0:0:0:0:
409,63,18729,1,2,3:0:0:0:
324,97,18965,1,2,0:0:0:0:
198,43,19320,6,0,L|87:29,2,97.5,0|2|2,1:0|3:0|3:2,0:0:0:0:
188,51,20146,2,0,P|154:131|163:228,1,162.5,2|0,2:0|3:2,0:0:0:0:
230,257,20973,2,0,B|307:267|291:215|380:233,1,130,4|0,0:0|3:0,0:0:0:0:
435,271,21682,1,4,3:0:0:0:
502,209,21918,1,0,3:2:0:0:
491,118,22154,2,0,P|415:97|384:96,1,97.5,0|2,1:2|3:2,0:0:0:0:
342,22,22745,1,2,3:2:0:0:
225,95,23099,6,0,L|116:88,2,97.5,0|2|2,1:0|3:2|0:0,0:0:0:0:
122,245,24280,2,0,L|112:287,1,32.5,2|2,3:2|0:0,0:0:0:0:
251,277,24753,2,0,L|241:319,2,32.5,2|2|0,3:2|0:0|3:0,0:0:0:0:
326,225,25225,1,0,3:0:0:0:
405,268,25461,1,4,3:0:0:0:
469,203,25697,2,0,L|450:96,1,97.5,2|0,3:2|0:0,0:0:0:0:
362,90,26288,1,2,3:2:0:0:
303,20,26524,1,2,3:2:0:0:
186,90,26879,6,0,P|137:113|72:122,2,97.5,0|2|0,1:0|3:2|1:0,0:0:0:0:
198,95,27705,2,0,P|164:175|173:272,1,162.5,2|0,3:2|3:0,0:0:0:0:
236,306,28532,2,0,B|353:280|333:361|442:324,1,195,6|0,0:0|0:0,0:0:0:0:
510,169,29713,2,0,L|501:102,2,65,8|8|8,0:0|0:0|0:0,0:0:0:0:
424,200,30422,1,0,3:0:0:0:
351,145,30658,6,0,P|316:131|265:131,1,65,4|0,3:0|0:2,0:0:0:0:
230,198,31131,2,0,L|78:224,1,130,10|0,0:0|3:0,0:0:0:0:
33,160,31839,2,0,P|40:91|109:107,1,130,2|0,3:2|0:0,0:0:0:0:
230,198,32784,6,0,P|248:121|266:83,2,97.5,2|2|2,3:2|3:2|3:2,0:0:0:0:
306,248,33729,2,0,P|346:240|397:247,1,65,0|8,3:0|0:0,0:0:0:0:
459,255,34201,1,2,3:2:0:0:
459,255,34438,6,0,P|491:209|469:130,1,130,4|10,3:0|0:0,0:0:0:0:
329,34,35383,2,0,L|312:109,1,65,0|0,3:0|3:0,0:0:0:0:
332,186,35855,1,8,0:0:0:0:
201,148,36209,2,0,P|183:193|182:265,1,97.5,2|2,3:2|0:0,0:0:0:0:
201,329,36800,1,8,0:2:0:0:
318,189,37272,2,0,P|385:161|446:176,1,130,0|8,3:0|0:0,0:0:0:0:
487,249,37981,1,2,3:2:0:0:
487,249,38217,6,0,L|485:343,1,65,4|0,2:0|0:0,0:0:0:0:
422,379,38690,2,0,L|263:370,1,130,10|0,0:0|3:0,0:0:0:0:
241,296,39398,2,0,P|234:227|165:243,1,130,2|0,3:2|0:0,0:0:0:0:
34,120,40343,6,0,P|52:43|70:5,2,97.5,2|2|0,3:2|3:2|3:0,0:0:0:0:
121,145,41288,2,0,P|142:120|181:96,1,65,0|8,3:0|0:0,0:0:0:0:
261,124,41760,1,0,3:2:0:0:
261,124,41997,6,0,P|295:175|359:168,1,130,4|8,3:0|0:0,0:0:0:0:
218,287,42942,2,0,L|138:297,1,65,0|0,3:0|3:0,0:0:0:0:
83,236,43414,1,8,0:0:0:0:
181,141,43768,2,0,P|163:96|162:24,1,97.5,2|2,3:2|2:0,0:0:0:0:
242,10,44359,1,8,0:0:0:0:
322,173,44831,2,0,P|384:136|409:78,1,130,0|8,3:0|0:0,0:0:0:0:
494,115,45540,1,0,3:0:0:0:
494,115,45776,6,0,B|485:172|485:172|498:188|498:188|488:251,1,130,2|8,1:2|0:0,0:0:0:0:
339,341,46721,2,0,L|328:274,2,65,2|0|8,3:2|0:0|3:2,0:0:0:0:
252,369,47430,1,0,3:3:0:0:
252,369,47666,2,0,P|196:313|161:298,1,97.5,4|2,3:0|3:2,0:0:0:0:
96,341,48257,1,2,3:2:0:0:
36,272,48493,1,2,3:2:0:0:
107,155,48847,5,2,1:2:0:0:
69,72,49083,1,8,0:0:0:0:
238,5,49556,2,0,B|315:36|315:36|318:96,1,130,2|8,3:2|0:0,0:0:0:0:
362,264,50501,1,4,3:0:0:0:
362,264,50737,2,0,L|449:274,2,65,0|2|0,0:0|3:2|3:0,0:0:0:0:
295,325,51445,2,0,P|245:327|181:271,1,130,0|8,3:0|0:0,0:0:0:0:
147,196,52154,1,0,3:0:0:0:
147,196,52390,2,0,L|25:221,2,97.5,2|2|2,3:2|3:2|3:2,0:0:0:0:
221,143,53335,6,0,B|212:86|212:86|225:70|225:70|215:7,1,130,2|8,1:2|0:0,0:0:0:0:
369,118,54280,2,0,L|444:138,2,65,4|0|8,3:0|0:0|3:2,0:0:0:0:
305,183,54989,1,0,3:0:0:0:
305,183,55225,2,0,P|271:227|209:215,1,97.5,4|2,3:0|3:2,0:0:0:0:
156,178,55816,1,2,3:2:0:0:
70,208,56052,1,2,3:2:0:0:
59,343,56406,5,2,1:2:0:0:
142,379,56642,1,8,0:0:0:0:
236,222,57115,2,0,B|282:234|282:234|294:319,1,130,2|8,3:2|0:0,0:0:0:0:
457,236,58060,6,0,B|415:162|495:150|479:66|406:64,1,195,0|2,3:0|1:0,0:0:0:0:
243,44,59241,6,0,L|128:66,1,97.5
38,144,59949,2,0,B|31:91|31:91|-11:43,2,97.5,0|0|0,0:0|0:0|3:2,0:0:0:0:
86,221,60894,6,0,L|199:230,1,97.5,2|2,1:2|3:2,0:0:0:0:
285,137,61603,2,0,L|272:81,1,32.5,2|2,3:2|0:0,0:0:0:0:
399,167,62075,2,0,L|412:111,2,32.5,2|2|8,3:2|0:0|0:0,0:0:0:0:
456,238,62548,2,0,P|445:277|443:326,1,65,0|4,3:0|3:0,0:0:0:0:
378,366,63020,6,0,P|315:330|233:318,1,130,2|2,3:2|3:2,0:0:0:0:
179,362,63729,2,0,P|201:297|212:211,1,130,4|8,3:0|0:0,0:0:0:0:
166,156,64438,1,0,3:0:0:0:
205,73,64674,2,0,P|251:28|286:83,1,130,2|0,1:2|0:0,0:0:0:0:
356,125,65383,2,0,L|355:166,1,32.5,2|2,3:2|0:0,0:0:0:0:
474,88,65855,1,2,3:2:0:0:
474,88,66091,2,0,P|498:161|482:236,1,130,10|4,0:0|3:0,0:0:0:0:
414,261,66800,6,0,P|446:290|479:337,1,97.5,0|0,3:0|3:0,0:0:0:0:
341,319,67508,2,0,P|288:320|234:340,2,97.5,4|2|0,3:0|3:2|3:0,0:0:0:0:
413,262,68453,6,0,P|403:208|367:169,1,97.5,4|2,2:0|3:2,0:0:0:0:
273,86,69162,2,0,L|267:36,1,32.5,2|2,3:2|0:0,0:0:0:0:
146,114,69634,2,0,L|152:64,2,32.5,2|2|8,3:2|0:0|0:0,0:0:0:0:
80,178,70107,1,0,3:0:0:0:
121,258,70343,6,0,B|199:250|177:284|266:282,1,130,4|8,3:0|0:0,0:0:0:0:
322,231,71052,2,0,L|460:216,1,130,2|2,3:2|3:2,0:0:0:0:
508,287,71760,1,8,0:0:0:0:
511,104,72233,6,0,P|476:62|416:106,1,130,2|8,1:2|0:0,0:0:0:0:
359,162,72942,2,0,L|350:205,1,32.5,2|2,3:2|0:0,0:0:0:0:
230,132,73414,2,0,L|222:61,2,65,2|8|0,3:2|0:0|3:0,0:0:0:0:
152,176,74123,5,4,2:0:0:0:
152,176,74359,2,0,P|140:227|111:278,1,97.5,0|0,1:0|0:0,0:0:0:0:
227,349,75068,2,0,P|259:325|320:303,2,97.5,2|2|2,3:2|3:2|0:0,0:0:0:0:
136,358,76012,6,0,L|124:233,1,97.5,2|2,1:2|3:2,0:0:0:0:
48,148,76721,2,0,L|35:92,1,32.5,2|2,3:2|0:0,0:0:0:0:
178,122,77193,2,0,L|191:66,2,32.5,2|2|8,3:0|0:0|0:0,0:0:0:0:
218,203,77666,2,0,P|244:225|301:234,1,65,0|4,3:0|3:0,0:0:0:0:
354,195,78138,6,0,L|503:214,1,130,2|2,3:2|3:2,0:0:0:0:
505,122,78847,2,0,P|498:86|469:22,2,97.5,4|0|0,3:0|0:0|3:0,0:0:0:0:
482,211,79792,2,0,P|449:263|373:260,1,130,2|0,1:2|0:0,0:0:0:0:
324,199,80501,2,0,L|329:165,1,32.5,2|2,3:2|0:0,0:0:0:0:
202,210,80973,1,0,3:2:0:0:
202,210,81209,2,0,P|178:283|194:358,1,130,8|4,0:0|3:0,0:0:0:0:
105,380,81918,6,0,P|77:340|41:306,1,97.5,0|0,0:0|3:0,0:0:0:0:
105,186,82626,2,0,P|56:174|15:143,2,97.5,2|2|0,3:2|3:2|3:0,0:0:0:0:
189,151,83571,6,0,P|199:97|235:58,1,97.5,4|2,2:0|3:2,0:0:0:0:
315,167,84280,2,0,L|321:217,1,32.5,2|2,3:2|0:0,0:0:0:0:
409,97,84752,2,0,L|403:47,2,32.5,2|2|8,3:2|0:0|0:0,0:0:0:0:
485,147,85225,1,0,3:0:0:0:
485,147,85461,6,0,B|487:225|455:201|450:289,1,130,4|8,3:0|0:0,0:0:0:0:
375,320,86170,2,0,P|308:295|237:305,1,130,2|2,3:2|3:2,0:0:0:0:
193,370,86878,1,8,0:0:0:0:
64,241,87351,6,0,L|76:85,1,130,2|8,1:2|0:0,0:0:0:0:
148,58,88060,2,0,L|142:15,1,32.5,2|2,3:2|0:0,0:0:0:0:
228,138,88532,2,0,L|220:209,2,65,0|8|0,3:2|0:0|3:0,0:0:0:0:
302,85,89241,5,2,3:2:0:0:
333,0,89477,2,0,P|405:14|423:72,1,130,0|2,3:0|3:2,0:0:0:0:
464,142,90186,2,0,P|447:166|445:211,2,65,2|2|8,3:2|3:2|3:0,0:0:0:0:
292,203,91131,6,0,B|283:156|283:156|291:144|291:144|279:80,2,97.5,2|0|2,1:2|3:0|3:2,0:0:0:0:
