osu file format v14

[General]
AudioFilename: audio.mp3
AudioLeadIn: 0
PreviewTime: 59172
Countdown: 0
SampleSet: Soft
StackLeniency: 0.7
Mode: 0
LetterboxInBreaks: 0
WidescreenStoryboard: 1

[Editor]
Bookmarks: 15530,28522,30648,45766,59231,60884,72223,76002,87341,91121
DistanceSpacing: 0.1
BeatDivisor: 8
GridSize: 32
TimelineZoom: 2.2

[Metadata]
Title:Wake Up, Get Up, Get Out There -Opening Movie Version-
TitleUnicode:Wake Up, Get Up, Get Out There -Opening Movie Version-
Artist:Meguro Shoji feat. Lyn
ArtistUnicode:目黒将司 feat. Lyn
Creator:Icekalt
Version:Light Insane
Source:Persona 5
Tags:jazz video game ost english ps4 ps3 play celerih mir station atlus games op 稲泉りん Inaizumi p5 ペルソナ5 original soundtrack
BeatmapID:2259415
BeatmapSetID:1079913

[Difficulty]
HPDrainRate:5
CircleSize:3.5
OverallDifficulty:7
ApproachRate:8
SliderMultiplier:1.8
SliderTickRate:1

[Events]
//Background and Video events
0,0,"p5 1.jpg",0,0
//Break Periods
//Storyboard Layer 0 (Background)
//Storyboard Layer 1 (Fail)
//Storyboard Layer 2 (Pass)
//Storyboard Layer 3 (Foreground)
//Storyboard Layer 4 (Overlay)
//Storyboard Sound Samples

[TimingPoints]
422,472.44094488189,4,2,0,40,1,0
3020,-200,4,2,0,40,0,0
3138,-200,4,2,0,5,0,0
3493,-133.333333333333,4,2,0,40,0,0
4201,-100,4,2,0,40,0,0
5855,-200,4,2,0,40,0,0
7627,-200,4,2,0,5,0,0
7745,-200,4,2,0,40,0,0
7981,-100,4,2,0,50,0,0
10579,-200,4,2,0,50,0,0
10697,-200,4,2,0,5,0,0
11052,-133.333333333333,4,2,0,50,0,0
11760,-100,4,2,0,50,0,0
13414,-200,4,2,0,50,0,0
15422,-200,4,2,1,65,0,0
15540,-90.9090909090909,4,2,1,65,0,0
16662,-90.9090909090909,4,2,1,5,0,0
16721,-90.9090909090909,4,2,1,65,0,0
20973,-200,4,2,1,65,0,0
21682,-90.9090909090909,4,2,1,65,0,0
24221,-90.9090909090909,4,2,1,5,0,0
24280,-90.9090909090909,4,2,1,65,0,0
28532,-200,4,2,1,35,0,0
29713,-200,4,2,1,60,0,0
30658,-100,4,2,1,55,0,0
45776,-83.3333333333333,4,2,1,60,0,0
58768,-83.3333333333333,4,2,1,70,0,0
58886,-83.3333333333333,4,2,1,5,0,0
59241,-133.333333333333,4,2,1,60,0,0
60422,-100,4,2,1,60,0,0
60894,-76.9230769230769,4,2,1,70,0,0
72233,-76.9230769230769,4,2,1,65,0,0
76012,-76.9230769230769,4,2,1,70,0,0
87351,-76.9230769230769,4,2,1,65,0,0
90186,-76.9230769230769,4,2,1,70,0,0

[Colours]
Combo1 : 228,48,52
Combo2 : 202,202,202
Combo3 : 253,107,100
Combo4 : 143,143,143

[HitObjects]
121,239,422,6,0,L|100:74,2,135,2|2|2,3:2|0:0|3:2,0:0:0:0:
187,297,1603,1,2,0:0:0:0:
186,308,1721,1,2,0:0:0:0:
272,275,2312,1,4,0:3:0:0:
235,122,3020,6,0,P|237:108|258:75,1,45,2|0,0:0|0:0,0:0:0:0:
208,208,3493,2,0,P|190:133|147:83,1,135,2|0,0:0|0:0,0:0:0:0:
323,201,4201,6,0,L|466:222,2,135,2|2|2,3:2|0:0|3:2,0:0:0:0:
242,256,5383,1,2,0:0:0:0:
244,267,5501,1,2,0:0:0:0:
246,278,5619,1,2,0:0:0:0:
174,370,5855,2,0,P|221:331|343:332,1,180,2|2,0:2|0:0,0:0:0:0:
105,305,7272,2,0,B|101:266|101:266|91:259|91:259|86:220,1,90,2|2,2:0|0:0,0:0:0:0:
193,56,7981,6,0,P|166:83|161:152,1,90,2|0,3:2|3:2,0:0:0:0:
173,150,8335,2,0,L|278:141,1,90,2|0,0:2|3:2,0:0:0:0:
279,159,8690,1,2,3:2:0:0:
362,112,9162,1,2,0:0:0:0:
365,102,9280,1,2,0:0:0:0:
386,204,9871,1,0,3:2:0:0:
478,164,10225,1,0,0:0:0:0:
481,154,10343,1,0,1:0:0:0:
452,281,10579,6,0,P|447:306|452:341,1,45,2|0,0:0|0:0,0:0:0:0:
327,294,11052,2,0,P|376:309|439:383,1,135.000005149841,2|0,0:0|0:0,0:0:0:0:
276,197,11760,6,0,L|293:53,2,135.000005149841,0|2|2,3:2|0:2|3:2,0:2:0:0:
196,258,12942,1,2,0:0:0:0:
197,269,13060,1,2,0:0:0:0:
200,280,13178,1,2,0:0:0:0:
293,319,13414,2,0,B|183:287|195:361|62:341,1,225,2|0,0:2|0:0,0:2:0:0:
25,273,14831,1,0,0:0:0:0:
119,123,15068,1,10,2:3:0:0:
127,104,15540,6,0,P|174:83|249:89,1,99.0000030212403,0|0,1:0|3:0,0:0:0:0:
251,123,15894,2,0,P|263:163|322:166,1,99.0000030212403,2|0,3:2|3:0,0:0:0:0:
367,105,16249,2,0,L|347:256,1,148.50000453186,2|0,0:0|0:0,0:0:0:0:
253,298,16721,1,2,3:2:0:0:
233,243,16839,2,0,L|241:313,1,49.5000015106201,2|8,2:0|2:0,0:0:0:0:
114,338,17194,1,2,3:2:0:0:
134,283,17312,2,0,L|126:353,1,49.5000015106201,2|0,0:0|3:0,0:0:0:0:
42,267,17666,1,0,3:0:0:0:
102,188,17902,5,4,3:0:0:0:
97,174,18020,2,0,L|36:168,2,49.5000015106202,0|2|0,0:0|3:2|0:0,0:0:0:0:
146,105,18375,1,0,1:2:0:0:
140,91,18493,1,0,0:0:0:0:
228,156,18729,1,2,3:0:0:0:
285,77,18965,1,2,0:0:0:0:
496,215,19320,6,0,P|449:194|374:200,1,99.0000030212403,0|0,1:0|3:0,0:0:0:0:
326,228,19674,2,0,P|342:271|389:275,1,99.0000030212403,2|0,3:0|0:0,0:0:0:0:
478,324,20028,1,2,3:2:0:0:
478,342,20146,2,0,P|409:374|314:380,1,148.50000453186,2|0,2:0|0:0,0:0:0:0:
259,318,20737,1,0,3:2:0:0:
142,377,20973,6,0,B|136:337|136:337|142:328|142:328|132:272,1,90,4|0,0:0|3:0,0:0:0:0:
187,220,21682,1,4,3:0:0:0:
200,208,21800,2,0,L|256:207,2,49.5000015106202,0|0|0,0:0|3:2|0:0,0:0:0:0:
133,151,22154,1,0,1:2:0:0:
129,137,22272,1,2,3:0:0:0:
181,43,22508,1,2,3:2:0:0:
260,112,22745,2,0,P|316:115|377:74,1,99.0000030212403,2|0,3:2|0:0,0:0:0:0:
364,80,23099,6,0,L|491:91,1,99.0000030212403,0|0,1:0|3:2,0:0:0:0:
473,173,23453,2,0,L|355:209,1,99.0000030212403,2|0,3:2|3:2,0:0:0:0:
363,282,23808,2,0,P|338:233|232:260,1,148.50000453186,2|0,0:0|0:0,0:0:0:0:
180,335,24280,1,2,3:2:0:0:
160,280,24398,2,0,L|168:350,1,49.5000015106201,2|8,0:0|0:0,0:0:0:0:
63,363,24753,1,2,3:2:0:0:
43,308,24871,2,0,L|51:378,1,49.5000015106201,2|0,0:0|3:0,0:0:0:0:
86,226,25225,1,0,3:0:0:0:
23,149,25461,5,4,3:0:0:0:
28,135,25579,2,0,L|89:129,2,49.5000015106202,0|2|0,0:0|3:2|0:0,0:0:0:0:
0,57,25934,1,0,1:0:0:0:
6,43,26052,1,0,0:0:0:0:
115,17,26288,1,2,3:2:0:0:
206,81,26524,1,2,3:2:0:0:
395,28,26879,6,0,P|336:49|322:108,1,99.0000030212403,0|0,1:0|3:2,0:0:0:0:
368,147,27233,2,0,L|376:261,1,99.0000030212403,2|0,3:2|3:2,0:0:0:0:
341,337,27587,1,0,1:0:0:0:
336,352,27705,2,0,P|272:352|293:280,1,148.50000453186,2|0,3:2|0:0,0:0:0:0:
232,199,28296,1,0,3:0:0:0:
141,291,28532,6,0,B|66:298|88:245|3:255,1,135,6|0,0:0|0:0,0:0:0:0:
57,174,29477,1,0,0:0:0:0:
0,53,29713,2,0,L|8:5,2,45,8|8|8,0:0|0:0|0:0,0:0:0:0:
81,86,30343,1,0,3:0:0:0:
86,83,30422,1,0,3:0:0:0:
197,184,30658,6,0,P|233:165|239:97,1,90,4|0,3:0|0:2,0:0:0:0:
289,35,31012,2,0,P|291:123|318:194,1,135,0|0,3:0|0:0,0:0:0:0:
319,177,31485,1,0,3:0:0:0:
405,301,31721,1,0,0:0:0:0:
394,286,31839,2,0,P|338:273|280:289,1,90,2|8,3:2|0:2,0:0:0:0:
248,337,32194,1,2,3:2:0:0:
120,259,32430,1,0,3:0:0:0:
220,133,32666,5,0,3:0:0:0:
211,118,32784,2,0,P|157:104|117:102,1,90,2|8,3:2|0:0,0:0:0:0:
196,25,33138,2,0,P|250:11|290:9,1,90,2|0,3:2|3:2,0:0:0:0:
297,21,33493,1,2,3:2:0:0:
370,143,33729,1,0,3:0:0:0:
480,51,33965,1,8,0:0:0:0:
447,230,34201,6,0,P|435:257|443:296,1,45,2|0,3:2|3:2,3:2:0:0:
495,360,34438,2,0,P|431:325|368:319,1,135,4|0,3:0|3:0,0:0:0:0:
358,332,34910,1,10,0:0:0:0:
241,166,35146,2,0,P|246:201|245:271,1,90,2|0,3:2|3:0,0:0:0:0:
144,344,35619,1,0,3:0:0:0:
32,267,35855,1,8,0:0:0:0:
132,177,36091,1,0,3:0:0:0:
129,164,36209,2,0,P|128:117|151:32,1,135,2|2,3:2|0:0,0:0:0:0:
237,177,36800,1,8,0:2:0:0:
441,51,37272,5,0,3:0:0:0:
450,65,37390,2,0,L|458:187,2,90,2|0|0,3:2|3:2|3:0,0:0:0:0:
512,7,37981,1,2,3:2:0:0:
328,135,38217,6,0,P|292:116|286:48,1,90,4|0,2:0|0:0,0:0:0:0:
210,164,38571,2,0,P|224:86|277:22,1,135,0|0,3:0|0:0,0:0:0:0:
272,35,39044,1,0,3:0:0:0:
132,105,39280,1,0,0:0:0:0:
113,106,39398,2,0,P|67:71|42:16,1,90,2|8,3:2|0:0,0:0:0:0:
8,124,39753,1,2,3:2:0:0:
103,218,39989,1,0,3:0:0:0:
14,351,40225,5,0,3:0:0:0:
23,336,40343,2,0,P|77:322|117:320,1,90,2|8,3:2|0:0,0:0:0:0:
185,365,40697,2,0,P|239:379|279:381,1,90,2|0,3:2|3:0,0:0:0:0:
285,368,41052,1,0,3:0:0:0:
233,250,41288,1,0,3:0:0:0:
309,144,41524,1,8,0:0:0:0:
434,285,41760,6,0,P|435:262|446:242,1,45,0|0,3:2|3:2,3:2:0:0:
476,141,41997,2,0,P|438:193|351:191,1,135,4|0,3:0|3:0,0:0:0:0:
309,144,42469,1,8,0:0:0:0:
272,302,42705,2,0,P|267:264|233:201,1,90,2|0,3:2|3:0,0:0:0:0:
132,292,43178,1,0,3:0:0:0:
50,184,43414,1,8,0:0:0:0:
161,108,43650,1,0,3:0:0:0:
164,95,43768,2,0,P|165:48|104:35,1,90,2|0,3:2|3:0,0:0:0:0:
80,94,44123,1,2,2:0:0:0:
209,182,44359,1,8,0:0:0:0:
359,43,44831,5,0,3:0:0:0:
368,57,44949,2,0,L|376:179,2,90,2|0|0,3:2|3:0|3:0,0:0:0:0:
442,11,45540,1,0,3:0:0:0:
292,201,45776,6,0,P|237:160|182:142,1,107.999996704102,2|0,1:2|3:0,0:0:0:0:
130,80,46131,2,0,P|129:19|170:6,1,107.999996704102,2|0,3:2|0:0,0:0:0:0:
179,22,46485,1,0,3:0:0:0:
86,171,46721,1,2,3:2:0:0:
184,271,46957,1,0,0:0:0:0:
200,285,47075,2,0,P|225:273|257:270,1,53.9999983520508,0|8,3:0|3:2,0:0:0:0:
138,376,47430,1,0,3:3:0:0:
187,168,47666,6,0,P|194:138|211:112,1,53.9999983520508,4|0,3:0|0:0,0:0:0:0:
389,188,48020,2,0,L|270:174,2,107.999996704102,2|2|2,3:2|3:2|3:2,0:2:0:0:
450,122,48847,2,0,P|445:98|423:66,1,53.9999983520508,2|0,1:2|0:0,0:0:0:0:
343,28,49083,1,8,0:0:0:0:
313,41,49201,2,0,P|298:63|292:90,1,53.9999983520508,2|0,0:0|0:0,0:0:0:0:
288,194,49438,2,0,P|257:118|182:71,1,161.999995056153,0|2,0:0|0:0,0:0:0:0:
135,141,49910,1,0,3:0:0:0:
120,155,50028,2,0,P|57:154|-8:116,1,107.999996704102,8|0,0:0|0:0,0:0:0:0:
83,249,50501,5,4,3:0:0:0:
87,265,50619,1,0,0:0:0:0:
203,332,50855,1,0,3:0:0:0:
207,317,50973,1,2,3:2:0:0:
212,303,51091,2,0,P|246:283|281:276,1,53.9999983520508,0|0,0:0|3:0,0:0:0:0:
315,211,51327,2,0,P|376:219|416:183,1,107.999996704102,0|2,0:0|3:2,0:0:0:0:
402,172,51682,1,0,0:0:0:0:
323,59,51918,1,8,0:0:0:0:
186,86,52154,6,0,P|155:69|148:46,1,53.9999983520508,0|0,3:0|0:0,0:0:0:0:
106,148,52390,2,0,P|120:80|92:8,1,107.999996704102,2|0,3:2|3:0,0:0:0:0:
73,163,52745,2,0,P|114:181|122:251,1,107.999996704102,2|0,3:2|0:0,0:0:0:0:
60,286,53099,1,2,3:2:0:0:
175,353,53335,6,0,P|230:312|285:294,1,107.999996704102,2|0,1:2|3:0,0:0:0:0:
343,347,53690,2,0,P|394:347|417:301,1,107.999996704102,2|0,3:2|0:0,0:0:0:0:
344,251,54044,1,0,3:0:0:0:
424,151,54280,1,4,3:0:0:0:
347,48,54516,1,0,0:0:0:0:
331,34,54634,2,0,P|298:40|281:55,1,53.9999983520508,0|8,3:2|3:2,0:0:0:0:
228,169,54989,1,0,3:0:0:0:
90,22,55225,6,0,P|103:45|108:71,1,53.9999983520508,4|0,3:0|0:0,0:0:0:0:
54,224,55579,2,0,L|26:114,2,107.999996704102,2|2|2,3:2|3:2|3:2,0:0:0:0:
385,269,56406,2,0,P|380:293|358:325,1,53.9999983520508,2|0,1:2|0:0,0:0:0:0:
312,214,56642,1,8,0:0:0:0:
284,227,56760,2,0,P|269:249|263:276,1,53.9999983520508,2|0,3:2|0:0,0:0:0:0:
267,377,56997,2,0,P|236:301|161:254,1,161.999995056153,0|2,0:0|0:0,0:0:0:0:
92,304,57469,1,0,3:0:0:0:
78,293,57587,2,0,L|76:184,1,107.999996704102,8|0,0:0|0:0,0:0:0:0:
230,32,58060,6,0,P|281:117|354:72,1,161.999995056153,0|2,3:0|3:2,0:0:0:0:
358,25,58532,2,0,L|367:92,1,53.9999983520508,4|0,3:0|0:0,0:0:0:0:
416,178,58768,1,2,1:0:0:0:
25,78,59241,6,0,P|54:92|103:41,1,101.250003862381
195,192,59831,1,2,3:2:0:0:
186,203,59949,2,0,P|157:217|108:166,1,101.250003862381
189,103,60422,6,0,P|216:167|298:212,1,150,2|0,1:2|0:0,0:0:0:0:
292,203,60894,6,0,P|323:163|396:207,1,116.999994644165,2|0,1:2|3:0,0:0:0:0:
431,268,61249,2,0,P|411:201|410:139,1,116.999994644165,2|0,3:2|3:0,0:0:0:0:
447,67,61603,1,2,3:2:0:0:
385,65,61721,2,0,L|463:50,1,58.4999973220826,2|0,0:0|3:0,0:0:0:0:
237,135,62075,1,2,3:2:0:0:
299,133,62193,2,0,L|221:118,1,58.4999973220826,2|8,0:0|0:0,0:0:0:0:
162,26,62548,1,0,3:0:0:0:
104,87,62705,1,0,3:0:0:0:
106,94,62784,1,4,3:0:0:0:
179,283,63020,6,0,P|123:263|51:257,1,116.999994644165,2|8,3:2|0:0,0:0:0:0:
56,377,63375,2,0,P|53:315|37:248,1,116.999994644165
0,167,63729,2,0,P|3:105|64:88,1,116.999994644165,4|2,3:0|3:2,0:0:0:0:
118,132,64083,1,0,0:0:0:0:
124,154,64201,1,8,0:0:0:0:
202,44,64438,1,0,3:0:0:0:
262,207,64674,6,0,P|314:235|418:232,1,116.999994644165,2|0,1:2|3:0,0:0:0:0:
435,144,65028,2,0,P|388:162|387:232,1,116.999994644165,2|0,3:2|3:0,0:0:0:0:
441,316,65383,1,2,3:2:0:0:
437,334,65501,2,0,P|411:355|379:364,1,58.4999973220826,2|2,0:0|3:2,0:0:0:0:
251,303,65855,1,2,3:2:0:0:
97,371,66091,2,0,P|96:280|70:154,1,175.499991966248,10|0,0:0|0:0,0:0:0:0:
20,113,66564,1,4,3:0:0:0:
33,93,66682,2,0,P|57:86|99:90,1,58.4999973220826,2|0,3:2|3:0,0:0:0:0:
179,159,66918,6,0,P|191:104|247:56,1,116.999994644165,2|0,3:2|3:0,0:0:0:0:
291,130,67272,1,2,3:2:0:0:
169,281,67508,2,0,P|254:256|325:266,1,116.999994644165,4|0,3:0|3:0,0:0:0:0:
330,331,67863,2,0,P|365:376|415:330,1,116.999994644165,2|0,3:2|3:0,0:0:0:0:
389,271,68217,1,0,3:0:0:0:
496,153,68453,6,0,P|456:94|389:104,1,116.999994644165,4|0,2:0|3:0,0:0:0:0:
336,180,68808,2,0,P|379:120|372:61,1,116.999994644165,2|0,3:2|0:0,0:0:0:0:
299,20,69162,1,2,3:2:0:0:
237,18,69280,2,0,L|315:3,1,58.4999973220826,2|0,0:0|3:0,0:0:0:0:
198,129,69634,1,2,3:2:0:0:
260,127,69752,2,0,L|182:112,1,58.4999973220826,2|8,0:0|0:0,0:0:0:0:
83,203,70107,1,0,3:0:0:0:
146,269,70264,5,0,3:0:0:0:
152,273,70343,2,0,L|279:260,1,116.999994644165,4|0,3:0|3:0,0:0:0:0:
302,361,70697,2,0,P|312:282|363:218,1,116.999994644165,2|0,3:2|0:0,0:0:0:0:
403,195,71052,1,2,3:2:0:0:
414,186,71170,2,0,P|398:128|331:135,1,116.999994644165
283,62,71524,2,0,B|192:51|219:108|116:97,1,175.499991966248,2|0,3:2|0:0,0:0:0:0:
65,33,71997,1,0,3:0:0:0:
0,182,72233,6,0,P|64:248|136:198,1,175.499991966248,2|0,1:2|3:0,0:0:0:0:
123,196,72705,1,8,0:0:0:0:
224,306,72942,1,2,3:2:0:0:
244,249,73060,2,0,L|238:322,1,58.4999973220826,2|2,0:0|3:2,0:0:0:0:
359,232,73414,1,2,3:2:0:0:
455,327,73650,1,8,0:0:0:0:
502,184,73886,5,0,3:0:0:0:
497,172,74005,1,0,3:0:0:0:
493,160,74123,1,4,3:0:0:0:
320,142,74359,2,0,P|391:141|431:41,1,175.499991966248,0|0,1:0|0:0,0:0:0:0:
350,4,74831,1,2,3:2:0:0:
333,0,74949,1,2,0:0:0:0:
313,5,75068,2,0,P|256:25|192:-21,1,116.999994644165,2|0,3:2|3:0,0:0:0:0:
195,129,75422,2,0,P|198:53|168:-4,1,116.999994644165,2|0,3:2|3:0,0:0:0:0:
100,0,75776,1,2,0:0:0:0:
28,149,76012,6,0,P|98:172|129:228,1,116.999994644165,2|0,1:2|3:0,0:0:0:0:
39,281,76367,2,0,P|71:237|126:259,1,116.999994644165,2|0,3:2|3:0,0:0:0:0:
210,354,76721,1,2,3:2:0:0:
226,290,76839,2,0,L|221:366,1,58.4999973220826,2|0,0:0|3:0,0:0:0:0:
345,313,77194,1,2,3:0:0:0:
329,249,77312,2,0,L|333:325,1,58.4999973220826,2|8,0:0|0:0,0:0:0:0:
242,184,77666,1,0,3:0:0:0:
311,134,77823,1,0,3:0:0:0:
313,141,77902,1,4,3:0:0:0:
459,4,78138,6,0,P|429:62|430:124,1,116.999994644165,2|0,3:2|3:0,0:0:0:0:
512,193,78493,2,0,P|481:150|424:169,1,116.999994644165
361,244,78847,2,0,P|303:252|249:231,1,116.999994644165,4|2,3:0|3:2,0:0:0:0:
202,154,79201,1,0,0:0:0:0:
208,132,79319,1,2,3:2:0:0:
120,25,79556,1,0,3:0:0:0:
0,161,79792,6,0,P|52:189|156:186,1,116.999994644165,2|0,1:2|3:0,0:0:0:0:
170,291,80146,2,0,P|123:273|122:203,1,116.999994644165,2|0,3:2|0:0,0:0:0:0:
202,154,80501,1,2,3:2:0:0:
198,136,80619,2,0,P|172:115|140:106,1,58.4999973220826,2|2,0:0|3:2,0:0:0:0:
255,21,80973,1,0,3:2:0:0:
318,213,81209,2,0,P|337:126|378:44,1,175.499991966248,8|0,0:0|0:0,0:0:0:0:
425,138,81682,1,4,3:0:0:0:
438,158,81800,2,0,P|462:165|504:161,1,58.4999973220826,2|0,3:2|0:0,0:0:0:0:
510,263,82036,6,0,P|480:309|425:301,1,116.999994644165,2|0,3:2|3:0,0:0:0:0:
378,231,82390,1,2,0:0:0:0:
275,358,82626,2,0,P|190:333|119:343,1,116.999994644165,2|0,3:2|3:0,0:0:0:0:
100,268,82981,2,0,P|135:223|185:269,1,116.999994644165,2|0,3:2|3:0,0:0:0:0:
238,178,83335,1,0,3:0:0:0:
84,75,83571,6,0,P|124:16|191:26,1,116.999994644165,4|0,2:0|3:0,0:0:0:0:
235,76,83926,2,0,P|287:101|353:94,1,116.999994644165,2|0,3:2|0:0,0:0:0:0:
420,26,84280,1,2,3:2:0:0:
482,24,84398,2,0,L|404:9,1,58.4999973220826,2|0,0:0|2:0,0:0:0:0:
435,130,84752,1,2,3:2:0:0:
497,128,84870,2,0,L|419:113,1,58.4999973220826,2|8,0:0|0:0,0:0:0:0:
324,198,85225,1,0,3:0:0:0:
386,265,85382,5,0,3:0:0:0:
392,269,85461,2,0,P|383:342|353:390,1,116.999994644165,4|0,3:0|3:0,0:0:0:0:
284,321,85815,2,0,P|254:270|193:281,1,116.999994644165,2|0,3:2|0:0,0:0:0:0:
122,219,86170,1,2,3:2:0:0:
111,210,86288,2,0,P|127:152|194:159,1,116.999994644165
276,181,86642,2,0,B|287:90|230:117|241:14,1,175.499991966248,2|0,3:2|0:0,0:0:0:0:
154,56,87115,1,0,3:0:0:0:
362,33,87351,6,0,P|421:108|423:194,1,175.499991966248,2|2,1:2|3:2,0:0:0:0:
359,232,87823,1,8,0:0:0:0:
445,335,88060,1,2,3:2:0:0:
465,278,88178,2,0,L|459:351,1,58.4999973220826,2|2,0:0|3:2,0:0:0:0:
336,375,88532,1,0,3:2:0:0:
248,276,88768,1,8,0:0:0:0:
85,362,89004,5,0,3:0:0:0:
84,350,89123,1,0,3:0:0:0:
84,338,89241,1,2,3:2:0:0:
175,228,89477,2,0,P|102:255|68:169,1,175.499991966248,0|0,3:0|3:0,0:0:0:0:
129,87,89949,1,2,3:2:0:0:
149,144,90068,2,0,L|143:71,1,58.4999973220826,2|2,0:0|3:2,0:0:0:0:
247,9,90422,1,2,3:2:0:0:
311,120,90658,1,8,3:0:0:0:
435,53,90894,2,0,P|439:29|449:10,2,38.9999982147218,0|0|0,3:0|3:0|3:0,0:0:0:0:
419,73,91131,6,0,L|445:270,2,175.499991966248,2|0|2,1:2|3:0|3:2,0:0:0:0:
