osu file format v14

[General]
AudioFilename: audio.mp3
AudioLeadIn: 0
PreviewTime: 59172
Countdown: 0
SampleSet: Soft
StackLeniency: 0.7
Mode: 0
LetterboxInBreaks: 0
WidescreenStoryboard: 1

[Editor]
Bookmarks: 15530,28522,30648,45766,59231,60884,72223,76002,87341,91121
DistanceSpacing: 0.5
BeatDivisor: 4
GridSize: 32
TimelineZoom: 2.2

[Metadata]
Title:Wake Up, Get Up, Get Out There -Opening Movie Version-
TitleUnicode:Wake Up, Get Up, Get Out There -Opening Movie Version-
Artist:Meguro Shoji feat. Lyn
ArtistUnicode:目黒将司 feat. Lyn
Creator:Icekalt
Version:Hard
Source:Persona 5
Tags:jazz video game ost english ps4 ps3 play celerih mir station atlus games op 稲泉りん Inaizumi p5 ペルソナ5 original soundtrack
BeatmapID:2263560
BeatmapSetID:1079913

[Difficulty]
HPDrainRate:5
CircleSize:3.2
OverallDifficulty:6
ApproachRate:7.5
SliderMultiplier:1.5
SliderTickRate:1

[Events]
//Background and Video events
0,0,"p5 1.jpg",0,0
//Break Periods
//Storyboard Layer 0 (Background)
//Storyboard Layer 1 (Fail)
//Storyboard Layer 2 (Pass)
//Storyboard Layer 3 (Foreground)
//Storyboard Layer 4 (Overlay)
//Storyboard Sound Samples

[TimingPoints]
422,472.44094488189,4,2,0,40,1,0
422,-153.846153846153,4,2,0,40,0,0
3138,-153.846153846153,4,2,0,5,0,0
3493,-153.846153846153,4,2,0,40,0,0
7627,-153.846153846153,4,2,0,5,0,0
7745,-153.846153846153,4,2,0,40,0,0
7981,-153.846153846153,4,2,0,50,0,0
10697,-153.846153846153,4,2,0,5,0,0
11052,-153.846153846153,4,2,0,50,0,0
15422,-153.846153846153,4,2,1,65,0,0
15540,-100,4,2,1,65,0,0
16662,-100,4,2,1,5,0,0
16721,-100,4,2,1,65,0,0
24221,-100,4,2,1,5,0,0
24280,-100,4,2,1,65,0,0
28532,-100,4,2,1,35,0,0
29713,-100,4,2,1,60,0,0
30658,-100,4,2,1,55,0,0
45776,-100,4,2,1,60,0,0
58768,-100,4,2,1,70,0,0
58886,-100,4,2,1,5,0,0
59241,-100,4,2,1,60,0,0
60894,-100,4,2,1,70,0,0
72233,-100,4,2,1,65,0,0
76012,-100,4,2,1,70,0,0
87351,-100,4,2,1,65,0,0
90186,-100,4,2,1,70,0,0

[Colours]
Combo1 : 228,48,52
Combo2 : 202,202,202
Combo3 : 253,107,100
Combo4 : 143,143,143

[HitObjects]
205,184,422,6,0,L|121:201,2,73.1249966526033,2|2|2,3:2|0:0|3:2,0:0:0:0:
257,115,1603,1,2,0:0:0:0:
255,106,1721,1,2,0:0:0:0:
210,37,2311,1,4,0:3:0:0:
356,189,3020,6,0,P|379:186|408:194,1,48.7499977684022,2|0,0:0|0:0,0:0:0:0:
335,198,3492,2,0,P|348:142|349:88,1,97.4999955368044,2|0,0:0|0:0,0:0:0:0:
291,42,4201,2,0,L|208:55,2,73.1249966526033,2|2|2,3:2|0:0|3:2,0:0:0:0:
173,158,5382,6,0,L|168:194,2,24.3749988842011,2|2|2,0:0|0:0|0:0,0:0:0:0:
115,97,5855,2,0,P|143:124|198:54,1,146.249993305207,2|0,0:2|0:0,0:0:0:0:
133,13,6799,1,2,0:0:0:0:
20,141,7272,2,0,B|26:179|26:179|42:187|42:187|46:229,1,97.4999955368044,2|2,2:0|0:0,0:0:0:0:
91,313,7981,6,0,L|15:326,2,73.1249966526033,2|2|2,3:2|0:2|3:2,0:0:0:0:
172,356,9162,1,2,0:0:0:0:
173,365,9280,1,2,0:0:0:0:
235,286,9634,1,0,0:0:0:0:
235,286,9870,1,0,3:2:0:0:
310,354,10225,1,0,0:0:0:0:
309,345,10343,1,0,1:0:0:0:
363,238,10579,6,0,P|393:223|410:220,1,48.7499977684022,2|0,0:0|0:0,0:0:0:0:
345,253,11051,2,0,P|343:188|324:143,1,97.4999955368044,2|0,0:0|0:0,0:0:0:0:
276,96,11760,2,0,L|291:20,2,73.1249966526033,0|2|2,3:2|0:2|3:2,0:2:0:0:
187,185,12941,1,2,0:0:0:0:
188,194,13059,1,2,0:0:0:0:
189,204,13177,1,2,0:0:0:0:
124,265,13414,2,0,P|164:245|250:297,1,146.249993305207,2|0,0:2|0:0,0:2:0:0:
475,24,15067,1,10,2:3:0:0:
389,169,15540,6,0,B|360:119|360:119|364:39,2,112.5,0|2|2,1:0|3:2|0:0,0:0:0:0:
217,97,16721,1,2,3:2:0:0:
219,113,16839,1,2,2:0:0:0:
108,36,17193,1,2,3:2:0:0:
106,52,17311,1,2,0:0:0:0:
104,68,17429,6,0,P|68:99|21:104,2,75,0|0|4,3:0|3:0|3:0,0:0:0:0:
140,160,18138,1,2,3:2:0:0:
57,246,18374,2,0,L|43:180,1,37.5,0|0,1:2|0:0,0:0:0:0:
179,321,18729,2,0,L|197:236,1,75,2|2,3:0|0:0,0:0:0:0:
211,236,19083,1,0,0:0:0:0:
305,146,19319,6,0,L|177:129,1,112.5,0|2,1:0|3:0,0:0:0:0:
339,241,20028,1,2,3:2:0:0:
358,250,20146,2,0,P|396:221|395:132,1,112.5,2|0,2:0|0:0,0:0:0:0:
501,120,20736,1,0,3:2:0:0:
395,47,20973,6,0,B|316:46|324:109|242:104,1,150,4|0,0:0|3:0,0:0:0:0:
189,52,21681,1,4,3:0:0:0:
132,217,21918,2,0,L|128:272,1,37.5,0|0,3:2|0:0,0:0:0:0:
140,268,22154,1,0,1:2:0:0:
149,278,22272,2,0,L|271:264,1,112.5,2|8,3:0|0:0,3:0:0:0:
319,193,22862,1,0,0:0:0:0:
419,274,23099,6,0,L|394:404,2,112.5,0|2|2,1:0|3:2|0:0,0:0:0:0:
358,121,24280,1,2,3:2:0:0:
360,137,24398,1,2,0:0:0:0:
210,85,24752,1,2,3:2:0:0:
208,101,24870,1,2,0:0:0:0:
206,117,24988,6,0,L|219:193,2,75,0|0|4,3:0|3:0|3:0,0:0:0:0:
117,73,25697,1,2,3:2:0:0:
59,173,25933,2,0,L|-6:188,1,37.5,0|0,1:0|0:0,0:0:0:0:
118,279,26288,2,0,L|206:298,1,75,2|2,3:2|3:2,0:0:0:0:
200,309,26642,1,0,0:0:0:0:
296,210,26878,6,0,L|306:74,1,112.5,0|2,1:0|3:2,0:0:0:0:
380,293,27587,1,0,1:0:0:0:
398,284,27705,2,0,L|446:167,1,112.5,2|0,3:2|0:0,0:0:0:0:
420,89,28296,1,0,3:0:0:0:
327,182,28532,2,0,B|224:202|216:117|94:153,1,225,6|0,0:0|0:0,0:0:0:0:
48,217,29477,1,0,0:0:0:0:
122,300,29713,2,0,B|162:309|162:309|186:256,3,75,8|8|8|0,0:0|0:0|0:0|3:0,0:0:0:0:
267,337,30658,6,0,P|315:346|342:328,1,75,4|0,3:0|0:2,0:0:0:0:
359,236,31130,2,0,P|380:316|438:382,1,150,10|0,0:0|3:0,0:0:0:0:
489,297,31839,2,0,L|510:144,1,150,2|0,3:2|0:0,0:0:0:0:
500,137,32429,1,0,3:0:0:0:
340,230,32784,2,0,L|316:108,2,112.5,2|2|2,3:2|3:2|3:2,0:0:0:0:
290,307,33729,1,0,3:0:0:0:
432,360,33965,1,8,0:0:0:0:
343,380,34201,1,2,3:2:0:0:
201,329,34437,6,0,P|132:335|57:398,1,150,4|10,3:0|0:0,0:0:0:0:
17,301,35146,1,2,3:2:0:0:
136,243,35382,2,0,P|103:218|49:205,2,75,0|0|8,3:0|3:0|0:0,0:0:0:0:
218,218,36091,5,0,3:0:0:0:
222,206,36209,1,2,3:2:0:0:
292,271,36445,1,0,3:2:0:0:
296,283,36563,1,2,0:0:0:0:
347,205,36799,1,8,0:2:0:0:
217,68,37272,5,0,3:0:0:0:
225,58,37390,2,0,L|220:153,2,75,2|0|0,3:2|3:2|3:0,0:0:0:0:
202,37,37981,1,2,3:2:0:0:
321,0,38217,6,0,P|368:10|388:35,1,75,4|0,2:0|0:0,0:0:0:0:
397,135,38689,2,0,P|418:55|493:13,1,150,10|0,0:0|3:0,0:0:0:0:
479,166,39398,2,0,L|327:195,1,150,2|0,3:2|0:0,0:0:0:0:
324,207,39988,1,0,3:0:0:0:
271,366,40343,2,0,L|246:247,2,112.5,2|2|0,3:2|3:2|3:0,0:0:0:0:
358,329,41288,1,0,3:0:0:0:
511,358,41524,1,8,0:0:0:0:
428,384,41760,1,0,3:2:0:0:
479,261,41996,6,0,P|419:216|346:208,1,150,4|8,3:0|0:0,0:0:0:0:
270,154,42705,1,2,3:2:0:0:
249,259,42941,2,0,P|219:281|184:294,2,75,0|0|8,3:0|3:0|0:0,0:0:0:0:
180,189,43650,5,0,3:0:0:0:
167,185,43768,1,2,3:2:0:0:
122,109,44004,1,0,3:0:0:0:
135,105,44122,1,2,2:0:0:0:
189,35,44358,1,8,0:0:0:0:
316,148,44831,6,0,P|372:172|376:84,1,150,0|8,3:0|0:0,0:0:0:0:
321,58,45540,1,0,3:0:0:0:
221,200,45776,6,0,L|122:214,1,75,2|0,1:2|3:0,0:0:0:0:
82,154,46130,1,2,3:2:0:0:
76,142,46248,2,0,L|-21:155,1,75,8|0,0:0|3:0,0:0:0:0:
57,254,46721,5,2,3:2:0:0:
0,325,46957,1,0,0:0:0:0:
0,325,47075,1,0,3:0:0:0:
0,325,47193,1,8,3:2:0:0:
79,360,47429,1,0,3:3:0:0:
165,283,47666,5,4,3:0:0:0:
246,342,47902,1,0,0:0:0:0:
256,334,48020,2,0,L|266:227,1,75,2|2,3:2|3:2,0:2:0:0:
365,222,48492,2,0,L|404:345,1,112.5,2|2,3:2|1:2,0:2:0:0:
480,237,49083,1,8,0:0:0:0:
484,214,49201,1,2,0:0:0:0:
348,74,49555,6,0,P|336:124|245:109,1,150,2|8,3:2|0:0,0:0:0:0:
206,209,50264,1,0,0:0:0:0:
122,134,50500,2,0,L|112:49,2,75,4|0|2,3:0|0:0|3:2,0:0:0:0:
69,219,51209,1,0,3:0:0:0:
171,302,51445,6,0,L|299:312,1,112.5,0|2,3:0|3:2,0:0:0:0:
295,298,51918,1,8,0:0:0:0:
385,362,52154,1,0,3:0:0:0:
455,269,52390,2,0,B|437:219|437:219|447:149,2,112.5,2|2|2,3:2|3:2|3:2,0:0:0:0:
338,225,53335,6,0,L|234:216,1,75,2|0,1:2|3:0,0:0:0:0:
194,271,53689,1,2,3:2:0:0:
188,283,53807,2,0,L|91:270,1,75,8|0,0:0|3:0,0:0:0:0:
68,177,54280,5,4,3:0:0:0:
169,139,54516,1,0,0:0:0:0:
169,139,54634,1,0,3:2:0:0:
169,139,54752,1,8,3:2:0:0:
86,68,54988,1,0,3:0:0:0:
181,5,55225,5,4,3:0:0:0:
267,64,55461,1,0,0:0:0:0:
275,73,55579,2,0,L|384:51,1,75,2|2,3:2|3:2,0:0:0:0:
476,113,56051,2,0,L|441:5,1,112.5,2|2,3:2|1:2,0:0:0:0:
385,144,56642,1,8,0:0:0:0:
381,167,56760,1,2,3:2:0:0:
482,326,57114,2,0,P|470:276|379:291,1,150,2|8,3:2|0:0,0:0:0:0:
398,374,57823,1,0,0:0:0:0:
266,325,58059,6,0,B|226:293|239:228|289:243|272:160,1,150,0|4,3:0|3:0,0:0:0:0:
204,94,58768,1,2,1:0:0:0:
470,19,59477,6,0,L|351:43,1,112.5,4|2,3:0|3:2,0:0:0:0:
314,146,60067,1,0,3:2:0:0:
318,158,60185,1,2,3:2:0:0:
227,57,60422,1,2,1:2:0:0:
190,194,60658,1,0,3:2:0:0:
271,298,60894,6,0,L|361:302,1,75,2|0,1:2|3:0,0:0:0:0:
360,316,61248,2,0,P|405:317|447:285,1,75,2|0,3:2|3:0,0:0:0:0:
456,227,61603,1,2,3:2:0:0:
449,215,61721,2,0,L|446:164,1,37.5,2|0,0:0|3:0,0:0:0:0:
341,60,62075,1,2,3:2:0:0:
348,72,62193,2,0,L|351:123,1,37.5,2|8,0:0|0:0,0:0:0:0:
287,194,62547,1,0,3:0:0:0:
194,146,62784,1,4,3:0:0:0:
92,262,63020,6,0,P|157:260|175:310,1,112.5,2|0,3:2|0:0,0:0:0:0:
167,328,63492,1,2,3:2:0:0:
170,347,63610,1,0,0:0:0:0:
173,366,63729,1,4,3:0:0:0:
274,290,63965,1,2,3:2:0:0:
391,376,64201,2,0,L|403:286,1,75,8|0,0:0|3:0,0:0:0:0:
492,163,64673,6,0,P|460:105|389:146,1,150,2|0,1:2|0:0,0:0:0:0:
264,36,65382,1,2,3:2:0:0:
253,50,65500,2,0,L|246:104,1,37.5,2|2,0:0|3:2,0:0:0:0:
272,176,65855,1,2,3:2:0:0:
166,36,66091,2,0,L|148:161,1,112.5,10|0,0:0|0:0,0:0:0:0:
97,211,66563,5,4,3:0:0:0:
101,229,66681,1,2,3:2:0:0:
105,247,66799,2,0,P|164:234|236:264,1,112.5,0|0,3:0|3:0,0:0:0:0:
224,263,67272,1,2,3:2:0:0:
358,298,67508,2,0,P|302:319|262:382,2,112.5,4|2|0,3:0|3:2|3:0,0:0:0:0:
461,188,68453,6,0,P|439:135|416:117,1,75,4|0,2:0|3:0,0:0:0:0:
412,113,68807,2,0,L|321:125,1,75,2|0,3:2|0:0,0:0:0:0:
268,75,69162,1,2,3:2:0:0:
255,62,69280,2,0,L|262:17,1,37.5,2|0,0:0|3:0,0:0:0:0:
153,165,69634,1,2,3:2:0:0:
166,152,69752,2,0,L|159:107,1,37.5,2|8,0:0|0:0,0:0:0:0:
262,197,70107,1,0,3:0:0:0:
142,291,70343,6,0,L|278:312,1,112.5,4|2,3:0|3:2,0:0:0:0:
264,324,70815,2,0,P|282:354|336:361,1,75,8|2,0:0|3:2,0:0:0:0:
340,360,71170,1,0,0:0:0:0:
360,354,71288,1,4,3:0:0:0:
341,246,71524,1,2,3:2:0:0:
463,171,71760,2,0,L|381:137,1,75,8|0,0:0|3:0,0:0:0:0:
259,19,72233,6,0,B|273:82|218:98|246:180,1,150,2|8,1:2|0:0,0:0:0:0:
110,247,72941,1,2,3:2:0:0:
119,230,73059,2,0,L|162:226,1,37.5,2|2,0:0|3:2,0:0:0:0:
248,276,73414,1,2,3:2:0:0:
367,218,73650,2,0,L|350:139,1,75,8|0,0:0|3:0,0:0:0:0:
357,127,74004,1,0,3:0:0:0:
363,109,74122,1,4,3:0:0:0:
469,206,74359,6,0,P|467:262|435:324,1,112.5,0|0,1:0|0:0,0:0:0:0:
362,342,74831,1,2,3:2:0:0:
343,337,74949,1,2,0:0:0:0:
325,331,75067,2,0,P|269:328|188:350,2,112.5,2|2|2,3:2|3:2|0:0,0:0:0:0:
351,217,76012,6,0,L|338:118,1,75,2|0,1:2|3:0,0:0:0:0:
329,127,76366,2,0,P|295:111|258:114,1,75,2|0,3:2|3:0,0:0:0:0:
182,154,76721,1,2,3:2:0:0:
175,142,76839,2,0,L|172:91,1,37.5,2|0,0:0|3:0,0:0:0:0:
37,168,77193,1,2,3:0:0:0:
44,180,77311,2,0,L|47:231,1,37.5,2|8,0:0|0:0,0:0:0:0:
156,250,77665,1,0,3:0:0:0:
97,346,77902,1,4,3:0:0:0:
274,323,78138,6,0,P|339:325|357:275,1,112.5,2|0,3:2|0:0,0:0:0:0:
343,261,78610,1,2,3:2:0:0:
340,242,78729,1,0,0:0:0:0:
337,223,78847,1,4,3:0:0:0:
398,136,79083,1,2,3:2:0:0:
471,276,79319,2,0,L|483:186,1,75,2|0,3:2|3:0,0:0:0:0:
381,47,79791,6,0,P|314:53|320:137,1,150,2|0,1:2|0:0,0:0:0:0:
213,246,80500,1,2,3:2:0:0:
202,232,80618,2,0,L|195:178,1,37.5,2|2,0:0|3:2,0:0:0:0:
179,101,80973,1,0,3:2:0:0:
87,231,81209,2,0,L|56:122,1,112.5,8|0,0:0|0:0,0:0:0:0:
105,57,81681,5,4,3:0:0:0:
109,39,81799,1,2,3:2:0:0:
113,21,81917,2,0,P|161:15|232:44,1,112.5,0|0,0:0|3:0,0:0:0:0:
228,51,82390,1,2,0:0:0:0:
378,71,82626,2,0,P|322:92|282:155,2,112.5,2|2|0,3:2|3:2|3:0,0:0:0:0:
455,190,83571,6,0,P|433:243|410:261,1,75,4|0,2:0|3:0,0:0:0:0:
406,265,83925,2,0,L|315:253,1,75,2|0,3:2|0:0,0:0:0:0:
264,305,84280,1,2,3:2:0:0:
251,318,84398,2,0,L|258:363,1,37.5,2|0,0:0|2:0,0:0:0:0:
141,218,84752,1,2,3:2:0:0:
154,231,84870,2,0,L|147:276,1,37.5,2|8,0:0|0:0,0:0:0:0:
262,197,85225,1,0,3:0:0:0:
118,122,85461,6,0,L|249:95,1,112.5,4|2,3:0|3:2,0:0:0:0:
237,83,85933,2,0,P|255:53|309:46,1,75,8|2,0:0|3:2,0:0:0:0:
352,100,86288,1,0,0:0:0:0:
358,118,86406,1,4,3:0:0:0:
333,225,86642,1,2,3:2:0:0:
459,168,86878,2,0,L|437:258,1,75,8|0,0:0|3:0,0:0:0:0:
330,345,87351,6,0,B|250:361|268:296|168:324,1,150,2|8,1:2|0:0,0:0:0:0:
87,199,88059,1,2,3:2:0:0:
96,182,88177,2,0,L|139:178,1,37.5,2|2,0:0|3:2,0:0:0:0:
228,229,88532,1,0,3:2:0:0:
273,114,88768,2,0,L|256:35,1,75,8|0,0:0|3:0,0:0:0:0:
180,10,89122,5,0,3:0:0:0:
173,27,89240,1,2,3:2:0:0:
59,48,89477,1,0,3:0:0:0:
51,64,89595,2,0,L|57:124,1,37.5,2|0,3:2|0:0,0:0:0:0:
131,198,89949,1,2,3:2:0:0:
143,184,90067,2,0,L|202:176,1,37.5,2|2,0:0|3:2,0:0:0:0:
256,259,90422,1,2,3:2:0:0:
326,150,90658,2,0,L|299:56,1,75,8|0,3:0|3:0,0:0:0:0:
443,158,91130,5,2,1:2:0:0:
393,346,91484,1,0,3:0:0:0:
239,219,91839,1,2,3:2:0:0:
