osu file format v14

[General]
AudioFilename: audio.mp3
AudioLeadIn: 0
PreviewTime: 61474
Countdown: 0
SampleSet: Soft
StackLeniency: 0.3
Mode: 0
LetterboxInBreaks: 0
WidescreenStoryboard: 1

[Editor]
Bookmarks: 387,15996,31606,78435,90143,102816,105752,121362,152582,168191,185752,216972
DistanceSpacing: 0.9
BeatDivisor: 16
GridSize: 16
TimelineZoom: 2.6

[Metadata]
Title:Last Surprise -Scramble-
TitleUnicode:Last Surprise -Scramble-
Artist:Meguro Shoji feat. Lyn
ArtistUnicode:目黒将司 feat. Lyn
Creator:moph
Version:Flake's Extra
Source:ペルソナ5 スクランブル ザ ファントム ストライカーズ
Tags:flake yudragen chaoticred Inaizumi persona 5 scramble the phantom strikers p5s MASA remix Benjamin Franklin atlus shin megami tensei 真 女神転生 rock jazz video game English OST original soundtrack disc2
BeatmapID:2476320
BeatmapSetID:1178471

[Difficulty]
HPDrainRate:5
CircleSize:3.8
OverallDifficulty:8.5
ApproachRate:9.3
SliderMultiplier:2.8
SliderTickRate:1

[Events]
//Background and Video events
0,0,"bg2.jpg",0,0
//Break Periods
2,78625,85630
//Storyboard Layer 0 (Background)
//Storyboard Layer 1 (Fail)
//Storyboard Layer 2 (Pass)
//Storyboard Layer 3 (Foreground)
//Storyboard Layer 4 (Overlay)
//Storyboard Sound Samples

[TimingPoints]
377,487.80487804878,4,2,1,70,1,0
377,-588.235294117647,4,2,1,70,0,1
498,-588.235294117647,4,2,1,20,0,1
3425,-588.235294117647,4,2,1,60,0,1
3669,-333.333333333333,4,2,1,60,0,1
3791,-333.333333333333,4,2,1,60,0,0
4279,-454.545454545455,4,2,1,70,0,1
4401,-454.545454545455,4,2,1,20,0,1
6962,-454.545454545455,4,2,1,60,0,1
7206,-80,4,2,1,60,0,0
7572,-100,4,2,1,60,0,0
7816,-133.333333333333,4,2,1,60,0,0
8181,-40,4,2,1,70,0,0
9645,-133.333333333333,4,2,1,70,0,0
10133,-40,4,2,1,70,0,0
10498,-133.333333333333,4,2,1,70,0,0
10864,-40,4,2,1,70,0,0
11229,-133.333333333333,4,2,1,70,0,0
11597,-133.333333333333,4,2,1,70,0,0
12084,-40,4,2,1,70,0,0
13425,-133.333333333333,4,2,1,70,0,0
14035,-40,4,2,1,70,0,0
14401,-57.1428571428571,4,2,1,70,0,0
15986,-80,4,2,1,70,0,0
22694,-66.6666666666667,4,2,1,70,0,0
23791,-80,4,2,1,70,0,0
31108,-40,4,2,1,70,0,0
31352,-57.1428571428571,4,2,1,70,0,0
31596,-100,4,2,1,60,0,0
32633,-100,4,2,1,5,0,0
32694,-100,4,2,1,60,0,0
48913,-100,4,2,1,60,0,0
49096,-100,4,2,1,5,0,0
49157,-100,4,2,1,60,0,0
49401,-100,4,2,1,60,0,0
49584,-100,4,2,1,5,0,0
49645,-100,4,2,1,60,0,0
49889,-100,4,2,1,60,0,0
50072,-100,4,2,1,5,0,0
50133,-100,4,2,1,60,0,0
54767,-100,4,2,1,60,0,0
54950,-100,4,2,1,5,0,0
55011,-100,4,2,1,60,0,0
58913,-100,4,2,1,70,0,0
61596,-500,4,2,1,70,0,0
62816,-80,4,2,1,80,0,1
62999,-80,4,2,1,5,0,1
63060,-80,4,2,1,80,0,1
64767,-80,4,2,1,80,0,1
64950,-80,4,2,1,5,0,1
65011,-80,4,2,1,80,0,1
65986,-57.1428571428571,4,2,1,80,0,1
66474,-50,4,2,1,80,0,1
66718,-80,4,2,1,80,0,1
68669,-80,4,2,1,80,0,1
68852,-80,4,2,1,5,0,1
68913,-80,4,2,1,80,0,1
69035,-80,4,2,1,80,0,1
69218,-80,4,2,1,5,0,1
69279,-80,4,2,1,80,0,1
69401,-80,4,2,1,80,0,1
69584,-80,4,2,1,5,0,1
69645,-80,4,2,1,80,0,1
69767,-80,4,2,1,80,0,1
69950,-80,4,2,1,5,0,1
70011,-80,4,2,1,80,0,1
70620,-80,4,2,1,80,0,1
70803,-80,4,2,1,5,0,1
70864,-80,4,2,1,80,0,1
72572,-80,4,2,1,80,0,1
72755,-80,4,2,1,5,0,1
72816,-80,4,2,1,80,0,1
73791,-57.1428571428571,4,2,1,80,0,1
74279,-50,4,2,1,80,0,1
74523,-80,4,2,1,80,0,1
76474,-80,4,2,1,80,0,1
76657,-80,4,2,1,5,0,1
76718,-80,4,2,1,80,0,1
76840,-80,4,2,1,80,0,1
77023,-80,4,2,1,5,0,1
77084,-80,4,2,1,80,0,1
78425,-133.333333333333,4,2,1,70,0,0
86230,-1000,4,2,1,70,0,0
86352,-1000,4,2,1,20,0,0
87572,-1000,4,2,1,60,0,0
88181,-50,4,2,1,70,0,0
89523,-100,4,2,1,70,0,0
89645,-100,4,2,1,70,0,0
89706,-100,4,2,1,70,0,0
89767,-100,4,2,1,70,0,0
89828,-100,4,2,1,70,0,0
89889,-100,4,2,1,70,0,0
89950,-100,4,2,1,5,0,0
90133,-100,4,2,1,50,0,0
105011,-100,4,2,1,60,0,0
105133,-100,4,2,1,60,0,0
105255,-100,4,2,1,60,0,0
105316,-100,4,2,1,5,0,0
105376,-100,4,2,1,60,0,0
105437,-100,4,2,1,5,0,0
105498,-100,4,2,1,60,0,0
105559,-100,4,2,1,5,0,0
105742,-100,4,2,1,60,0,0
105925,-100,4,2,1,5,0,0
105986,-100,4,2,1,60,0,0
109645,-100,4,2,1,60,0,0
109828,-100,4,2,1,5,0,0
109889,-100,4,2,1,60,0,0
113547,-100,4,2,1,60,0,0
113730,-100,4,2,1,5,0,0
113791,-100,4,2,1,60,0,0
117450,-100,4,2,1,70,0,0
120133,-500,4,2,1,70,0,0
121352,-80,4,2,1,80,0,1
121535,-80,4,2,1,5,0,1
121596,-80,4,2,1,80,0,1
123303,-80,4,2,1,80,0,1
123486,-80,4,2,1,5,0,1
123547,-80,4,2,1,80,0,1
124523,-57.1428571428571,4,2,1,80,0,1
125011,-44.4444444444445,4,2,1,80,0,1
125255,-80,4,2,1,80,0,1
127206,-80,4,2,1,80,0,1
127389,-80,4,2,1,5,0,1
127450,-80,4,2,1,80,0,1
127572,-80,4,2,1,80,0,1
127755,-80,4,2,1,5,0,1
127816,-80,4,2,1,80,0,1
127937,-80,4,2,1,80,0,1
128120,-80,4,2,1,5,0,1
128181,-80,4,2,1,80,0,1
129157,-80,4,2,1,80,0,1
129340,-80,4,2,1,5,0,1
129401,-80,4,2,1,80,0,1
131108,-80,4,2,1,80,0,1
131291,-80,4,2,1,5,0,1
131352,-80,4,2,1,80,0,1
132328,-57.1428571428571,4,2,1,80,0,1
132816,-44.4444444444445,4,2,1,80,0,1
133059,-80,4,2,1,80,0,1
135011,-80,4,2,1,80,0,1
135194,-80,4,2,1,5,0,1
135255,-80,4,2,1,80,0,1
135376,-80,4,2,1,80,0,1
135559,-80,4,2,1,5,0,1
135620,-80,4,2,1,80,0,1
135742,-80,4,2,1,80,0,1
135925,-80,4,2,1,5,0,1
135986,-80,4,2,1,80,0,1
136718,-80,4,2,1,80,0,0
136962,-80,4,2,1,80,0,1
137145,-80,4,2,1,5,0,1
137206,-80,4,2,1,80,0,1
138913,-80,4,2,1,80,0,1
139096,-80,4,2,1,5,0,1
139157,-80,4,2,1,80,0,1
140133,-57.1428571428571,4,2,1,80,0,1
140620,-50,4,2,1,80,0,1
141047,-50,4,2,1,5,0,1
141108,-50,4,2,1,80,0,1
141352,-80,4,2,1,80,0,1
142511,-80,4,2,1,5,0,1
142572,-80,4,2,1,80,0,1
142816,-80,4,2,1,80,0,1
142998,-80,4,2,1,5,0,1
143059,-80,4,2,1,80,0,1
143181,-80,4,2,1,80,0,1
143364,-80,4,2,1,5,0,1
143425,-80,4,2,1,80,0,1
143547,-80,4,2,1,80,0,1
143730,-80,4,2,1,5,0,1
143791,-80,4,2,1,80,0,1
143913,-80,4,2,1,80,0,1
144096,-80,4,2,1,5,0,1
144157,-80,4,2,1,80,0,1
144523,-80,4,2,1,80,0,1
144706,-80,4,2,1,5,0,1
144767,-80,4,2,1,80,0,1
144950,-80,4,2,1,5,0,1
145011,-80,4,2,1,80,0,1
146718,-80,4,2,1,80,0,1
146901,-80,4,2,1,5,0,1
146962,-80,4,2,1,80,0,1
147937,-54.054054054054,4,2,1,80,0,1
148425,-47.6190476190476,4,2,1,80,0,1
148913,-80,4,2,1,80,0,1
150620,-80,4,2,1,80,0,1
150803,-80,4,2,1,5,0,1
150864,-80,4,2,1,80,0,1
150986,-80,4,2,1,80,0,1
151169,-80,4,2,1,5,0,1
151230,-80,4,2,1,80,0,1
151352,-80,4,2,1,80,0,1
151535,-80,4,2,1,5,0,1
151596,-80,4,2,1,80,0,1
152572,-133.333333333333,4,2,1,70,0,0
160376,-100,4,2,1,70,0,0
168181,-200,4,2,1,50,0,0
168424,-200,4,2,1,50,0,0
168669,-200,4,2,1,50,0,0
168912,-200,4,2,1,50,0,0
169157,-200,4,2,1,50,0,0
169400,-200,4,2,1,50,0,0
169645,-200,4,2,1,50,0,0
169888,-200,4,2,1,50,0,0
170133,-200,4,2,1,50,0,0
170376,-200,4,2,1,50,0,0
170621,-200,4,2,1,50,0,0
170864,-200,4,2,1,50,0,0
171109,-200,4,2,1,50,0,0
171352,-200,4,2,1,50,0,0
171597,-200,4,2,1,50,0,0
171840,-200,4,2,1,50,0,0
171962,-200,4,2,1,50,0,0
172084,-166.666666666667,4,2,1,50,0,0
175376,-166.666666666667,4,2,1,50,0,0
175498,-166.666666666667,4,2,1,50,0,0
175864,-166.666666666667,4,2,1,50,0,0
175986,-133.333333333333,4,2,1,50,0,0
176229,-133.333333333333,4,2,1,50,0,0
176474,-133.333333333333,4,2,1,50,0,0
176717,-133.333333333333,4,2,1,50,0,0
176962,-133.333333333333,4,2,1,50,0,0
177205,-133.333333333333,4,2,1,50,0,0
177450,-133.333333333333,4,2,1,50,0,0
177693,-133.333333333333,4,2,1,50,0,0
177937,-133.333333333333,4,2,1,50,0,0
178180,-133.333333333333,4,2,1,50,0,0
178425,-133.333333333333,4,2,1,50,0,0
178668,-133.333333333333,4,2,1,50,0,0
178791,-133.333333333333,4,2,1,50,0,0
179889,-1000,4,2,1,60,0,0
180011,-1000,4,2,1,5,0,0
181230,-1000,4,2,1,60,0,0
181352,-100,4,2,1,60,0,0
182328,-200,4,2,1,40,0,0
182450,-200,4,2,1,5,0,0
182572,-200,4,2,1,40,0,0
182694,-200,4,2,1,5,0,0
182816,-142.857142857143,4,2,1,50,0,0
182937,-142.857142857143,4,2,1,5,0,0
183059,-142.857142857143,4,2,1,50,0,0
183181,-142.857142857143,4,2,1,5,0,0
183303,-111.111111111111,4,2,1,60,0,0
183425,-111.111111111111,4,2,1,5,0,0
183547,-111.111111111111,4,2,1,60,0,0
183669,-111.111111111111,4,2,1,5,0,0
183791,-90.9090909090909,4,2,1,70,0,0
183913,-90.9090909090909,4,2,1,5,0,0
184035,-90.9090909090909,4,2,1,70,0,0
184157,-90.9090909090909,4,2,1,5,0,0
184279,-76.9230769230769,4,2,1,80,0,0
184401,-76.9230769230769,4,2,1,5,0,0
184523,-76.9230769230769,4,2,1,80,0,0
184645,-76.9230769230769,4,2,1,5,0,0
184767,-76.9230769230769,4,2,1,60,0,0
185620,-76.9230769230769,4,2,1,5,0,0
185742,-66.6666666666667,4,2,1,80,0,1
185925,-66.6666666666667,4,2,1,5,0,1
185986,-66.6666666666667,4,2,1,80,0,1
187694,-66.6666666666667,4,2,1,80,0,1
187877,-66.6666666666667,4,2,1,5,0,1
187938,-66.6666666666667,4,2,1,80,0,1
188913,-55.5555555555556,4,2,1,80,0,1
189401,-40,4,2,1,80,0,1
189645,-74.0740740740741,4,2,1,80,0,1
191291,-74.0740740740741,4,2,1,5,0,1
191352,-66.6666666666667,4,2,1,80,0,1
192328,-66.6666666666667,4,2,1,80,0,1
192511,-66.6666666666667,4,2,1,5,0,1
192572,-66.6666666666667,4,2,1,80,0,1
193486,-66.6666666666667,4,2,1,5,0,1
193547,-66.6666666666667,4,2,1,80,0,1
193730,-66.6666666666667,4,2,1,5,0,1
193791,-66.6666666666667,4,2,1,80,0,1
195498,-66.6666666666667,4,2,1,80,0,1
195681,-66.6666666666667,4,2,1,5,0,1
195742,-66.6666666666667,4,2,1,80,0,1
196718,-57.1428571428571,4,2,1,80,0,1
197206,-40,4,2,1,80,0,1
197450,-74.0740740740741,4,2,1,80,0,1
200864,-74.0740740740741,4,2,1,80,0,1
200925,-74.0740740740741,4,2,1,5,0,1
200986,-74.0740740740741,4,2,1,80,0,1
201047,-74.0740740740741,4,2,1,5,0,1
201108,-74.0740740740741,4,2,1,80,0,1
201169,-74.0740740740741,4,2,1,5,0,1
201230,-74.0740740740741,4,2,1,80,0,1
201291,-74.0740740740741,4,2,1,5,0,1
201352,-74.0740740740741,4,2,1,80,0,0
201840,-100,4,2,1,80,0,1
201962,-100,4,2,1,20,0,1
203242,-188.679245283019,4,2,1,5,0,0
203303,-66.6666666666667,4,2,1,80,0,1
204523,-66.6666666666667,4,2,1,80,0,1
205011,-40,4,2,1,80,0,1
205437,-50,4,2,1,5,0,1
205498,-74.0740740740741,4,2,1,80,0,1
206901,-74.0740740740741,4,2,1,5,0,1
206962,-74.0740740740741,4,2,1,80,0,1
207206,-74.0740740740741,4,2,1,80,0,1
207389,-74.0740740740741,4,2,1,5,0,1
207450,-74.0740740740741,4,2,1,80,0,1
207572,-74.0740740740741,4,2,1,80,0,1
207755,-74.0740740740741,4,2,1,5,0,1
207816,-74.0740740740741,4,2,1,80,0,1
207937,-74.0740740740741,4,2,1,80,0,1
208120,-74.0740740740741,4,2,1,5,0,1
208181,-74.0740740740741,4,2,1,80,0,1
209096,-74.0740740740741,4,2,1,5,0,1
209157,-74.0740740740741,4,2,1,80,0,1
209340,-74.0740740740741,4,2,1,5,0,1
209401,-74.0740740740741,4,2,1,80,0,1
211108,-66.6666666666667,4,2,1,80,0,1
211291,-66.6666666666667,4,2,1,5,0,1
211352,-66.6666666666667,4,2,1,80,0,1
212328,-57.1428571428571,4,2,1,80,0,1
212816,-44.4444444444445,4,2,1,80,0,1
213303,-74.0740740740741,4,2,1,80,0,1
215194,-74.0740740740741,4,2,1,5,0,1
215255,-74.0740740740741,4,2,1,80,0,1
215559,-74.0740740740741,4,2,1,5,0,1
215620,-74.0740740740741,4,2,1,80,0,1
215925,-74.0740740740741,4,2,1,5,0,1
215986,-74.0740740740741,4,2,1,80,0,1
216962,-74.0740740740741,4,2,1,80,0,0

[Colours]
Combo1 : 227,143,41
Combo2 : 109,133,228
Combo3 : 200,79,79
Combo4 : 136,112,207

[HitObjects]
256,192,377,5,4,1:2:0:0:
256,192,437,12,0,3547,0:0:0:0:
178,176,3669,5,0,1:0:0:0:
335,204,3791,2,0,L|268:194,1,62.9999980773926,8|0,0:0|0:0,0:0:0:0:
256,192,4279,5,4,1:2:0:0:
256,192,4340,12,0,7084,0:0:0:0:
256,192,7206,5,8,0:0:0:0:
363,75,7328,2,0,P|315:78|275:106,1,87.5,0|0,1:2|0:0,0:0:0:0:
440,134,7572,2,0,P|416:97|376:79,1,70,0|0,1:2|0:0,0:0:0:0:
430,226,7816,2,0,P|445:194|442:159,1,52.5000020027161,0|0,1:2|0:0,0:0:0:0:
348,174,8059,1,0,1:0:0:0:
361,332,8181,6,0,B|402:297|441:324|441:324|427:364|369:364,2,175,12|8|8,0:0|0:0|0:0,0:0:0:0:
273,310,8547,1,8,0:0:0:0:
273,310,8791,1,0,1:0:0:0:
162,225,8913,6,0,B|121:190|82:217|82:217|96:257|154:257,2,175,8|8|8,0:0|0:0|0:0,0:0:0:0:
256,192,9279,1,8,0:0:0:0:
256,192,9523,1,0,1:0:0:0:
239,74,9645,6,0,B|251:23,1,52.5000020027161,4|0,0:3|0:0,0:0:0:0:
337,57,9889,1,8,0:3:0:0:
337,57,10011,1,0,1:0:0:0:
169,140,10133,6,0,B|138:171|89:148|89:148|83:82|149:64,2,175,8|8|8,0:0|0:0|0:0,0:0:0:0:
256,192,10498,2,0,L|314:183,1,52.5000020027161,8|0,0:2|1:0,0:0:0:0:
322,180,10742,1,0,1:0:0:0:
398,248,10864,6,0,B|429:279|478:256|478:256|484:190|418:172,2,175,8|8|8,0:0|0:0|0:0,0:0:0:0:
324,318,11230,2,0,L|266:309,1,52.5000020027161,8|0,0:2|1:0,0:0:0:0:
258,306,11474,1,0,1:0:0:0:
182,254,11596,6,0,L|15:276,1,157.500006008148,4|0,1:2|0:0,0:0:0:0:
25,274,12084,6,0,B|87:241|87:241|92:178|50:137,2,175,8|8|8,0:0|0:0|0:0,0:0:0:0:
0,367,12450,1,8,0:0:0:0:
0,367,12694,1,0,1:0:0:0:
182,254,12816,6,0,B|244:287|244:287|249:350|207:391,2,175,8|8|8,0:0|0:0|0:0,0:0:0:0:
147,140,13182,1,8,0:0:0:0:
147,140,13426,1,0,1:0:0:0:
215,84,13547,6,0,L|269:90,1,52.5000020027161,4|0,0:3|0:0,0:0:0:0:
302,10,13791,1,8,0:3:0:0:
302,10,13913,1,0,1:0:0:0:
327,187,14035,6,0,B|433:170|433:170|467:103,2,175,8|8|8,0:0|0:0|0:0,0:0:0:0:
219,216,14401,6,0,P|255:270|311:293,1,122.500001168251,0|0,1:0|0:0,0:0:0:0:
267,89,14645,2,0,P|224:137|216:197,1,122.500001168251,0|0,1:0|0:0,0:0:0:0:
402,102,14889,2,0,P|343:73|283:81,1,122.500001168251,0|0,1:0|0:0,0:0:0:0:
267,89,15986,6,0,L|364:76,1,87.5,6|0,1:2|0:0,0:0:0:0:
198,24,16230,1,8,0:0:0:0:
259,184,16352,2,0,B|184:177|184:177|178:161|178:161|83:149,1,175,2|0,1:2|0:0,0:0:0:0:
14,142,16718,1,10,0:0:0:0:
84,313,16840,1,0,1:0:0:0:
197,276,16962,5,2,0:0:0:0:
283,288,17084,2,0,L|374:297,1,87.5,2|8,1:2|0:0,0:0:0:0:
370,296,17328,1,0,0:0:0:0:
479,175,17450,2,0,B|450:145|448:96|448:96|428:146|384:164,1,175,2|10,1:2|0:2,0:0:0:0:
391,160,17937,6,0,L|482:151,1,87.5,2|2,1:2|0:2,0:0:0:0:
353,77,18181,1,10,0:2:0:0:
283,288,18303,2,0,B|308:317|308:317|283:172,1,175,2|0,1:2|0:0,0:0:0:0:
264,97,18669,1,10,0:0:0:0:
86,165,18791,1,0,1:0:0:0:
159,224,18913,5,2,0:0:0:0:
171,138,19035,2,0,L|180:46,1,87.5,2|8,1:2|0:0,0:0:0:0:
98,29,19279,1,0,0:0:0:0:
256,24,19401,2,0,B|214:44|214:44|175:24|175:24|132:43|132:43|85:23,1,175,2|8,1:2|0:0,0:0:0:0:
97,28,19889,6,0,L|88:115,1,87.5,6|2,1:2|0:0,0:0:0:0:
159,224,20133,1,10,0:0:0:0:
38,283,20255,2,0,B|119:272|119:272|125:256|125:256|200:263,1,175,2|0,1:2|0:0,0:0:0:0:
282,278,20620,1,10,0:0:0:0:
433,367,20742,1,0,1:0:0:0:
358,241,20864,5,2,0:0:0:0:
426,285,20986,2,0,L|518:270,1,87.5,2|8,1:2|0:0,0:0:0:0:
512,270,21230,1,0,0:0:0:0:
412,93,21352,2,0,P|446:60|478:142,1,175,2|10,1:2|0:2,0:0:0:0:
478,141,21840,6,0,L|383:129,1,87.5,2|2,1:2|0:2,0:0:0:0:
312,119,22084,1,10,0:2:0:0:
128,266,22206,6,0,B|139:222|139:222|116:182,1,87.5,2|0,1:2|0:0,0:0:0:0:
24,199,22450,2,0,B|13:243|13:243|36:283,1,87.5,2|8,0:2|0:0,0:0:0:0:
210,335,22694,6,0,L|314:321,1,105.000004005432,2|0,1:2|0:0,0:0:0:0:
312,119,22937,2,0,L|207:105,1,105.000004005432,2|8,1:2|0:0,0:0:0:0:
491,313,23181,2,0,B|472:226|472:226|492:231|492:231|472:133,2,210.000008010865,2|2|2,0:2|0:2|1:2,0:0:0:0:
491,313,23791,6,0,L|386:299,1,87.5,6|2,1:2|0:2,0:0:0:0:
314,321,24035,1,10,0:2:0:0:
312,119,24157,2,0,B|349:153|349:153|483:132,1,175,2|0,1:2|0:0,0:0:0:0:
493,55,24523,1,10,0:2:0:0:
378,69,24645,1,0,1:0:0:0:
346,241,24767,5,2,0:0:0:0:
260,257,24889,2,0,L|168:270,1,87.5,2|8,1:2|0:0,0:0:0:0:
173,270,25133,1,0,0:0:0:0:
52,77,25255,2,0,B|95:51|144:69|154:119|154:119|135:134|123:162,1,175,2|10,1:2|0:2,0:0:0:0:
127,152,25742,6,0,L|140:65,1,87.5,2|2,1:2|0:2,0:0:0:0:
95,232,25986,1,10,0:2:0:0:
240,143,26108,2,0,B|248:218|248:218|268:230|268:230|278:317,1,175,2|0,1:2|0:0,0:0:0:0:
332,369,26474,1,10,0:0:0:0:
492,281,26596,1,0,1:0:0:0:
365,231,26718,5,2,0:0:0:0:
381,145,26840,2,0,L|394:53,1,87.5,2|8,1:2|0:0,0:0:0:0:
329,13,27084,1,0,0:0:0:0:
444,2,27206,2,0,B|451:11|469:12|469:12|396:55|397:-3|325:14,1,175,2|8,1:2|0:0,0:0:0:0:
329,13,27694,6,0,L|315:99,1,87.5,6|2,1:2|0:2,0:0:0:0:
211,183,27937,1,10,0:2:0:0:
295,294,28059,2,0,B|280:229|280:229|252:225|252:225|239:138,1,175,2|0,1:2|0:0,0:0:0:0:
231,59,28425,1,10,0:2:0:0:
118,234,28547,1,0,1:0:0:0:
66,47,28669,5,2,0:2:0:0:
23,112,28791,2,0,L|38:204,1,87.5,2|8,1:2|0:0,0:0:0:0:
38,197,29035,1,0,0:0:0:0:
180,361,29157,2,0,B|142:360|106:322|106:322|119:226,1,175,2|10,1:2|0:2,0:0:0:0:
117,233,29645,6,0,L|205:219,1,87.5,2|2,1:2|0:2,0:0:0:0:
283,205,29889,1,10,0:2:0:0:
177,139,30011,6,0,P|179:177|208:224,1,87.5,2|0,1:2|0:0,0:0:0:0:
260,58,30255,2,0,P|227:79|201:128,1,87.5,2|8,0:2|0:0,0:0:0:0:
371,90,30498,2,0,P|336:72|280:74,1,87.5,2|0,1:2|0:0,0:0:0:0:
359,300,30742,6,0,B|423:292|423:292|448:253|448:253|521:244,1,175,12|2,0:2|1:2,0:0:0:0:
511,245,31108,6,0,B|447:237|447:237|422:198|422:198|349:189,1,175,8|8,0:0|0:0,0:0:0:0:
264,129,31352,2,0,B|310:123|310:123|328:95|328:95|380:88,1,122.500001168251,8|8,0:3|0:3,0:0:0:0:
421,3,31596,5,4,1:2:0:0:
421,3,31840,1,8,0:2:0:0:
421,3,32084,2,0,L|332:13,1,70,2|0,1:2|0:2,0:0:0:0:
269,20,32328,1,8,0:2:0:0:
407,118,32450,2,0,L|292:108,1,105,2|0,1:2|0:0,0:0:0:0:
288,108,32694,2,0,B|309:140|309:140|304:176,1,70,2|8,0:2|0:2,0:0:0:0:
177,203,32937,1,2,1:2:0:0:
177,203,33059,2,0,B|156:171|156:171|161:135,2,70,0|0|8,0:0|0:2|0:2,0:0:0:0:
0,233,33547,6,0,P|39:215|80:286,1,140,2|8,1:2|0:2,0:0:0:0:
73,377,33913,2,0,P|76:334|158:334,1,140,2|0,1:2|0:2,0:0:0:0:
232,376,34279,1,8,0:2:0:0:
232,376,34401,2,0,L|310:367,1,70,0|0,0:2|0:2,0:0:0:0:
392,355,34645,1,0,1:2:0:0:
512,187,34767,2,0,L|434:178,1,70,8|0,0:2|0:2,0:0:0:0:
379,122,35011,6,0,P|343:129|314:153,1,70,2|0,1:2|0:0,0:0:0:0:
239,181,35255,1,10,0:2:0:0:
298,239,35376,1,2,0:2:0:0:
230,189,35498,1,0,1:2:0:0:
230,189,35742,2,0,L|240:115,1,70,8|0,0:2|0:2,0:0:0:0:
0,18,35986,6,0,P|36:25|65:49,1,70,2|0,1:2|0:2,0:0:0:0:
140,77,36230,1,10,0:2:0:0:
81,135,36351,1,2,1:2:0:0:
149,85,36473,1,0,0:2:0:0:
149,85,36718,2,0,L|139:11,1,70,8|0,0:2|0:2,0:0:0:0:
361,48,36962,2,0,B|383:19|383:19|351:146,1,140,2|10,1:2|0:2,0:0:0:0:
297,256,37328,1,2,0:2:0:0:
297,256,37450,6,0,B|351:240|351:240|361:219|361:219|422:214,1,140,2|10,1:2|0:2,0:0:0:0:
449,341,37816,2,0,L|362:326,1,70,0|2,0:2|1:2,0:0:0:0:
277,170,38059,2,0,L|190:185,1,70,0|8,0:2|0:2,0:0:0:0:
51,226,38303,6,0,P|35:261|36:295,1,70,2|0,1:2|0:2,0:0:0:0:
212,375,38547,1,2,1:2:0:0:
212,375,38669,2,0,P|211:340|196:308,1,70,8|0,0:2|0:2,0:0:0:0:
63,137,38913,6,0,L|131:125,1,70,2|0,1:2|0:2,0:0:0:0:
143,22,39157,2,0,L|108:16,2,35,8|0|0,0:2|0:0|0:2,0:0:0:0:
223,39,39401,5,4,1:2:0:0:
223,39,39645,1,8,0:2:0:0:
432,93,39889,5,2,1:2:0:0:
432,93,40011,2,0,L|507:82,1,70,0|8,0:2|0:2,0:0:0:0:
352,165,40255,2,0,B|389:172|415:198,1,70,2|0,1:2|0:2,0:0:0:0:
329,43,40498,2,0,B|364:29|385:0,1,70,2|8,0:2|0:2,0:0:0:0:
271,120,40742,2,0,P|221:76|157:94,1,140,2|0,1:2|0:2,0:0:0:0:
115,170,41107,1,8,0:2:0:0:
247,333,41352,6,0,P|274:284|276:201,1,140,2|8,1:2|0:2,0:0:0:0:
87,302,41718,2,0,P|85:232|116:170,1,140,2|0,1:2|0:2,0:0:0:0:
190,132,42084,2,0,B|215:114|223:72|223:72|243:107|272:121,1,140,10|0,0:2|0:2,0:0:0:0:
369,212,42450,1,2,1:2:0:0:
369,212,42572,2,0,P|349:240|345:277,1,70,8|0,0:2|0:2,0:0:0:0:
467,335,42816,6,0,P|494:271|487:202,1,140,2|10,1:2|0:2,0:0:0:0:
437,134,43181,1,2,0:2:0:0:
489,57,43303,2,0,B|472:86|472:86|359:100,1,140,0|8,1:2|0:2,0:0:0:0:
34,87,43791,6,0,P|84:41|155:47,1,140,2|10,1:2|0:2,0:0:0:0:
133,254,44157,1,2,1:2:0:0:
133,254,44279,2,0,P|110:200|123:99,1,140,0|8,0:2|0:2,0:0:0:0:
253,237,44645,1,0,0:2:0:0:
253,237,44767,6,0,P|259:167|234:103,1,140,2|10,1:2|0:2,0:0:0:0:
285,35,45133,1,2,0:2:0:0:
285,35,45255,2,0,L|430:18,1,140,0|8,1:2|0:2,0:0:0:0:
491,172,45742,2,0,L|421:180,1,70,2|0,1:2|0:2,0:0:0:0:
344,145,45986,1,8,0:2:0:0:
285,205,46108,1,2,1:2:0:0:
360,242,46230,1,0,0:2:0:0:
262,128,46352,5,8,0:2:0:0:
360,242,46474,2,0,L|347:315,1,70,8|8,0:2|0:3,0:0:0:0:
288,370,46718,1,8,0:3:0:0:
69,278,46840,2,0,B|63:241|78:208|78:208|113:213|145:234,1,140,4|8,1:2|0:2,0:0:0:0:
152,240,47145,1,8,0:2:0:0:
153,241,47206,6,0,P|134:203|132:175,1,70,6|0,1:2|0:2,0:0:0:0:
238,255,47450,2,0,P|266:234|285:205,1,70,10|0,0:2|0:2,0:0:0:0:
187,108,47694,5,2,1:2:0:0:
177,24,47816,1,0,0:2:0:0:
207,101,47937,2,0,L|280:93,1,70,10|0,0:2|0:2,0:0:0:0:
343,41,48181,2,0,L|386:100,1,70,2|0,1:2|0:2,0:0:0:0:
460,135,48425,2,0,L|430:202,1,70,10|0,0:2|0:2,0:0:0:0:
428,283,48669,2,0,L|355:290,1,70,0|0,1:2|0:2,0:0:0:0:
287,244,48913,6,0,P|245:257|228:318,1,105,10|0,0:2|0:0,0:0:0:0:
235,323,49157,2,0,L|162:315,1,70,0|0,1:2|0:2,0:0:0:0:
0,147,49401,6,0,P|41:160|58:221,1,105,10|0,0:2|0:0,0:0:0:0:
52,226,49645,2,0,L|125:218,1,70,0|0,1:2|0:2,0:0:0:0:
288,45,49889,6,0,P|246:58|229:119,1,105,10|0,0:2|0:0,0:0:0:0:
236,124,50133,2,0,L|163:116,1,70,0|0,1:2|0:2,0:0:0:0:
407,60,50376,6,0,B|430:86|430:86|421:125,1,70,10|0,0:2|0:2,0:0:0:0:
251,184,50620,2,0,B|228:158|228:158|237:119,1,70,2|0,1:2|0:2,0:0:0:0:
481,240,50864,6,0,B|455:217|455:217|335:244,1,140,10|0,0:2|1:2,0:0:0:0:
247,271,51230,1,0,0:0:0:0:
376,341,51352,2,0,L|306:331,1,70,10|0,0:2|0:2,0:0:0:0:
251,184,51596,2,0,L|181:194,1,70,2|0,1:2|0:2,0:0:0:0:
89,299,51840,6,0,P|120:313|155:316,1,70,10|0,0:2|0:2,0:0:0:0:
90,118,52084,2,0,P|53:121|14:143,1,70,2|0,1:2|0:2,0:0:0:0:
181,193,52328,6,0,L|190:115,1,70,10|0,0:2|0:2,0:0:0:0:
283,10,52572,2,0,L|292:88,1,70,2|0,1:2|0:0,0:0:0:0:
366,126,52816,1,10,0:2:0:0:
366,126,53059,6,0,P|385:97|414:78,2,70,2|2|10,1:2|0:2|0:2,0:0:0:0:
433,184,53425,2,0,P|464:169|499:166,1,70,2|0,0:2|1:2,0:0:0:0:
416,266,53669,1,2,0:2:0:0:
349,213,53791,1,8,0:2:0:0:
280,262,53913,2,0,L|274:338,1,70,2|0,0:2|1:2,0:0:0:0:
166,384,54157,5,0,0:2:0:0:
166,384,54279,2,0,L|160:308,1,70,10|0,0:2|0:2,0:0:0:0:
254,176,54523,2,0,L|191:219,1,70,2|0,1:2|0:2,0:0:0:0:
57,188,54767,2,0,B|29:196|29:196|97:232,1,105,10|0,0:2|0:0,0:0:0:0:
97,232,55011,6,0,P|77:194|73:156,1,70,6|0,1:2|0:2,0:0:0:0:
155,139,55255,2,0,P|156:95|171:60,1,70,10|0,0:2|0:2,0:0:0:0:
289,9,55498,2,0,P|268:47|264:85,1,70,2|0,1:2|0:2,0:0:0:0:
346,102,55742,2,0,P|347:145|362:180,1,70,10|0,0:2|0:2,0:0:0:0:
474,145,55986,2,0,B|486:86|486:86|501:72|501:72|512:8,2,140,2|10|0,1:2|0:2|1:2,0:0:0:0:
504,229,56596,1,0,0:2:0:0:
504,229,56718,6,0,B|432:239|432:239|394:300,1,140,10|0,0:2|1:2,0:0:0:0:
326,341,57084,1,0,0:2:0:0:
326,341,57206,2,0,B|254:331|254:331|216:270,1,140,10|0,0:2|1:2,0:0:0:0:
247,196,57572,1,0,0:2:0:0:
247,196,57694,2,0,L|264:54,1,140,10|0,0:2|1:2,0:0:0:0:
49,62,58059,1,0,0:2:0:0:
49,62,58181,2,0,B|62:93|62:93|103:99,1,70,10|0,0:2|0:2,0:0:0:0:
263,56,58425,2,0,B|229:51|229:51|203:84,1,70,2|0,1:2|0:2,0:0:0:0:
161,244,58669,1,12,1:2:0:0:
5,291,58913,5,8,1:3:0:0:
31,181,59035,1,8,1:3:0:0:
161,244,59157,2,0,L|91:252,3,70,8|8|4|4,0:3|0:3|0:3|0:3,0:0:0:0:
224,171,59645,5,8,0:2:0:0:
250,281,59767,1,8,0:2:0:0:
380,218,59889,2,0,L|302:208,3,70,4|4|4|4,0:3|0:3|0:3|0:3,0:0:0:0:
461,194,60376,6,0,B|485:195|485:195|510:185,2,46.6666666666667,8|4|8,0:3|0:3|0:3,0:0:0:0:
414,120,60620,2,0,B|392:119|392:119|369:129,2,46.6666666666667,4|8|0,0:3|0:3|0:0,0:0:0:0:
490,89,60864,5,12,0:2:0:0:
327,54,60986,1,8,0:2:0:0:
502,93,61108,5,8,0:2:0:0:
287,127,61230,1,8,0:2:0:0:
287,127,61596,2,0,L|252:130,4,28
3,54,62816,6,0,L|142:35,1,131.25,6|0,1:2|0:0,0:0:0:0:
146,34,63059,2,0,L|133:126,1,87.5,8|0,0:2|0:2,0:0:0:0:
0,162,63303,2,0,L|12:249,1,87.5,2|0,1:2|1:2,0:0:0:0:
200,193,63547,1,8,1:2:0:0:
41,372,63669,6,0,P|91:370|133:252,1,175,0|0,1:2|1:2,0:0:0:0:
200,193,64035,2,0,P|249:211|273:245,1,87.5,10|0,0:2|0:2,0:0:0:0:
455,108,64279,5,2,1:2:0:0:
427,80,64360,1,2,0:2:0:0:
390,70,64441,1,2,0:2:0:0:
351,80,64523,2,0,P|319:106|313:169,1,87.5,8|0,0:2|0:2,0:0:0:0:
299,349,64767,6,0,B|356:340|356:340|372:345|372:345|429:338,1,131.25,6|0,1:2|0:0,0:0:0:0:
439,347,65011,2,0,L|453:253,1,87.5,8|0,0:2|0:2,0:0:0:0:
457,181,65255,1,0,1:2:0:0:
269,237,65376,1,0,1:2:0:0:
310,151,65497,1,10,1:2:0:0:
179,114,65620,2,0,P|170:165|187:203,1,87.5,0|0,1:2|0:0,0:0:0:0:
269,237,65864,1,0,1:2:0:0:
69,374,65986,6,0,B|79:270|79:270|69:249|69:249|78:124,1,245.000002336502,14|0,0:2|0:2,0:0:0:0:
179,114,66352,1,0,1:2:0:0:
106,378,66474,6,0,B|86:260|86:260|69:240|69:240|44:109,1,280,14|0,1:2|1:2,0:0:0:0:
25,23,66962,5,8,0:2:0:0:
25,23,67206,2,0,B|10:37|5:63|5:63|26:50|52:51,1,87.5,2|0,1:2|1:2,0:0:0:0:
145,11,67450,2,0,L|132:108,1,87.5,10|0,1:2|1:2,0:0:0:0:
378,97,67694,6,0,L|367:11,1,87.5,2|0,0:2|1:2,0:0:0:0:
487,23,67938,2,0,B|502:37|507:63|507:63|486:50|467:51,1,87.5,10|0,0:2|0:2,0:0:0:0:
466,136,68181,1,0,1:2:0:0:
277,84,68425,1,10,0:2:0:0:
399,342,68669,6,0,P|410:294|463:226,1,131.25,12|0,0:2|0:0,0:0:0:0:
466,225,68913,1,0,1:2:0:0:
391,349,69035,6,0,P|349:322|263:312,1,131.25,12|0,0:2|0:0,0:0:0:0:
260,313,69279,1,0,1:2:0:0:
386,337,69401,6,0,P|370:292|397:206,1,131.25,12|0,0:2|0:0,0:0:0:0:
397,208,69645,1,0,1:2:0:0:
376,341,69767,6,0,P|358:296|283:247,1,131.25,12|0,0:2|0:0,0:0:0:0:
283,249,70011,1,0,1:2:0:0:
279,142,70133,5,8,0:2:0:0:
288,63,70255,1,8,0:2:0:0:
345,10,70376,1,8,0:2:0:0:
423,1,70498,1,8,0:2:0:0:
495,31,70620,6,0,B|486:97|486:97|481:104|481:104|471:172,1,131.25,6|0,1:2|0:0,0:0:0:0:
478,173,70864,2,0,L|385:159,1,87.5,8|0,0:2|0:2,0:0:0:0:
259,312,71108,2,0,L|346:299,1,87.5,2|0,1:2|1:2,0:0:0:0:
279,142,71351,1,8,1:2:0:0:
137,367,71474,6,0,P|152:318|53:245,1,175,0|0,1:2|1:2,0:0:0:0:
12,176,71840,2,0,P|22:136|68:104,1,87.5,10|0,0:2|0:2,0:0:0:0:
222,246,72084,5,2,1:2:0:0:
202,279,72165,1,2,0:2:0:0:
168,299,72246,1,2,0:2:0:0:
129,299,72328,2,0,P|92:281|70:222,1,87.5,8|0,0:2|0:2,0:0:0:0:
129,18,72572,6,0,B|201:8|182:63|255:59,1,131.25,6|0,1:2|0:0,0:0:0:0:
260,59,72816,2,0,P|235:94|236:144,1,87.5,8|0,0:2|0:2,0:0:0:0:
311,208,73059,1,0,1:2:0:0:
410,104,73181,1,0,1:2:0:0:
321,122,73302,1,10,0:2:0:0:
447,256,73425,2,0,P|472:221|471:171,1,87.5,0|0,1:2|0:0,0:0:0:0:
504,91,73669,1,0,0:2:0:0:
311,208,73791,6,0,B|358:188|414:216|431:270|402:318|402:318|412:290|402:266|382:256,1,245.000002336502,14|0,0:2|1:2,0:0:0:0:
492,329,74157,1,0,1:2:0:0:
236,290,74279,6,0,L|528:244,1,280,14|0,0:2|1:2,0:0:0:0:
489,152,74767,5,8,0:2:0:0:
489,152,75011,2,0,B|476:138|465:116|465:116|474:140|476:162,1,87.5,2|0,1:2|1:2,0:0:0:0:
397,224,75255,2,0,L|311:208,1,87.5,10|0,0:2|1:2,0:0:0:0:
201,176,75498,6,0,L|114:159,1,87.5,2|0,0:2|1:2,0:0:0:0:
36,225,75742,2,0,B|38:244|47:268|47:268|36:246|23:232,1,87.5,10|0,0:2|0:2,0:0:0:0:
1,148,75986,1,0,1:2:0:0:
45,43,76230,6,0,L|131:26,1,87.5,10|0,0:2|0:2,0:0:0:0:
139,30,76413,1,0,0:0:0:0:
145,35,76474,6,0,P|186:72|176:146,1,131.25,12|0,0:2|0:0,0:0:0:0:
173,150,76718,1,0,1:2:0:0:
161,27,76840,6,0,P|207:57|276:28,1,131.25,12|0,0:2|0:0,0:0:0:0:
278,24,77084,1,0,1:2:0:0:
334,177,77206,1,12,0:2:0:0:
334,177,77450,5,8,0:2:0:0:
173,150,77572,1,8,0:2:0:0:
278,24,77694,2,0,L|261:118,1,87.5,0|0,1:2|1:2,0:0:0:0:
243,211,77937,5,8,0:3:0:0:
239,228,78059,1,8,0:3:0:0:
504,154,78181,5,8,0:2:0:0:
334,177,78303,1,8,0:2:0:0:
440,304,78425,1,6,1:2:0:0:
330,33,86230,6,0,P|312:51|309:106,1,84,4|0,1:2|1:2,0:0:0:0:
309,106,88181,6,0,B|361:93|361:93|378:60|378:60|435:47,2,140,12|8|8,0:2|0:2|0:2,0:0:0:0:
223,122,88547,1,8,0:2:0:0:
309,106,88913,6,0,B|361:93|361:93|378:60|378:60|435:47,2,140,12|8|8,0:2|0:2|0:2,0:0:0:0:
223,122,89279,1,8,0:2:0:0:
474,266,89523,6,0,L|480:297,2,23.3333333333333,0|0|0,1:0|0:0|0:0,0:0:0:0:
472,252,89645,2,0,L|507:258,1,35,12|0,1:2|0:2,0:0:0:0:
405,162,89767,2,0,L|440:168,1,35,8|0,0:2|0:2,0:0:0:0:
306,214,89889,2,0,L|341:220,1,35,0|0,1:2|0:0,0:0:0:0:
438,361,90133,6,0,L|298:337,1,140,4|0,1:2|0:0,0:0:0:0:
300,337,90498,1,0,0:2:0:0:
89,241,90620,1,10,0:2:0:0:
157,289,90742,2,0,L|241:274,1,70,2|0,0:2|0:0,0:0:0:0:
426,49,90986,6,0,L|411:133,1,70,2|0,0:2|1:2,0:0:0:0:
306,214,91230,2,0,L|291:130,1,70,2|0,0:2|0:2,0:0:0:0:
456,22,91474,1,2,0:2:0:0:
456,22,91596,2,0,L|432:162,1,140,10|0,0:2|0:0,0:0:0:0:
432,159,91962,1,0,0:2:0:0:
175,49,92084,6,0,L|315:25,1,140,2|0,1:2|0:0,0:0:0:0:
312,25,92450,1,2,0:2:0:0:
193,138,92572,1,8,0:2:0:0:
193,138,92694,2,0,L|333:114,1,140,0|0,0:2|0:2,0:0:0:0:
80,124,93059,6,0,L|91:55,1,70,0|0,1:2|0:2,0:0:0:0:
294,145,93303,2,0,L|282:213,1,70,0|0,0:2|0:2,0:0:0:0:
53,330,93547,6,0,L|29:190,1,140,10|0,0:2|0:2,0:0:0:0:
80,124,93913,1,2,0:2:0:0:
13,175,94035,1,0,1:2:0:0:
13,175,94279,2,0,L|24:106,1,70,0|0,0:2|0:0,0:0:0:0:
222,28,94523,5,10,0:2:0:0:
222,28,94645,2,0,L|209:100,1,70,2|0,0:2|0:0,0:0:0:0:
249,234,94889,1,2,0:2:0:0:
182,183,95011,1,0,1:2:0:0:
182,183,95255,2,0,L|193:251,1,70,0|0,0:2|0:2,0:0:0:0:
391,372,95498,6,0,L|367:232,1,140,10|0,0:2|0:0,0:0:0:0:
418,166,95864,5,2,0:2:0:0:
351,217,95986,1,0,1:2:0:0:
351,217,96108,2,0,L|362:148,1,70
381,65,96352,1,0,0:2:0:0:
381,65,96474,6,0,L|241:89,1,140,8|0,0:2|0:0,0:0:0:0:
58,60,96840,1,0,0:2:0:0:
217,103,96962,6,0,L|77:79,1,140,0|0,1:2|0:2,0:0:0:0:
78,79,97450,2,0,L|102:217,1,140,10|0,0:2|0:2,0:0:0:0:
102,217,97937,6,0,L|239:193,1,140,0|0,1:2|0:0,0:0:0:0:
239,193,98303,1,0,0:2:0:0:
310,373,98425,1,10,0:2:0:0:
322,294,98547,2,0,L|333:225,1,70,0|0,0:2|0:0,0:0:0:0:
472,40,98791,6,0,L|483:108,1,70,2|0,0:2|1:2,0:0:0:0:
319,143,99035,2,0,L|330:74,1,70,2|0,0:2|0:2,0:0:0:0:
485,5,99279,1,2,0:2:0:0:
485,5,99401,2,0,L|508:142,1,140,8|0,0:2|0:0,0:0:0:0:
459,214,99767,1,0,0:2:0:0:
489,320,99889,6,0,L|351:296,1,140,2|0,1:2|0:0,0:0:0:0:
351,296,100255,1,2,0:2:0:0:
239,193,100376,1,8,0:2:0:0:
239,193,100498,2,0,L|102:217,1,140,0|0,0:2|0:2,0:0:0:0:
20,230,100864,6,0,L|8:298,1,70,0|0,1:2|0:2,0:0:0:0:
146,104,101108,2,0,L|134:35,1,70,0|0,0:2|0:2,0:0:0:0:
292,146,101352,6,0,L|268:283,1,140,10|2,0:2|0:2,0:0:0:0:
208,343,101718,1,2,0:2:0:0:
280,299,101840,1,0,1:2:0:0:
280,299,102084,2,0,L|348:310,1,70,0|0,0:2|0:0,0:0:0:0:
428,233,102328,6,0,L|451:95,1,140,10|0,0:2|0:0,0:0:0:0:
512,36,102694,1,2,0:2:0:0:
440,80,102816,1,0,1:2:0:0:
440,80,103060,2,0,L|371:68,1,70,0|0,0:2|0:2,0:0:0:0:
225,22,103303,6,0,L|87:45,1,140,10|2,0:2|0:2,0:0:0:0:
207,111,103669,2,0,L|138:122,1,70,2|0,1:2|0:0,0:0:0:0:
204,253,105133,5,0,1:2:0:0:
204,253,105194,1,0,1:2:0:0:
204,253,105255,2,0,L|197:208,1,35,8|0,0:2|0:0,0:0:0:0:
291,311,105376,2,0,L|284:266,1,35,0|0,1:2|0:0,0:0:0:0:
217,377,105498,2,0,L|210:332,1,35,8|0,0:2|0:0,0:0:0:0:
125,312,105742,6,0,B|105:326|105:326|23:313,1,105,6|0,1:2|0:0,0:0:0:0:
11,302,105986,2,0,L|-2:222,1,70,10|0,0:2|0:2,0:0:0:0:
100,146,106230,1,2,1:2:0:0:
86,228,106351,1,0,0:2:0:0:
115,148,106474,2,0,L|195:135,1,70,10|0,0:2|0:2,0:0:0:0:
230,48,106718,2,0,L|310:61,1,70,2|0,1:2|0:2,0:0:0:0:
303,194,106962,2,0,L|383:181,1,70,10|0,0:2|0:2,0:0:0:0:
489,117,107206,5,0,1:2:0:0:
474,221,107328,1,0,0:2:0:0:
474,222,107450,2,0,L|466:152,1,70,10|0,0:2|0:0,0:0:0:0:
339,380,107694,5,0,1:2:0:0:
324,276,107816,1,0,0:2:0:0:
324,275,107938,2,0,L|316:345,1,70,10|0,0:2|0:0,0:0:0:0:
209,144,108181,5,0,1:2:0:0:
194,248,108303,1,0,0:2:0:0:
194,249,108425,2,0,L|186:179,2,70,10|0|0,0:2|0:2|1:2,0:0:0:0:
105,66,108791,1,0,0:2:0:0:
105,66,108913,2,0,B|83:86|83:86|36:93,1,70,10|0,0:2|0:2,0:0:0:0:
238,43,109157,2,0,B|216:23|216:23|169:16,1,70,2|0,1:2|0:2,0:0:0:0:
300,153,109401,1,10,0:2:0:0:
404,84,109523,1,0,0:0:0:0:
414,205,109645,6,0,B|447:221|447:221|519:206,1,105,4|0,1:2|0:0,0:0:0:0:
510,220,109889,2,0,L|500:294,1,70,10|0,0:2|0:2,0:0:0:0:
390,375,110133,1,2,1:2:0:0:
378,293,110254,1,0,0:2:0:0:
374,376,110376,2,0,L|300:366,1,70,10|0,0:2|0:2,0:0:0:0:
245,223,110620,2,0,L|171:233,1,70,2|0,1:2|0:2,0:0:0:0:
106,342,110864,2,0,L|32:332,1,70,10|0,0:2|0:2,0:0:0:0:
100,198,111108,2,0,B|84:230|84:230|46:243,1,70,2|0,1:2|0:0,0:0:0:0:
18,93,111352,2,0,B|52:86|52:86|30:119,1,70,10|0,0:2|0:0,0:0:0:0:
12,107,111596,6,0,P|18:76|34:35,2,70,2|2|10,1:2|0:2|0:2,0:0:0:0:
131,19,111962,2,0,P|153:39|182:74,1,70,2|0,0:2|1:2,0:0:0:0:
79,182,112206,2,0,P|113:176|147:166,1,70,2|8,0:2|0:2,0:0:0:0:
282,256,112450,2,0,P|259:235|230:200,1,70,2|0,0:2|1:2,0:0:0:0:
333,93,112694,5,0,0:2:0:0:
333,93,112816,2,0,P|298:98|265:109,1,70,10|0,0:2|0:2,0:0:0:0:
428,87,113059,2,0,P|413:55|394:25,1,70,2|0,1:2|0:2,0:0:0:0:
462,179,113303,2,0,P|489:156|512:130,1,70,10|0,0:2|0:2,0:0:0:0:
371,178,113547,6,0,L|390:291,1,105,6|0,1:2|0:0,0:0:0:0:
399,295,113791,2,0,L|324:280,1,70,10|0,0:2|0:2,0:0:0:0:
270,163,114035,1,2,1:2:0:0:
184,177,114156,1,0,0:2:0:0:
263,148,114279,2,0,L|277:73,1,70,10|0,0:2|0:2,0:0:0:0:
159,199,114523,2,0,L|173:273,1,70,2|0,1:2|0:2,0:0:0:0:
39,164,114767,2,0,L|53:89,1,70,10|0,0:2|0:2,0:0:0:0:
95,13,115011,5,0,1:2:0:0:
189,58,115133,1,0,0:2:0:0:
189,58,115255,2,0,P|154:57|121:44,1,70,10|0,0:2|0:0,0:0:0:0:
307,5,115498,5,0,1:2:0:0:
287,107,115620,1,0,0:2:0:0:
286,106,115742,2,0,P|277:72|282:37,1,70,10|0,0:2|0:2,0:0:0:0:
368,207,115986,5,0,1:2:0:0:
264,214,116108,1,0,0:2:0:0:
264,214,116230,2,0,P|294:197|329:193,1,70,10|0,0:2|0:0,0:0:0:0:
183,304,116474,5,0,1:2:0:0:
150,205,116596,1,0,0:2:0:0:
149,204,116718,2,0,P|173:228|186:261,1,70,10|0,0:2|0:2,0:0:0:0:
93,299,116962,2,0,P|75:337|53:357,1,70,2|0,1:2|0:2,0:0:0:0:
0,247,117206,1,14,1:2:0:0:
0,247,117450,5,8,1:3:0:0:
26,77,117572,1,8,1:3:0:0:
9,227,117694,2,0,L|0:155,3,70,8|8|4|4,0:3|0:3|0:3|0:3,0:0:0:0:
133,29,118181,5,8,0:2:0:0:
159,199,118303,1,8,0:2:0:0:
142,49,118425,2,0,L|133:121,3,70,4|4|4|4,0:3|0:3|0:3|0:3,0:0:0:0:
244,40,118913,6,0,B|270:36|270:36|294:53,2,46.6666666666667,8|4|8,0:3|0:3|0:3,0:0:0:0:
346,106,119157,2,0,B|362:117|362:117|388:113,2,46.6666666666667,4|8|0,0:3|0:3|0:0,0:0:0:0:
478,81,119401,5,12,0:2:0:0:
443,244,119523,1,8,0:2:0:0:
482,69,119645,5,8,0:2:0:0:
512,290,119767,1,8,0:2:0:0:
512,290,120133,2,0,P|509:306|502:321,4,28
99,350,121352,6,0,P|47:334|31:254,1,131.25,6|0,1:2|0:0,0:0:0:0:
35,247,121596,2,0,P|76:217|140:237,1,87.5,8|0,0:2|0:2,0:0:0:0:
310,324,121840,2,0,P|273:348|230:349,1,87.5,2|0,1:2|1:2,0:0:0:0:
191,196,122083,1,8,1:2:0:0:
325,73,122206,6,0,B|283:125|283:125|306:231,1,175,0|0,1:2|1:2,0:0:0:0:
484,133,122572,2,0,L|384:124,1,87.5,10|0,0:2|0:2,0:0:0:0:
364,299,122816,5,2,1:2:0:0:
336,321,122897,1,2,0:2:0:0:
300,321,122978,1,2,0:2:0:0:
266,310,123059,2,0,B|231:287|231:287|221:235,1,87.5,8|0,0:2|0:2,0:0:0:0:
219,41,123303,6,0,B|141:30|176:95|72:83,1,131.25,6|0,1:2|0:0,0:0:0:0:
86,84,123547,2,0,P|136:107|153:149,1,87.5,8|0,0:2|0:2,0:0:0:0:
153,247,123791,2,0,B|110:257|110:257|97:298,1,87.5,0|0,1:2|1:2,0:0:0:0:
6,263,124034,1,10,1:2:0:0:
271,354,124157,2,0,B|284:312|284:312|253:278,1,87.5,0|0,1:2|0:0,0:0:0:0:
153,247,124401,1,0,1:2:0:0:
446,360,124523,6,0,B|498:207|418:283|476:112,1,245.000002336502,14|0,0:2|0:2,0:0:0:0:
504,45,124889,1,0,1:2:0:0:
505,383,125011,6,0,B|483:178|430:312|406:91,1,315.000012016297,14|0,1:2|1:2,0:0:0:0:
449,5,125498,5,8,0:2:0:0:
449,5,125742,2,0,P|480:10|449:11,1,87.5,2|0,1:2|1:2,0:0:0:0:
350,28,125986,2,0,P|325:69|336:119,1,87.5,10|0,1:2|1:2,0:0:0:0:
183,107,126230,6,0,P|186:64|162:28,1,87.5,2|0,0:2|1:2,0:0:0:0:
62,16,126474,2,0,P|32:7|63:5,1,87.5,10|0,0:2|0:2,0:0:0:0:
51,180,126718,1,0,1:2:0:0:
182,106,126962,1,10,0:2:0:0:
340,145,127206,6,0,B|300:184|300:184|317:264,1,131.25,12|0,0:2|0:0,0:0:0:0:
319,270,127450,1,0,1:2:0:0:
512,257,127572,6,0,B|498:203|498:203|420:178,1,131.25,12|0,0:2|0:0,0:0:0:0:
413,175,127816,1,0,1:2:0:0:
330,350,127937,6,0,B|384:365|384:365|445:310,1,131.25,12|0,0:2|0:0,0:0:0:0:
449,304,128181,2,0,L|469:396,1,87.5,8|8,0:2|0:2,0:0:0:0:
358,59,128425,1,0,1:2:0:0:
340,145,128546,1,0,1:2:0:0:
424,120,128669,2,0,L|510:139,1,87.5,8|8,0:3|0:3,0:0:0:0:
239,76,128913,1,4,0:3:0:0:
0,187,129157,6,0,B|79:183|41:130|121:127,1,131.25,6|0,1:2|0:0,0:0:0:0:
127,128,129401,2,0,P|168:151|183:195,1,87.5,8|0,0:2|0:2,0:0:0:0:
35,353,129645,2,0,P|36:310|60:273,1,87.5,2|0,1:2|1:2,0:0:0:0:
315,283,129888,1,8,1:2:0:0:
269,355,130011,6,0,B|152:374|152:374|113:330,1,175,0|0,1:2|1:2,0:0:0:0:
262,157,130376,2,0,B|349:148,1,87.5,10|0,0:2|0:2,0:0:0:0:
59,267,130620,5,2,1:2:0:0:
25,253,130701,1,2,0:2:0:0:
7,222,130782,1,2,0:2:0:0:
0,187,130864,2,0,B|2:145|2:145|41:111,1,87.5,10|0,0:2|0:2,0:0:0:0:
249,78,131108,6,0,B|309:72|309:72|319:84|319:84|378:80,1,131.25,4|0,1:2|0:0,0:0:0:0:
391,93,131352,2,0,L|407:7,1,87.5,8|0,0:2|0:2,0:0:0:0:
256,170,131596,2,0,L|272:256,1,87.5,0|0,1:2|1:2,0:0:0:0:
356,198,131839,1,10,0:2:0:0:
148,86,131962,2,0,L|164:0,1,87.5,0|0,1:2|0:0,0:0:0:0:
249,78,132206,1,0,0:2:0:0:
186,291,132328,6,0,B|160:306|160:306|83:254|83:254|131:175|131:175|161:178,1,245.000002336502,14|0,0:2|1:2,0:0:0:0:
56,109,132694,1,0,1:2:0:0:
278,267,132816,6,0,P|176:249|-5:358,1,315.000012016297,14|0,0:2|1:2,0:0:0:0:
1,216,133303,5,8,0:2:0:0:
1,216,133547,2,0,B|-1:195|14:175|14:175|21:199|11:218,1,87.5,2|0,1:2|1:2,0:0:0:0:
106,309,133791,2,0,P|137:314|192:281,1,87.5,10|0,0:2|1:2,0:0:0:0:
256,170,134035,6,0,P|292:147|335:151,1,87.5,2|0,0:2|1:2,0:0:0:0:
430,243,134279,2,0,B|420:261|426:285|426:285|442:265|440:244,1,87.5,10|0,0:2|0:2,0:0:0:0:
497,148,134523,1,0,1:2:0:0:
441,22,134767,6,0,P|404:44|361:40,1,87.5,10|2,0:2|0:2,0:0:0:0:
348,35,134950,1,2,0:0:0:0:
336,28,135011,6,0,B|315:68|315:68|338:163,1,131.25,12|0,0:2|0:0,0:0:0:0:
339,164,135255,1,0,1:2:0:0:
398,334,135376,6,0,B|373:295|373:295|280:268,1,131.25,12|0,0:2|0:0,0:0:0:0:
278,268,135620,1,0,1:2:0:0:
101,234,135742,6,0,B|146:232|146:232|216:164,1,131.25,12|0,0:2|0:0,0:0:0:0:
219,163,135986,5,8,0:2:0:0:
112,75,136108,1,8,0:2:0:0:
193,38,136230,5,0,1:2:0:0:
201,34,136352,1,0,1:2:0:0:
209,31,136474,2,0,L|312:19,1,87.5,8|8,0:3|0:3,0:0:0:0:
489,54,136718,1,8,0:2:0:0:
305,21,136839,1,8,0:2:0:0:
499,56,136962,6,0,B|506:91|506:91|485:159|485:159|495:193,1,131.25,6|0,1:2|0:0,0:0:0:0:
496,200,137206,2,0,B|455:183|455:183|393:188,1,87.5,10|0,0:2|0:2,0:0:0:0:
414,379,137450,2,0,B|449:351|449:351|475:295,1,87.5,2|0,1:2|1:2,0:0:0:0:
195,186,137694,1,10,1:2:0:0:
295,360,137816,6,0,L|313:180,1,175,0|0,1:2|1:2,0:0:0:0:
54,99,138181,2,0,L|62:186,1,87.5,10|0,0:2|0:2,0:0:0:0:
260,244,138425,1,2,1:2:0:0:
295,222,138507,1,2,0:2:0:0:
312,185,138588,1,2,0:2:0:0:
316,144,138669,2,0,B|321:124|301:103|301:103|291:133|304:150,1,87.5,10|0,0:2|0:2,0:0:0:0:
88,323,138913,6,0,P|113:319|208:379,1,131.25,6|0,1:2|0:0,0:0:0:0:
207,376,139157,2,0,P|252:380|293:346,1,87.5,10|0,0:2|0:2,0:0:0:0:
398,220,139401,2,0,P|361:196|319:201,1,87.5,2|0,1:2|1:2,0:0:0:0:
246,247,139645,1,10,1:2:0:0:
394,379,139767,2,0,B|429:349|426:299|426:299|446:345|495:358,1,175,0|0,1:2|1:2,0:0:0:0:
366,66,140133,6,0,P|355:136|456:82,1,245.000002336502,14|2,0:2|0:2,0:0:0:0:
249,28,140498,1,0,1:2:0:0:
493,266,140620,6,0,P|432:208|208:180,1,280,14|6,1:2|1:2,0:0:0:0:
177,220,141108,5,10,0:2:0:0:
177,220,141352,2,0,P|155:254|108:263,1,87.5,2|0,1:2|1:2,0:0:0:0:
32,224,141596,2,0,P|13:187|29:142,1,87.5,10|0,1:2|1:2,0:0:0:0:
101,97,141840,6,0,P|141:99|172:135,1,87.5,2|0,0:2|1:2,0:0:0:0:
177,220,142084,2,0,P|153:255|111:263,1,87.5,10|0,0:2|0:2,0:0:0:0:
32,224,142328,1,2,1:2:0:0:
245,169,142572,1,10,0:2:0:0:
242,366,142816,6,0,P|227:323|300:276,1,131.25,12|0,0:2|0:0,0:0:0:0:
301,273,143059,1,0,1:2:0:0:
417,335,143181,6,0,P|461:342|495:262,1,131.25,12|0,0:2|0:0,0:0:0:0:
498,259,143424,1,0,1:2:0:0:
406,221,143547,6,0,P|361:212|357:125,1,131.25,12|0,0:2|0:0,0:0:0:0:
353,123,143790,1,0,1:2:0:0:
499,44,143913,6,0,P|514:86|440:133,1,131.25,12|0,0:2|0:0,0:0:0:0:
440,138,144156,1,0,1:2:0:0:
375,28,144279,1,8,0:2:0:0:
293,16,144401,1,8,0:2:0:0:
229,78,144523,6,0,P|183:92|112:47,1,131.25,10|0,0:2|0:0,0:0:0:0:
106,46,144767,6,0,P|138:81|127:164,1,131.25,6|0,1:2|0:0,0:0:0:0:
128,174,145011,2,0,L|38:160,1,87.5,10|0,0:2|0:2,0:0:0:0:
59,351,145255,2,0,L|145:337,1,87.5,2|0,1:2|1:2,0:0:0:0:
223,237,145498,1,10,1:2:0:0:
359,370,145620,6,0,P|421:365|488:272,1,175,0|0,1:2|1:2,0:0:0:0:
255,161,145986,2,0,P|228:191|223:241,1,87.5,10|0,0:2|0:2,0:0:0:0:
417,345,146230,1,2,1:2:0:0:
452,323,146312,1,2,0:2:0:0:
469,286,146393,1,2,0:2:0:0:
473,245,146474,2,0,B|478:225|458:204|458:204|448:234|461:251,1,87.5,10|0,0:2|0:2,0:0:0:0:
478,52,146718,6,0,P|445:94|360:102,1,131.25,6|0,1:2|0:0,0:0:0:0:
363,101,146962,2,0,P|353:55|370:9,1,87.5,10|0,0:2|0:2,0:0:0:0:
512,149,147206,2,0,P|477:180|431:192,1,87.5,2|0,1:2|1:2,0:0:0:0:
276,147,147450,1,10,0:2:0:0:
417,298,147572,2,0,P|435:251|344:192,1,175,0|0,1:2|0:2,0:0:0:0:
61,226,147937,6,0,B|186:266|186:266|40:245,1,258.999999011993,14|2,0:2|1:2,0:0:0:0:
4,160,148303,1,0,1:2:0:0:
188,179,148425,6,0,B|113:213|85:305|131:368|131:368|166:363|193:335,1,293.999991027832,14|2,0:2|1:2,0:0:0:0:
273,304,148913,5,10,0:2:0:0:
273,304,149157,2,0,P|303:334|343:352,1,87.5,2|0,1:2|1:2,0:0:0:0:
462,338,149401,2,0,P|492:307|510:267,1,87.5,10|0,0:2|1:2,0:0:0:0:
321,174,149645,6,0,P|332:216|357:251,1,87.5,2|0,0:2|1:2,0:0:0:0:
512,176,149889,2,0,P|500:133|475:98,1,87.5,10|0,0:2|0:2,0:0:0:0:
429,22,150133,1,2,1:2:0:0:
321,174,150255,1,2,0:0:0:0:
321,174,150316,1,2,0:0:0:0:
321,174,150376,2,0,L|229:185,1,87.5,10|2,0:2|0:2,0:0:0:0:
31,126,150620,6,0,B|1:100|22:58|22:58|31:84|60:109,1,131.25,12|0,0:2|0:0,0:0:0:0:
66,115,150864,1,0,1:2:0:0:
143,289,150986,6,0,B|113:315|134:357|134:357|143:331|172:306,1,131.25,12|0,0:2|0:0,0:0:0:0:
178,300,151230,1,0,1:2:0:0:
321,174,151352,6,0,B|327:154|327:154|300:137|254:147|230:188,1,131.25,12|0,0:2|0:0,0:0:0:0:
227,194,151596,1,8,0:2:0:0:
241,383,151718,1,8,0:2:0:0:
241,383,151840,2,0,L|335:366,1,87.5,0|0,1:2|1:2,0:0:0:0:
408,287,152084,5,8,0:3:0:0:
511,264,152206,1,8,0:3:0:0:
444,209,152328,1,8,0:2:0:0:
474,348,152450,1,8,0:2:0:0:
444,209,152572,6,0,L|432:156,1,52.5000020027161,6|2,1:2|0:0,0:0:0:0:
415,74,152816,1,2,1:2:0:0:
412,63,152937,1,2,1:2:0:0:
335,194,153059,6,0,L|311:88,1,105.000004005432,8|2,0:2|1:2,0:0:0:0:
292,3,153425,1,10,0:2:0:0:
216,118,153547,6,0,L|163:130,1,52.5000020027161,2|8,0:0|0:2,0:0:0:0:
78,104,153791,1,0,0:2:0:0:
68,107,153912,1,0,1:0:0:0:
158,227,154035,6,0,L|52:203,1,105.000004005432,10|2,0:2|0:2,0:0:0:0:
83,301,154401,1,0,1:2:0:0:
191,365,154523,6,0,L|179:312,1,52.5000020027161,2|2,1:2|0:0,0:0:0:0:
158,227,154767,1,2,0:2:0:0:
168,224,154888,1,2,0:2:0:0:
369,286,155011,5,8,0:2:0:0:
286,368,155133,2,0,L|262:262,1,105.000004005432,0|10,0:2|0:2,0:0:0:0:
412,63,155498,6,0,L|400:116,1,52.5000020027161,2|8,0:0|0:2,0:0:0:0:
391,197,155742,1,0,0:2:0:0:
381,200,155863,1,0,1:0:0:0:
311,91,155986,2,0,L|205:115,1,105.000004005432,10|0,0:2|0:0,0:0:0:0:
208,114,156474,6,0,L|155:102,1,52.5000020027161,2|2,1:2|0:0,0:0:0:0:
68,85,156718,1,2,0:2:0:0:
57,82,156839,1,2,0:2:0:0:
170,205,156962,2,0,L|64:181,1,105.000004005432,8|2,0:2|1:2,0:0:0:0:
32,262,157328,1,10,0:2:0:0:
178,356,157450,6,0,L|166:303,1,52.5000020027161,2|8,0:0|0:2,0:0:0:0:
79,338,157694,1,0,0:2:0:0:
76,349,157815,1,0,1:0:0:0:
252,255,157937,2,0,L|276:361,1,105.000004005432,10|2,0:2|0:2,0:0:0:0:
346,240,158303,1,0,1:2:0:0:
357,331,158425,6,0,L|410:343,1,52.5000020027161,2|0,1:2|0:0,0:0:0:0:
501,347,158669,1,2,0:2:0:0:
498,358,158790,1,0,0:2:0:0:
346,240,158913,2,0,L|452:264,1,105.000004005432,8|0,0:2|0:2,0:0:0:0:
509,191,159279,1,10,0:2:0:0:
356,45,159401,6,0,L|380:151,1,105.000004005432,0|0,0:0|1:2,0:0:0:0:
379,147,159767,1,2,1:2:0:0:
512,79,159889,6,0,L|459:67,1,52.5000020027161,8|8,0:2|0:2,0:0:0:0:
356,45,160133,1,8,0:3:0:0:
356,45,160255,1,8,0:3:0:0:
191,12,160376,6,0,P|205:67|139:117,1,140,6|2,1:2|1:2,0:0:0:0:
147,116,160742,1,2,1:2:0:0:
16,18,160864,2,0,P|61:30|85:55,1,70,8|0,0:2|0:2,0:0:0:0:
2,190,161108,1,2,1:2:0:0:
63,132,161230,1,8,0:2:0:0:
108,202,161352,6,0,P|96:247|71:271,1,70,2|10,0:0|0:2,0:0:0:0:
167,384,161596,1,0,0:2:0:0:
161,299,161718,1,0,1:0:0:0:
92,347,161840,1,10,0:2:0:0:
240,335,161962,2,0,P|280:320|241:253,1,140,0|0,0:0|1:2,0:0:0:0:
247,252,162328,6,0,P|308:248|348:316,1,140,2|2,1:2|0:2,0:0:0:0:
348,308,162694,1,2,0:2:0:0:
496,225,162816,1,8,0:2:0:0:
463,363,162937,2,0,P|444:324|448:295,1,70,0|2,0:2|1:2,0:0:0:0:
496,225,163181,1,10,0:2:0:0:
359,169,163303,6,0,P|406:168|445:116,1,105,2|0,0:0|0:0,0:0:0:0:
446,44,163547,2,0,P|423:42|403:54,2,46.6666666666667,8|8|8,0:3|0:3|0:3,0:0:0:0:
210,19,163791,2,0,P|301:29|272:116,1,210,8|0,0:2|1:2,0:0:0:0:
102,208,164279,6,0,P|140:227|196:165,1,140,2|2,1:2|0:2,0:0:0:0:
196,166,164645,1,2,0:2:0:0:
123,57,164767,2,0,P|114:94|123:130,1,70,8|0,0:2|0:2,0:0:0:0:
203,171,165011,1,2,1:2:0:0:
221,79,165133,1,10,0:2:0:0:
312,68,165255,2,0,P|334:41|368:34,1,70,2|10,0:0|0:2,0:0:0:0:
285,214,165498,1,0,0:2:0:0:
352,152,165620,1,0,1:0:0:0:
385,238,165742,6,0,P|344:187|284:213,1,140,10|2,0:2|0:2,0:0:0:0:
285,214,166230,6,0,P|321:284|319:354,1,140,2|8,1:2|0:3,0:0:0:0:
191,384,166718,2,0,P|155:314|157:244,1,140,8|0,0:2|0:2,0:0:0:0:
154,254,167084,1,10,0:2:0:0:
21,122,167206,6,0,B|48:114|61:89|61:89|60:114|86:141,1,105,0|8,0:0|1:2,0:0:0:0:
87,144,167450,2,0,L|173:155,1,70,8|10,1:2|1:2,0:0:0:0:
255,29,167694,2,0,L|266:114,1,70,8|10,0:2|0:2,0:0:0:0:
403,168,167937,2,0,L|339:196,1,70,8|10,0:0|0:0,0:0:0:0:
65,359,168181,6,0,P|40:340|25:302,1,70,6|0,1:2|0:0,0:0:0:0:
138,308,168669,2,0,P|125:279|131:238,1,70,0|0,1:2|0:0,0:0:0:0:
226,300,169157,2,0,P|229:268|255:236,1,70,0|0,1:2|0:0,0:0:0:0:
306,337,169645,2,0,P|325:312|363:296,1,70,0|0,1:2|0:0,0:0:0:0:
65,359,170133,6,0,P|41:337|30:298,1,70,0|0,1:2|0:0,0:0:0:0:
138,308,170621,2,0,P|128:278|137:238,1,70,0|0,1:2|0:0,0:0:0:0:
226,300,171109,2,0,P|232:269|260:239,1,70,0|0,1:2|0:0,0:0:0:0:
306,337,171597,2,0,P|327:313|366:302,1,70,0|0,1:2|0:0,0:0:0:0:
385,309,171992,5,0,0:0:0:0:
385,309,172084,2,0,P|348:333|320:363,1,83.9999974365235,4|0,1:2|0:2,0:0:0:0:
375,217,172572,2,0,P|330:219|291:231,1,83.9999974365235,0|0,1:2|0:2,0:0:0:0:
412,132,173059,2,0,P|372:111|332:102,1,83.9999974365235,0|0,1:2|0:2,0:0:0:0:
486,76,173547,2,0,P|462:39|432:11,1,83.9999974365235,0|0,1:2|0:2,0:0:0:0:
385,309,174035,6,0,P|344:326|311:350,1,83.9999974365235,0|0,1:2|0:2,0:0:0:0:
375,217,174523,2,0,P|331:211|290:216,1,83.9999974365235,0|0,1:2|0:2,0:0:0:0:
412,132,175011,6,0,P|394:118|375:110,1,41.9999987182618,0|0,1:2|0:0,0:0:0:0:
268,91,175255,2,0,P|284:78|303:69,1,41.9999987182618,0|0,1:2|0:0,0:0:0:0:
512,111,175498,6,0,P|503:91|491:74,1,41.9999987182618,0|0,1:2|0:0,0:0:0:0:
404,13,175742,2,0,P|424:5|444:2,1,41.9999987182618,0|0,1:2|0:0,0:0:0:0:
445,3,175986,6,0,P|454:51|436:106,1,105.000004005432,4|0,1:2|0:0,0:0:0:0:
261,15,176474,2,0,P|301:42|328:93,1,105.000004005432,0|0,1:2|0:0,0:0:0:0:
139,153,176962,2,0,P|187:143|242:161,1,105.000004005432,0|0,1:2|0:0,0:0:0:0:
150,336,177450,2,0,P|177:295|228:268,1,105.000004005432,0|0,1:2|0:0,0:0:0:0:
445,3,177937,6,0,P|466:47|464:105,1,105.000004005432,0|0,1:2|0:0,0:0:0:0:
261,15,178425,2,0,P|307:31|346:73,1,105.000004005432,0|0,1:2|0:0,0:0:0:0:
139,153,178791,1,0,1:2:0:0:
139,153,178913,2,0,P|183:131|241:134,1,105.000004005432,0|0,1:2|1:2,0:0:0:0:
150,336,179401,1,8,0:2:0:0:
150,336,179889,6,0,P|162:300|195:270,1,84,4|8,1:2|0:2,0:0:0:0:
512,350,181840,5,4,1:2:0:0:
512,350,182328,6,0,L|467:361,1,35,0|0,1:2|0:2,0:0:0:0:
399,303,182572,2,0,L|354:314,1,35,0|0,1:2|0:2,0:0:0:0:
494,214,182816,6,0,L|482:271,1,48.9999985046387,0|0,1:2|0:2,0:0:0:0:
343,326,183059,2,0,L|331:383,1,48.9999985046387,0|0,1:2|0:2,0:0:0:0:
401,212,183303,6,0,L|311:190,1,62.9999980773926,0|0,1:2|0:2,0:0:0:0:
252,327,183547,2,0,L|162:305,1,62.9999980773926,0|0,1:2|0:2,0:0:0:0:
255,237,183791,6,0,L|234:141,1,77.0000023498536,8|0,0:2|0:2,0:0:0:0:
16,384,184035,2,0,L|-5:288,1,77.0000023498536,8|0,0:2|0:2,0:0:0:0:
256,38,184279,6,0,L|112:73,1,90.9999958343508,8|0,0:2|0:2,0:0:0:0:
87,287,184523,2,0,L|-57:322,1,90.9999958343508,8|0,0:2|0:2,0:0:0:0:
13,29,184767,5,10,0:2:0:0:
13,29,185011,2,0,L|74:13,2,60.6666638895672,0|0|0,1:2|1:2|1:2,0:0:0:0:
166,59,185255,2,0,B|224:17|281:104|226:200|108:152|80:96,1,272.999987503052,8|0,0:2|0:0,0:0:0:0:
91,111,185742,6,0,B|105:186|105:186|97:201|97:201|110:270,1,157.500006008148,6|0,1:2|0:0,0:0:0:0:
111,278,185986,2,0,L|227:291,1,105.000004005432,8|0,0:2|0:2,0:0:0:0:
409,247,186230,2,0,P|373:210|308:202,1,105.000004005432,2|0,1:2|1:2,0:0:0:0:
331,355,186474,1,8,1:2:0:0:
491,295,186596,6,0,P|500:233|424:110,1,210.000008010865,0|0,1:2|1:2,0:0:0:0:
131,171,186962,2,0,L|249:151,1,105.000004005432,10|0,0:2|0:2,0:0:0:0:
467,0,187206,5,2,1:2:0:0:
472,42,187287,1,2,0:2:0:0:
458,83,187368,1,2,0:2:0:0:
427,112,187450,2,0,L|323:94,1,105.000004005432,10|0,0:2|0:2,0:0:0:0:
242,18,187694,6,0,B|183:32|183:32|178:42|178:42|90:61,1,157.500006008148,6|0,1:2|0:0,0:0:0:0:
81,64,187937,2,0,P|35:95|18:150,1,105.000004005432,8|0,0:2|0:2,0:0:0:0:
268,245,188181,2,0,P|264:189|225:147,1,105.000004005432,0|0,1:2|1:2,0:0:0:0:
28,290,188425,1,10,1:2:0:0:
93,369,188547,2,0,B|178:358|178:358|183:343|183:343|302:327,1,210.000008010865,0|0,1:2|1:2,0:0:0:0:
390,364,188913,6,0,P|434:348|475:280,2,125.999996154785,14|0|0,0:2|0:0|0:2,0:0:0:0:
512,213,189279,1,0,1:2:0:0:
293,162,189401,6,0,P|352:132|460:160,2,175,14|0|0,1:2|0:0|1:2,0:0:0:0:
268,245,189889,5,8,0:2:0:0:
268,245,190133,2,0,B|263:296|263:296|290:335,1,94.5000003604889,2|0,1:2|1:2,0:0:0:0:
512,193,190376,2,0,B|517:142|517:142|490:103,1,94.5000003604889,10|0,1:2|1:2,0:0:0:0:
289,51,190620,6,0,L|382:61,1,94.5000003604889,2|0,0:2|1:2,0:0:0:0:
502,289,190864,2,0,L|408:278,1,94.5000003604889,10|0,0:2|0:2,0:0:0:0:
385,162,191108,5,0,1:2:0:0:
75,189,191352,5,8,0:2:0:0:
115,384,191474,1,0,1:2:0:0:
21,308,191596,2,0,B|73:298|73:298|78:290|78:290|120:282,2,105.000004005432,12|0|0,0:2|0:2|1:2,0:0:0:0:
385,162,191962,2,0,B|333:152|333:152|328:144|328:144|286:136,2,105.000004005432,12|0|0,0:2|0:2|1:2,0:0:0:0:
0,50,192328,6,0,P|52:81|57:185,1,157.500006008148,12|0,0:2|0:0,0:0:0:0:
62,183,192572,1,8,0:2:0:0:
175,78,192694,1,8,0:2:0:0:
57,196,192816,2,0,L|166:177,1,105.000004005432,0|0,1:2|1:2,0:0:0:0:
257,28,193059,2,0,L|367:45,1,105.000004005432,8|8,0:3|0:3,0:0:0:0:
365,211,193303,6,0,B|319:199|303:163|303:163|305:203|271:240,1,157.500006008148,4|0,0:3|0:0,0:0:0:0:
270,252,193547,2,0,L|435:222,1,157.500006008148,6|0,1:2|0:0,0:0:0:0:
448,224,193791,2,0,P|491:242|518:300,1,105.000004005432,8|0,0:2|0:2,0:0:0:0:
245,346,194035,2,0,P|239:299|275:247,1,105.000004005432,2|0,1:2|1:2,0:0:0:0:
324,384,194279,1,8,1:2:0:0:
154,354,194401,6,0,P|129:253|170:159,1,210.000008010865,0|0,1:2|1:2,0:0:0:0:
343,214,194767,2,0,L|454:223,1,105.000004005432,10|0,0:2|0:2,0:0:0:0:
496,16,195011,5,2,1:2:0:0:
504,57,195092,1,2,0:2:0:0:
494,99,195173,1,2,0:2:0:0:
465,131,195255,2,0,L|360:122,1,105.000004005432,8|0,0:2|0:2,0:0:0:0:
264,30,195498,6,0,B|155:19|155:19|118:60,1,157.500006008148,6|0,1:2|0:0,0:0:0:0:
112,67,195742,2,0,L|3:48,1,105.000004005432,8|0,0:2|0:2,0:0:0:0:
63,289,195986,2,0,L|172:270,1,105.000004005432,0|0,1:2|1:2,0:0:0:0:
223,198,196230,1,10,0:2:0:0:
448,354,196352,2,0,P|388:363|306:250,1,210.000008010865,0|0,1:2|0:2,0:0:0:0:
489,39,196718,6,0,L|471:162,2,122.500001168251,14|0|0,0:2|0:0|1:2,0:0:0:0:
493,249,197084,1,0,1:2:0:0:
366,6,197206,6,0,L|330:252,2,175,14|0|0,0:2|0:0|1:2,0:0:0:0:
305,256,197694,5,8,0:2:0:0:
305,256,197937,2,0,L|210:269,1,94.5000003604889,2|0,1:2|1:2,0:0:0:0:
28,130,198181,2,0,L|121:117,1,94.5000003604889,10|0,0:2|1:2,0:0:0:0:
52,255,198425,6,0,P|39:309|53:360,1,94.5000003604889,2|0,0:2|1:2,0:0:0:0:
243,153,198669,2,0,P|238:106|214:66,1,94.5000003604889,10|0,0:2|0:2,0:0:0:0:
142,205,198913,5,0,1:2:0:0:
448,108,199157,5,10,0:2:0:0:
351,89,199279,1,0,0:2:0:0:
351,89,199340,1,0,0:0:0:0:
351,89,199401,6,0,P|330:40|339:-1,2,94.5000003604889,12|0|0,0:2|0:2|1:2,0:0:0:0:
448,108,199767,2,0,P|487:72|496:30,2,94.5000003604889,12|0|0,0:2|0:2|1:2,0:0:0:0:
380,177,200133,1,12,0:2:0:0:
380,177,200376,5,8,0:2:0:0:
331,308,200498,1,8,0:2:0:0:
188,155,200620,1,0,1:2:0:0:
224,346,200742,1,0,1:2:0:0:
69,304,200864,6,0,L|127:293,1,47.2500001802444,8|0,0:3|0:0,0:0:0:0:
243,252,200986,2,0,L|185:241,1,47.2500001802444,8|0,0:3|0:0,0:0:0:0:
68,179,201108,6,0,L|126:168,1,47.2500001802444,8|0,0:2|0:0,0:0:0:0:
188,155,201230,2,0,L|130:144,1,47.2500001802444,8|0,0:2|0:0,0:0:0:0:
108,84,201352,6,0,P|91:65|122:80,2,94.5000003604889,6|2|2,1:2|1:2|1:2,0:0:0:0:
248,328,201840,6,0,B|278:273|240:211|99:238|64:76|225:-1|273:113|273:113|362:21|474:144|378:297|267:202|225:288,1,805,6|0,1:2|0:0,0:0:0:0:
215,289,203303,6,0,L|108:277,1,105.000004005432,6|0,1:2|0:0,0:0:0:0:
372,73,203547,2,0,P|405:115|408:174,1,105.000004005432,10|0,0:2|0:2,0:0:0:0:
163,144,203791,1,2,1:2:0:0:
223,65,203913,1,0,1:2:0:0:
289,255,204035,1,10,1:2:0:0:
372,73,204157,2,0,L|479:85,1,105.000004005432,0|2,1:2|0:0,0:0:0:0:
476,84,204401,1,0,1:2:0:0:
343,350,204523,6,0,P|392:359|444:333,2,105.000004005432,14|0|2,0:2|0:0|0:2,0:0:0:0:
512,278,204889,1,0,1:2:0:0:
293,170,205011,6,0,P|370:159|446:226,2,175,14|0|6,1:2|1:2|1:2,0:0:0:0:
154,383,205498,5,10,0:2:0:0:
154,383,205742,2,0,P|115:344|106:295,1,94.5000003604889,2|0,1:2|1:2,0:0:0:0:
285,345,205986,2,0,P|299:291|282:244,1,94.5000003604889,10|0,1:2|1:2,0:0:0:0:
34,178,206230,6,0,P|15:134|22:88,1,94.5000003604889,2|0,0:2|1:2,0:0:0:0:
198,199,206474,2,0,P|229:164|239:119,1,94.5000003604889,10|0,0:2|0:2,0:0:0:0:
121,31,206718,6,0,L|137:129,1,94.5000003604889,2|0,1:2|0:0,0:0:0:0:
392,31,206962,2,0,L|376:129,1,94.5000003604889,10|0,0:2|1:2,0:0:0:0:
92,247,207206,6,0,B|61:211|72:178|72:178|99:204|96:244,1,141.750000540733,12|0,0:2|0:0,0:0:0:0:
137,376,207450,1,0,1:2:0:0:
198,199,207572,6,0,B|189:153|215:130|215:130|225:165|202:198,1,141.750000540733,12|0,0:2|0:0,0:0:0:0:
185,288,207816,1,0,1:2:0:0:
319,222,207937,6,0,B|334:178|368:171|368:171|359:206|323:224,1,141.750000540733,12|0,0:2|0:0,0:0:0:0:
272,282,208181,1,8,0:2:0:0:
354,88,208303,1,8,0:2:0:0:
354,88,208425,2,0,P|407:91|440:126,1,94.5000003604889,0|0,1:2|1:2,0:0:0:0:
215,130,208669,2,0,P|191:82|204:36,1,94.5000003604889,8|8,0:3|0:3,0:0:0:0:
319,222,208913,1,4,0:3:0:0:
481,316,209157,6,0,B|517:281|517:281|508:179,1,141.750000540733,6|0,1:2|0:0,0:0:0:0:
508,175,209401,2,0,L|499:75,1,94.5000003604889,10|0,0:2|0:2,0:0:0:0:
227,176,209645,2,0,P|261:207|314:216,1,94.5000003604889,2|0,1:2|1:2,0:0:0:0:
374,126,209889,1,10,1:2:0:0:
294,351,210011,6,0,P|205:290|99:304,1,189.000000720978,0|0,1:2|1:2,0:0:0:0:
215,82,210376,2,0,L|227:180,1,94.5000003604889,10|0,0:2|0:2,0:0:0:0:
93,362,210620,5,2,1:2:0:0:
56,368,210701,1,2,0:2:0:0:
22,355,210782,1,2,0:2:0:0:
0,326,210864,2,0,B|-2:277|-2:277|13:300|31:309,1,94.5000003604889,10|0,0:2|0:2,0:0:0:0:
69,230,211108,6,0,B|99:183|99:183|76:74,1,157.500006008148,6|0,1:2|0:0,0:0:0:0:
74,67,211352,2,0,P|117:98|176:94,1,105.000004005432,10|0,0:2|0:2,0:0:0:0:
272,134,211596,2,0,P|315:103|374:107,1,105.000004005432,2|0,1:2|1:2,0:0:0:0:
480,234,211840,1,10,0:2:0:0:
467,20,211962,2,0,B|484:110|484:110|460:140|460:140|479:231,1,210.000008010865,0|0,1:2|0:2,0:0:0:0:
396,311,212328,6,0,B|329:304|250:288|250:288|330:304|351:323,1,245.000002336502,14|2,0:2|1:2,0:0:0:0:
105,256,212694,1,0,1:2:0:0:
507,310,212816,6,0,L|182:366,1,315.000012016297,14|2,0:2|1:2,0:0:0:0:
90,384,213303,1,8,0:2:0:0:
105,256,213547,6,0,B|142:289|142:289|159:240,1,94.5000003604889,2|0,1:2|1:2,0:0:0:0:
407,128,213791,2,0,B|370:95|370:95|353:144,1,94.5000003604889,10|0,0:2|1:2,0:0:0:0:
181,132,214035,6,0,L|82:147,1,94.5000003604889,2|0,0:2|1:2,0:0:0:0:
331,252,214279,2,0,L|430:237,1,94.5000003604889,10|0,0:2|0:2,0:0:0:0:
507,310,214523,1,2,1:2:0:0:
512,0,214767,6,0,L|500:98,1,94.5000003604889,10|2,0:2|0:2,0:0:0:0:
499,103,214950,1,2,0:0:0:0:
496,114,215011,6,0,P|487:69|450:24,1,94.5000003604889,12|0,0:2|0:0,0:0:0:0:
218,24,215255,1,0,1:2:0:0:
396,221,215376,6,0,P|385:279|356:318,1,94.5000003604889,12|0,0:2|0:0,0:0:0:0:
118,311,215620,1,0,1:2:0:0:
282,134,215742,6,0,P|272:85|235:43,1,94.5000003604889,12|0,0:2|0:0,0:0:0:0:
0,60,215986,5,10,0:2:0:0:
49,31,216068,1,8,0:0:0:0:
101,51,216149,1,8,0:0:0:0:
126,101,216230,2,0,P|121:132|106:159,2,63.0000002403259,8|8|8,0:2|0:3|0:3,0:0:0:0:
41,213,216474,5,10,0:3:0:0:
21,252,216555,1,4,0:3:0:0:
44,289,216637,1,8,0:3:0:0:
118,311,216718,5,6,0:3:0:0:
132,287,216799,1,8,0:3:0:0:
160,288,216881,1,4,0:3:0:0:
224,331,216962,5,4,1:2:0:0:
