osu file format v14

[General]
AudioFilename: audio.mp3
AudioLeadIn: 0
PreviewTime: 192452
Countdown: 0
SampleSet: Soft
StackLeniency: 0.7
Mode: 0
LetterboxInBreaks: 0
WidescreenStoryboard: 0

[Editor]
Bookmarks: 266088
DistanceSpacing: 0.7
BeatDivisor: 4
GridSize: 32
TimelineZoom: 1.4

[Metadata]
Title:I Believe
TitleUnicode:I Believe
Artist:Meguro Shoji feat. Lyn
ArtistUnicode:目黒将司 feat. Lyn
Creator:-[Shady]-
Version:Distorted Reality
Source:ペルソナ5 ザ・ロイヤル
Tags:目黒 将司 稲泉 りん P5R Persona 5 The Royal soundtrack ost shin megami tensei 真 女神転生 atlus Toshiki Konishi 小西 利樹 Tsukasa Masuko 増子 司 Kenichi Tsuchiya 土屋 憲一 Lotus Juice Inaizumi video game english
BeatmapID:2411510
BeatmapSetID:1155591

[Difficulty]
HPDrainRate:5
CircleSize:4
OverallDifficulty:8
ApproachRate:8.5
SliderMultiplier:1.8
SliderTickRate:1

[Events]
//Background and Video events
0,0,"BelieveJPG.jpg",0,0
//Break Periods
//Storyboard Layer 0 (Background)
//Storyboard Layer 1 (Fail)
//Storyboard Layer 2 (Pass)
//Storyboard Layer 3 (Foreground)
//Storyboard Layer 4 (Overlay)
//Storyboard Sound Samples

[TimingPoints]
-972,454.545454545455,4,2,1,100,1,0
618,-100,4,2,1,65,0,0
1300,-125,4,2,1,55,0,0
2437,-100,4,2,1,65,0,0
3118,-125,4,2,1,55,0,0
4255,-100,4,2,1,65,0,0
4937,-125,4,2,1,55,0,0
5732,-125,4,2,1,5,0,0
5846,-125,4,2,1,55,0,0
6073,-100,4,2,1,65,0,0
6414,-100,4,2,1,5,0,0
6528,-100,4,2,1,65,0,0
6755,-125,4,2,1,55,0,0
6868,-125,4,2,1,5,0,0
6982,-125,4,2,1,55,0,0
7891,-111.111111111111,4,2,1,60,0,0
12778,-111.111111111111,4,2,1,5,0,0
12891,-111.111111111111,4,2,1,60,0,0
13005,-111.111111111111,4,2,1,5,0,0
13118,-111.111111111111,4,2,1,60,0,0
13232,-111.111111111111,4,2,1,5,0,0
13346,-111.111111111111,4,2,1,60,0,0
14709,-166.666666666666,4,2,1,60,0,0
15050,-166.666666666666,4,2,1,5,0,0
15164,-166.666666666666,4,2,1,60,0,0
15391,-111.111111111111,4,2,1,55,0,0
21187,-111.111111111111,4,2,1,5,0,0
21300,-111.111111111111,4,2,1,55,0,0
22209,-100,4,2,1,60,0,0
24368,-100,4,2,1,5,0,0
24482,-100,4,2,1,60,0,0
27323,-100,4,2,1,5,0,0
27437,-100,4,2,1,60,0,0
29823,-100,4,2,1,5,0,0
29937,-100,4,2,1,60,0,0
30959,-100,4,2,1,5,0,0
31073,-100,4,2,1,60,0,0
31187,-100,4,2,1,5,0,0
31300,-100,4,2,1,60,0,0
32778,-100,4,2,1,5,0,0
32891,-100,4,2,1,60,0,0
33005,-100,4,2,1,5,0,0
33118,-100,4,2,1,60,0,0
34596,-100,4,2,1,5,0,0
34709,-100,4,2,1,60,0,0
36868,-100,4,2,1,5,0,0
36982,-100,4,2,1,60,0,0
37096,-100,4,2,1,5,0,0
37209,-100,4,2,3,60,0,0
37550,-100,4,2,3,5,0,0
37664,-100,4,2,3,60,0,0
37778,-100,4,2,3,5,0,0
37891,-100,4,2,3,60,0,0
39368,-100,4,2,3,5,0,0
39482,-100,4,2,3,60,0,0
40505,-100,4,2,3,5,0,0
40618,-100,4,2,3,60,0,0
40732,-100,4,2,3,5,0,0
40846,-100,4,2,3,60,0,0
41187,-100,4,2,3,5,0,0
41300,-100,4,2,3,60,0,0
44823,-100,4,2,3,5,0,0
44937,-100,4,2,3,60,0,0
45050,-100,4,2,3,5,0,0
45164,-100,4,2,3,60,0,0
46641,-100,4,2,3,5,0,0
46755,-100,4,2,3,60,0,0
47778,-100,4,2,3,5,0,0
47891,-100,4,2,3,60,0,0
48005,-100,4,2,3,5,0,0
48118,-100,4,2,3,60,0,0
52096,-100,4,2,3,5,0,0
52209,-100,4,2,3,60,0,0
53232,-100,4,2,3,5,0,0
53346,-125,4,2,1,65,0,0
54255,-125,4,2,1,50,0,0
54482,-166.666666666667,4,2,1,50,0,0
55391,-83.3333333333333,4,2,1,85,0,1
55732,-83.3333333333333,4,2,1,5,0,1
55846,-83.3333333333333,4,2,1,85,0,1
56868,-83.3333333333333,4,2,1,5,0,1
56982,-83.3333333333333,4,2,1,85,0,1
57778,-83.3333333333333,4,2,1,5,0,1
57891,-83.3333333333333,4,2,1,85,0,1
58232,-83.3333333333333,4,2,1,5,0,1
58346,-83.3333333333333,4,2,1,85,0,1
58687,-83.3333333333333,4,2,1,5,0,1
58800,-83.3333333333333,4,2,1,85,0,1
58914,-83.3333333333333,4,2,1,5,0,1
59028,-83.3333333333333,4,2,1,85,0,1
59368,-83.3333333333333,4,2,1,5,0,1
59482,-83.3333333333333,4,2,1,85,0,1
63005,-83.3333333333333,4,2,1,5,0,1
63118,-83.3333333333333,4,2,1,85,0,1
64141,-83.3333333333333,4,2,1,5,0,1
64255,-83.3333333333333,4,2,1,85,0,1
64823,-83.3333333333333,4,2,1,5,0,1
64937,-83.3333333333333,4,2,1,85,0,1
65505,-83.3333333333333,4,2,1,5,0,1
65618,-83.3333333333333,4,2,1,85,0,1
65732,-83.3333333333333,4,2,1,5,0,1
65846,-83.3333333333333,4,2,1,85,0,1
65959,-83.3333333333333,4,2,1,5,0,1
66073,-83.3333333333333,4,2,1,85,0,1
66187,-83.3333333333333,4,2,1,5,0,1
66300,-83.3333333333333,4,2,1,85,0,1
66641,-83.3333333333333,4,2,1,5,0,1
66755,-83.3333333333333,4,2,1,85,0,1
66868,-83.3333333333333,4,2,1,5,0,1
66982,-83.3333333333333,4,2,1,85,0,1
67323,-83.3333333333333,4,2,1,5,0,1
67437,-83.3333333333333,4,2,1,85,0,1
69028,-83.3333333333333,4,2,1,85,0,0
69141,-83.3333333333333,4,2,1,5,0,0
69255,-83.3333333333333,4,2,1,85,0,0
69596,-83.3333333333333,4,2,1,5,0,0
69709,-83.3333333333333,4,2,1,85,0,0
69937,-83.3333333333333,4,2,1,85,0,1
72778,-83.3333333333333,4,2,1,5,0,1
72891,-83.3333333333333,4,2,1,85,0,1
73005,-83.3333333333333,4,2,1,5,0,1
73118,-83.3333333333333,4,2,1,85,0,1
73232,-83.3333333333333,4,2,1,5,0,1
73346,-83.3333333333333,4,2,1,85,0,1
73459,-83.3333333333333,4,2,1,5,0,1
73573,-83.3333333333333,4,2,1,85,0,1
75164,-90.9090909090909,4,2,1,80,0,0
75618,-100,4,2,1,75,0,0
76073,-111.111111111111,4,2,1,70,0,0
76755,-99.9999999999999,4,2,1,75,0,0
76868,-99.9999999999999,4,2,1,5,0,0
76982,-99.9999999999999,4,2,1,75,0,0
77096,-99.9999999999999,4,2,1,5,0,0
77209,-83.3333333333333,4,2,1,85,0,1
77550,-83.3333333333333,4,2,1,5,0,1
77664,-83.3333333333333,4,2,1,85,0,1
79596,-83.3333333333333,4,2,1,5,0,1
79709,-83.3333333333333,4,2,1,85,0,1
81187,-83.3333333333333,4,2,1,5,0,1
81300,-83.3333333333333,4,2,1,85,0,1
81868,-83.3333333333333,4,2,1,5,0,1
81982,-83.3333333333333,4,2,1,85,0,1
82096,-83.3333333333333,4,2,1,5,0,1
82209,-83.3333333333333,4,2,1,85,0,1
82550,-83.3333333333333,4,2,1,5,0,1
82664,-83.3333333333333,4,2,1,85,0,1
83914,-83.3333333333333,4,2,1,5,0,1
84028,-83.3333333333333,4,2,1,85,0,1
84141,-83.3333333333333,4,2,1,5,0,1
84255,-83.3333333333333,4,2,1,60,0,1
84937,-100,4,2,1,70,0,0
89141,-100,4,2,1,5,0,0
89255,-100,4,2,1,70,0,0
89368,-100,4,2,1,5,0,0
89482,-100,4,2,1,70,0,0
89596,-100,4,2,1,5,0,0
89709,-100,4,2,1,70,0,0
90505,-100,4,2,1,5,0,0
90618,-100,4,2,1,70,0,0
96414,-100,4,2,1,5,0,0
96528,-100,4,2,1,70,0,0
96641,-100,4,2,1,5,0,0
96755,-100,4,2,1,70,0,0
96868,-100,4,2,1,5,0,0
96982,-100,4,2,1,70,0,0
98687,-100,4,2,1,5,0,0
98800,-100,4,2,1,70,0,0
98914,-100,4,2,1,5,0,0
99028,-111.111111111111,4,2,1,55,0,0
104823,-111.111111111111,4,2,1,5,0,0
104937,-111.111111111111,4,2,1,55,0,0
105846,-125,4,2,1,50,0,0
106300,-100,4,2,1,60,0,0
108005,-100,4,2,1,5,0,0
108118,-100,4,2,1,60,0,0
111641,-100,4,2,1,5,0,0
111755,-100,4,2,1,60,0,0
113459,-100,4,2,1,5,0,0
113573,-100,4,2,1,60,0,0
114596,-100,4,2,1,5,0,0
114709,-100,4,2,1,60,0,0
114823,-100,4,2,1,5,0,0
114937,-100,4,2,1,60,0,0
118914,-100,4,2,1,5,0,0
119028,-100,4,2,1,60,0,0
120505,-100,4,2,1,5,0,0
120618,-100,4,2,1,60,0,0
120732,-100,4,2,1,5,0,0
120846,-100,4,2,3,60,0,0
121187,-100,4,2,3,5,0,0
121300,-100,4,2,3,60,0,0
121414,-100,4,2,3,5,0,0
121528,-100,4,2,3,60,0,0
123005,-100,4,2,3,5,0,0
123118,-100,4,2,3,60,0,0
124141,-100,4,2,3,5,0,0
124255,-100,4,2,3,60,0,0
124368,-100,4,2,3,5,0,0
124482,-100,4,2,3,60,0,0
124823,-100,4,2,3,5,0,0
124937,-100,4,2,3,60,0,0
125505,-100,4,2,3,5,0,0
125618,-100,4,2,3,60,0,0
128005,-100,4,2,3,5,0,0
128118,-100,4,2,3,60,0,0
128459,-100,4,2,3,5,0,0
128573,-100,4,2,3,60,0,0
128687,-100,4,2,3,5,0,0
128800,-100,4,2,3,60,0,0
130278,-100,4,2,3,5,0,0
130391,-100,4,2,3,60,0,0
131414,-100,4,2,3,5,0,0
131528,-100,4,2,3,60,0,0
131641,-100,4,2,3,5,0,0
131755,-100,4,2,3,60,0,0
135732,-100,4,2,3,5,0,0
135846,-100,4,2,3,60,0,0
136868,-100,4,2,3,5,0,0
136982,-125,4,2,1,65,0,0
137891,-125,4,2,1,50,0,0
138118,-166.666666666667,4,2,1,50,0,0
139028,-83.3333333333333,4,2,1,85,0,1
139368,-83.3333333333333,4,2,1,5,0,1
139482,-83.3333333333333,4,2,1,85,0,1
140505,-83.3333333333333,4,2,1,5,0,1
140618,-83.3333333333333,4,2,1,85,0,1
141414,-83.3333333333333,4,2,1,5,0,1
141528,-83.3333333333333,4,2,1,85,0,1
141868,-83.3333333333333,4,2,1,5,0,1
141982,-83.3333333333333,4,2,1,85,0,1
142323,-83.3333333333333,4,2,1,5,0,1
142437,-83.3333333333333,4,2,1,85,0,1
142550,-83.3333333333333,4,2,1,5,0,1
142664,-83.3333333333333,4,2,1,85,0,1
143005,-83.3333333333333,4,2,1,5,0,1
143118,-83.3333333333333,4,2,1,85,0,1
146641,-83.3333333333333,4,2,1,5,0,1
146755,-83.3333333333333,4,2,1,85,0,1
147778,-83.3333333333333,4,2,1,5,0,1
147891,-83.3333333333333,4,2,1,85,0,1
148459,-83.3333333333333,4,2,1,5,0,1
148573,-83.3333333333333,4,2,1,85,0,1
149141,-83.3333333333333,4,2,1,5,0,1
149255,-83.3333333333333,4,2,1,85,0,1
149368,-83.3333333333333,4,2,1,5,0,1
149482,-83.3333333333333,4,2,1,85,0,1
149596,-83.3333333333333,4,2,1,5,0,1
149709,-83.3333333333333,4,2,1,85,0,1
149823,-83.3333333333333,4,2,1,5,0,1
149937,-83.3333333333333,4,2,1,85,0,1
150278,-83.3333333333333,4,2,1,5,0,1
150391,-83.3333333333333,4,2,1,85,0,1
150505,-83.3333333333333,4,2,1,5,0,1
150618,-83.3333333333333,4,2,1,85,0,1
150959,-83.3333333333333,4,2,1,5,0,1
151073,-83.3333333333333,4,2,1,85,0,1
152664,-83.3333333333333,4,2,1,85,0,0
152778,-83.3333333333333,4,2,1,5,0,0
152891,-83.3333333333333,4,2,1,85,0,0
153232,-83.3333333333333,4,2,1,5,0,0
153346,-83.3333333333333,4,2,1,85,0,0
153573,-83.3333333333333,4,2,1,85,0,1
155278,-83.3333333333333,4,2,1,5,0,1
155391,-83.3333333333333,4,2,1,85,0,1
156414,-83.3333333333333,4,2,1,5,0,1
156528,-83.3333333333333,4,2,1,85,0,1
156641,-83.3333333333333,4,2,1,5,0,1
156755,-83.3333333333333,4,2,1,85,0,1
156868,-83.3333333333333,4,2,1,5,0,1
156982,-83.3333333333333,4,2,1,85,0,1
157096,-83.3333333333333,4,2,1,5,0,1
157209,-83.3333333333333,4,2,1,85,0,1
158800,-90.9090909090909,4,2,1,80,0,0
159255,-100,4,2,1,75,0,0
159709,-111.111111111111,4,2,1,70,0,0
160391,-99.9999999999999,4,2,1,75,0,0
160505,-99.9999999999999,4,2,1,5,0,0
160618,-99.9999999999999,4,2,1,85,0,0
160732,-99.9999999999999,4,2,1,5,0,0
160846,-83.3333333333333,4,2,1,85,0,1
161187,-83.3333333333333,4,2,1,5,0,1
161300,-83.3333333333333,4,2,1,85,0,1
163232,-83.3333333333333,4,2,1,5,0,1
163346,-83.3333333333333,4,2,1,85,0,1
164823,-83.3333333333333,4,2,1,5,0,1
164937,-83.3333333333333,4,2,1,85,0,1
165505,-83.3333333333333,4,2,1,5,0,1
165618,-83.3333333333333,4,2,1,85,0,1
165732,-83.3333333333333,4,2,1,5,0,1
165846,-83.3333333333333,4,2,1,85,0,1
166187,-83.3333333333333,4,2,1,5,0,1
166300,-83.3333333333333,4,2,1,85,0,1
167550,-83.3333333333333,4,2,1,5,0,1
167664,-83.3333333333333,4,2,1,85,0,1
167778,-83.3333333333333,4,2,1,5,0,1
167891,-100,4,2,1,60,0,0
168687,-100,4,2,1,5,0,0
168800,-100,4,2,1,60,0,0
169823,-100,4,2,1,5,0,0
169937,-100,4,2,1,60,0,0
171641,-100,4,2,1,5,0,0
171755,-100,4,2,1,60,0,0
173459,-100,4,2,1,5,0,0
173573,-100,4,2,1,60,0,0
174596,-125,4,2,1,5,0,0
174709,-125,4,2,1,60,0,0
174937,-142.857142857143,4,2,1,55,0,0
175050,-142.857142857143,4,2,1,5,0,0
175164,-142.857142857143,4,2,1,55,0,0
175391,-166.666666666667,4,2,2,30,0,0
181187,-166.666666666667,4,2,2,5,0,0
181300,-166.666666666667,4,2,2,30,0,0
189937,-250.000000000001,4,2,2,30,0,0
191528,-166.666666666667,4,2,1,45,0,0
192664,-166.666666666667,4,2,1,50,0,0
193573,-83.3333333333334,4,2,1,85,0,1
193914,-83.3333333333334,4,2,1,5,0,1
194028,-83.3333333333334,4,2,1,85,0,1
195050,-83.3333333333334,4,2,1,5,0,1
195164,-83.3333333333334,4,2,1,85,0,1
195959,-83.3333333333334,4,2,1,5,0,1
196073,-83.3333333333334,4,2,1,85,0,1
196414,-83.3333333333334,4,2,1,5,0,1
196528,-83.3333333333334,4,2,1,85,0,1
196868,-83.3333333333334,4,2,1,5,0,1
196982,-83.3333333333334,4,2,1,85,0,1
197096,-83.3333333333334,4,2,1,5,0,1
197209,-83.3333333333334,4,2,1,85,0,1
197550,-83.3333333333334,4,2,1,5,0,1
197664,-83.3333333333334,4,2,1,85,0,1
201187,-83.3333333333334,4,2,1,5,0,1
201300,-83.3333333333334,4,2,1,85,0,1
202323,-83.3333333333334,4,2,1,5,0,1
202437,-83.3333333333334,4,2,1,85,0,1
203005,-83.3333333333334,4,2,1,5,0,1
203118,-83.3333333333334,4,2,1,85,0,1
203687,-83.3333333333334,4,2,1,5,0,1
203800,-83.3333333333334,4,2,1,85,0,1
203914,-83.3333333333334,4,2,1,5,0,1
204028,-83.3333333333334,4,2,1,85,0,1
204141,-83.3333333333334,4,2,1,5,0,1
204255,-83.3333333333334,4,2,1,85,0,1
204368,-83.3333333333334,4,2,1,5,0,1
204482,-83.3333333333334,4,2,1,85,0,1
204823,-83.3333333333334,4,2,1,5,0,1
204937,-83.3333333333334,4,2,1,85,0,1
205050,-83.3333333333334,4,2,1,5,0,1
205164,-83.3333333333334,4,2,1,85,0,1
205505,-83.3333333333334,4,2,1,5,0,1
205618,-83.3333333333334,4,2,1,85,0,1
207209,-83.3333333333334,4,2,1,85,0,0
207323,-83.3333333333334,4,2,1,5,0,0
207437,-83.3333333333334,4,2,1,85,0,0
207778,-83.3333333333334,4,2,1,5,0,0
207891,-83.3333333333334,4,2,1,85,0,0
208118,-83.3333333333334,4,2,1,85,0,1
210959,-83.3333333333334,4,2,1,5,0,1
211073,-83.3333333333334,4,2,1,85,0,1
211187,-83.3333333333334,4,2,1,5,0,1
211300,-83.3333333333334,4,2,1,85,0,1
211414,-83.3333333333334,4,2,1,5,0,1
211528,-83.3333333333334,4,2,1,85,0,1
211641,-83.3333333333334,4,2,1,5,0,1
211755,-83.3333333333334,4,2,1,85,0,1
213346,-90.9090909090909,4,2,1,80,0,0
213800,-100,4,2,1,75,0,0
214255,-111.111111111111,4,2,1,70,0,0
214937,-99.9999999999999,4,2,1,75,0,0
215050,-99.9999999999999,4,2,1,5,0,0
215164,-99.9999999999999,4,2,1,75,0,0
215278,-99.9999999999999,4,2,1,5,0,0
215391,-83.3333333333333,4,2,1,85,0,1
215732,-83.3333333333333,4,2,1,5,0,1
215846,-83.3333333333333,4,2,1,85,0,1
217778,-83.3333333333333,4,2,1,5,0,1
217891,-83.3333333333333,4,2,1,85,0,1
219368,-83.3333333333333,4,2,1,5,0,1
219482,-83.3333333333333,4,2,1,85,0,1
220050,-83.3333333333333,4,2,1,5,0,1
220164,-83.3333333333333,4,2,1,85,0,1
220278,-83.3333333333333,4,2,1,5,0,1
220391,-83.3333333333333,4,2,1,85,0,1
220732,-83.3333333333333,4,2,1,5,0,1
220846,-83.3333333333333,4,2,1,85,0,1
221414,-83.3333333333333,4,2,1,5,0,1
221528,-83.3333333333333,4,2,1,85,0,1
221641,-83.3333333333333,4,2,1,5,0,1
221755,-83.3333333333333,4,2,1,85,0,0
222664,-83.3333333333333,4,2,1,85,0,1
223005,-83.3333333333333,4,2,1,5,0,1
223118,-83.3333333333333,4,2,1,85,0,1
224141,-83.3333333333333,4,2,1,5,0,1
224255,-83.3333333333333,4,2,1,85,0,1
225050,-83.3333333333333,4,2,1,5,0,1
225164,-83.3333333333333,4,2,1,85,0,1
225505,-83.3333333333333,4,2,1,5,0,1
225618,-83.3333333333333,4,2,1,85,0,1
225959,-83.3333333333333,4,2,1,5,0,1
226073,-83.3333333333333,4,2,1,85,0,1
226187,-83.3333333333333,4,2,1,5,0,1
226300,-83.3333333333333,4,2,1,85,0,1
226641,-83.3333333333333,4,2,1,5,0,1
226755,-83.3333333333333,4,2,1,85,0,1
230278,-83.3333333333333,4,2,1,5,0,1
230391,-83.3333333333333,4,2,1,85,0,1
231414,-83.3333333333333,4,2,1,5,0,1
231528,-83.3333333333333,4,2,1,85,0,1
232096,-83.3333333333333,4,2,1,5,0,1
232209,-83.3333333333333,4,2,1,85,0,1
232778,-83.3333333333333,4,2,1,5,0,1
232891,-83.3333333333333,4,2,1,85,0,1
233005,-83.3333333333333,4,2,1,5,0,1
233118,-83.3333333333333,4,2,1,85,0,1
233232,-83.3333333333333,4,2,1,5,0,1
233346,-83.3333333333333,4,2,1,85,0,1
233459,-83.3333333333333,4,2,1,5,0,1
233573,-83.3333333333333,4,2,1,85,0,1
233914,-83.3333333333333,4,2,1,5,0,1
234028,-83.3333333333333,4,2,1,85,0,1
234141,-83.3333333333333,4,2,1,5,0,1
234255,-83.3333333333333,4,2,1,85,0,1
234596,-83.3333333333333,4,2,1,5,0,1
234709,-83.3333333333333,4,2,1,85,0,1
236300,-83.3333333333333,4,2,1,85,0,0
236414,-83.3333333333333,4,2,1,5,0,0
236528,-83.3333333333333,4,2,1,85,0,0
236868,-83.3333333333333,4,2,1,5,0,0
236982,-83.3333333333333,4,2,1,85,0,0
237209,-83.3333333333333,4,2,1,85,0,1
240050,-83.3333333333333,4,2,1,5,0,1
240164,-83.3333333333333,4,2,1,85,0,1
240278,-83.3333333333333,4,2,1,5,0,1
240391,-83.3333333333333,4,2,1,85,0,1
240505,-83.3333333333333,4,2,1,5,0,1
240618,-83.3333333333333,4,2,1,85,0,1
240732,-83.3333333333333,4,2,1,5,0,1
240846,-83.3333333333333,4,2,1,85,0,1
242437,-90.9090909090909,4,2,1,80,0,0
242891,-100,4,2,1,75,0,0
243346,-111.111111111111,4,2,1,70,0,0
244028,-99.9999999999999,4,2,1,75,0,0
244141,-99.9999999999999,4,2,1,5,0,0
244255,-99.9999999999999,4,2,1,75,0,0
244368,-99.9999999999999,4,2,1,5,0,0
244482,-83.3333333333333,4,2,1,85,0,1
244823,-83.3333333333333,4,2,1,5,0,1
244937,-83.3333333333333,4,2,1,85,0,1
246868,-83.3333333333333,4,2,1,5,0,1
246982,-83.3333333333333,4,2,1,85,0,1
248459,-83.3333333333333,4,2,1,5,0,1
248573,-83.3333333333333,4,2,1,85,0,1
249141,-83.3333333333333,4,2,1,5,0,1
249255,-83.3333333333333,4,2,1,85,0,1
249368,-83.3333333333333,4,2,1,5,0,1
249482,-83.3333333333333,4,2,1,85,0,1
249823,-83.3333333333333,4,2,1,5,0,1
249937,-83.3333333333333,4,2,1,85,0,1
251187,-83.3333333333333,4,2,1,5,0,1
251300,-83.3333333333333,4,2,1,85,0,1
251414,-83.3333333333333,4,2,1,5,0,1
251528,-83.3333333333333,4,2,1,60,0,1
252209,-100,4,2,1,70,0,0
256414,-100,4,2,1,5,0,0
256528,-100,4,2,1,70,0,0
256641,-100,4,2,1,5,0,0
256755,-100,4,2,1,70,0,0
256868,-100,4,2,1,5,0,0
256982,-100,4,2,1,70,0,0
257778,-100,4,2,1,5,0,0
257891,-100,4,2,1,70,0,0
263687,-100,4,2,1,5,0,0
263800,-100,4,2,1,70,0,0
263914,-100,4,2,1,5,0,0
264028,-100,4,2,1,70,0,0
264141,-100,4,2,1,5,0,0
264255,-100,4,2,1,70,0,0
265050,-100,4,2,1,5,0,0
265164,-100,4,2,1,70,0,0
265959,-100,4,2,1,5,0,0
266073,-100,4,2,1,80,0,0

[Colours]
Combo1 : 250,247,122
Combo2 : 255,117,117
Combo3 : 117,180,255
Combo4 : 162,117,255

[HitObjects]
165,119,618,6,0,B|223:107|223:107|280:122|280:122|347:107,1,180,6|2,1:2|0:0,0:0:0:0:
96,71,1300,2,0,P|80:118|118:199,1,144,10|2,0:1|0:0,0:0:0:0:
340,108,1982,1,4,1:3:0:0:
366,281,2437,6,0,B|344:213|344:213|355:167|355:167|338:100,1,180,6|2,1:3|0:0,0:0:0:0:
444,318,3118,2,0,P|403:355|311:347,1,144,10|2,0:1|0:0,0:0:0:0:
340,109,3800,1,4,0:3:0:0:
275,174,4028,2,0,L|257:170,2,18
201,103,4255,6,0,P|229:157|164:257,1,180,6|2,1:2|0:0,0:0:0:0:
16,167,4937,1,10,0:1:0:0:
16,167,5391,1,2,0:0:0:0:
175,252,5618,2,0,L|139:247,1,36,6|0,0:3|0:0,0:0:0:0:
50,282,5846,1,2,0:0:0:0:
67,61,6073,6,0,P|101:104|184:102,1,135,6|0,0:3|0:0,0:0:0:0:
176,106,6528,1,0,1:3:0:0:
88,204,6755,2,0,P|109:200|130:200,1,36,8|0,0:1|0:0,0:0:0:0:
281,311,6982,1,6,0:3:0:0:
281,311,7437,1,6,0:3:0:0:
431,143,7891,6,0,B|398:181|398:181|278:137,1,161.999995056153,6|2,1:2|0:2,0:0:0:0:
352,253,8573,2,0,L|265:218,1,80.9999975280763,10|0,1:2|0:0,0:0:0:0:
143,166,9028,1,2,1:2:0:0:
235,48,9255,2,0,L|209:149,1,80.9999975280763,2|8,0:0|0:0,0:0:0:0:
64,216,9709,6,0,P|117:195|182:274,1,161.999995056153,2|2,1:2|1:2,0:0:0:0:
21,369,10391,2,0,P|18:319|30:278,1,80.9999975280763,10|0,0:0|0:0,0:0:0:0:
143,166,10846,1,2,1:2:0:0:
105,287,11073,1,2,0:0:0:0:
28,142,11300,2,0,L|34:120,2,20.2499993820191,10|2|2,0:0|0:0|0:0,0:0:0:0:
46,42,11528,6,0,B|106:53|106:53|139:82|139:82|223:101,1,161.999995056153,6|2,1:2|1:2,0:0:0:0:
336,52,12209,2,0,L|245:34,1,80.9999975280763,10|0,0:0|0:0,0:0:0:0:
143,166,12664,2,0,L|147:213,1,40.4999987640381,2|0,1:2|0:0,0:0:0:0:
182,273,12891,2,0,L|186:320,1,40.4999987640381,2|0,1:2|0:0,0:0:0:0:
274,196,13118,2,0,L|233:199,1,40.4999987640381,10|0,0:0|0:0,0:0:0:0:
354,296,13346,6,0,B|341:249|368:218|368:218|344:145|344:145|370:115|361:43,1,242.999992584229,6|0,1:2|1:0,0:0:0:0:
431,271,14255,1,10,0:0:0:0:
283,85,14709,2,0,B|183:67,1,80.9999975280763,10|0,0:0|0:0,0:0:0:0:
203,70,15164,1,12,0:2:0:0:
228,237,15391,5,2,0:0:0:0:
106,145,15618,1,6,0:3:0:0:
102,164,15731,1,2,0:0:0:0:
99,184,15845,1,8,0:0:0:0:
228,259,16073,5,6,0:3:0:0:
350,167,16300,1,2,1:2:0:0:
353,186,16413,1,2,0:0:0:0:
356,206,16528,1,4,0:3:0:0:
226,282,16755,37,10,0:0:0:0:
104,190,16982,1,6,0:3:0:0:
100,209,17095,1,2,0:0:0:0:
97,229,17209,1,0,1:0:0:0:
226,304,17437,5,6,0:3:0:0:
348,212,17664,1,10,0:2:0:0:
351,231,17777,1,2,0:0:0:0:
354,251,17892,1,4,0:3:0:0:
227,97,18118,5,2,1:2:0:0:
247,100,18232,1,2,0:0:0:0:
267,103,18346,1,4,0:3:0:0:
104,190,18573,5,10,0:0:0:0:
84,193,18687,1,2,0:0:0:0:
64,196,18800,1,4,0:3:0:0:
188,183,19028,5,2,1:2:0:0:
105,89,19255,1,6,0:3:0:0:
108,69,19369,1,2,0:0:0:0:
112,50,19482,1,8,0:2:0:0:
188,197,19709,5,6,0:3:0:0:
271,103,19936,1,2,1:2:0:0:
268,83,20050,1,2,0:0:0:0:
264,64,20164,1,4,0:3:0:0:
190,214,20391,37,10,0:2:0:0:
107,120,20618,1,6,0:3:0:0:
110,100,20732,1,2,0:0:0:0:
114,81,20845,1,0,1:2:0:0:
92,258,21073,22,0,L|87:304,1,40.4999987640381,10|0,0:1|0:0,0:0:0:0:
28,189,21300,1,10,0:2:0:0:
28,189,21414,1,6,0:3:0:0:
195,133,22209,5,8,0:2:0:0:
151,126,22322,1,8,0:3:0:0:
107,120,22436,1,0,1:3:0:0:
289,151,22664,6,0,L|392:171,1,90,6|4,1:2|0:3,0:0:0:0:
387,90,23005,1,0,1:0:0:0:
387,90,23118,2,0,L|298:72,1,90,8|4,0:0|0:3,0:0:0:0:
184,54,23573,1,0,1:0:0:0:
214,195,23800,1,4,1:3:0:0:
248,4,24028,1,8,0:0:0:0:
122,117,24255,2,0,P|99:121|77:117,1,45,6|0,1:3|0:0,0:0:0:0:
2,110,24482,6,0,P|34:151|39:193,1,90,2|4,1:2|0:3,0:0:0:0:
17,263,24823,1,0,1:0:0:0:
17,263,24937,1,8,0:2:0:0:
130,204,25164,2,0,P|98:245|93:287,1,90,6|0,0:3|1:0,0:0:0:0:
198,163,25618,1,6,0:3:0:0:
148,342,25846,1,10,0:0:0:0:
130,204,26073,1,6,0:3:0:0:
284,297,26300,6,0,L|383:282,1,90,2|4,1:2|0:3,0:0:0:0:
205,245,26755,1,8,0:0:0:0:
324,78,26982,1,6,1:3:0:0:
324,78,27096,2,0,L|342:171,1,90,0|0,1:0|0:0,0:0:0:0:
413,198,27437,1,4,1:3:0:0:
252,38,27664,1,8,0:0:0:0:
371,4,27891,1,4,0:3:0:0:
341,166,28118,6,0,L|246:157,1,90,2|4,1:2|0:3,0:0:0:0:
29,140,28573,1,8,0:0:0:0:
201,54,28800,1,4,1:3:0:0:
201,54,28914,2,0,L|198:111,1,45,0|0,1:0|1:0,0:0:0:0:
197,222,29141,1,0,1:0:0:0:
197,222,29255,1,4,1:3:0:0:
11,136,29482,1,8,0:0:0:0:
147,155,29709,2,0,L|86:148,1,45,6|0,0:3|0:0,0:0:0:0:
34,295,29937,6,0,L|22:390,1,90,2|4,1:2|0:3,0:0:0:0:
45,217,30391,1,10,0:0:0:0:
110,350,30618,1,4,1:3:0:0:
110,350,30732,2,0,P|160:362|206:349,1,90,0|0,1:0|0:0,0:0:0:0:
155,284,31073,2,0,P|153:254|157:235,1,45,6|0,1:3|0:0,0:0:0:0:
267,123,31300,1,10,0:0:0:0:
203,176,31528,1,6,0:3:0:0:
365,214,31755,6,0,P|311:201|268:210,1,90,2|4,1:2|0:3,0:0:0:0:
448,268,32209,1,10,0:0:0:0:
382,137,32437,1,6,1:3:0:0:
382,137,32550,2,0,L|398:44,1,90,0|0,1:0|0:0,0:0:0:0:
475,59,32891,2,0,L|466:107,1,45,6|0,1:3|0:0,0:0:0:0:
366,213,33118,1,10,0:0:0:0:
452,180,33346,1,6,0:3:0:0:
314,78,33573,6,0,L|213:66,1,90,2|6,1:2|0:3,0:0:0:0:
43,33,34028,1,8,0:0:0:0:
139,202,34255,1,6,1:3:0:0:
139,202,34368,2,0,L|154:111,1,90,0|0,1:0|0:0,0:0:0:0:
149,35,34709,1,4,1:3:0:0:
80,262,34937,1,8,0:0:0:0:
60,130,35164,1,6,0:3:0:0:
221,228,35391,6,0,P|273:236|312:224,1,90,2|4,1:2|0:3,0:0:0:0:
458,111,35846,1,8,0:0:0:0:
385,267,36073,1,0,1:0:0:0:
385,267,36187,2,0,L|383:213,1,45,8|0,0:0|1:0,0:0:0:0:
380,62,36414,1,8,0:1:0:0:
380,62,36528,1,0,1:0:0:0:
185,99,36755,2,0,P|214:89|236:91,1,45,8|0,0:0|0:0,0:0:0:0:
347,131,36982,2,0,P|324:130|303:121,1,45,10|0,0:3|0:0,0:0:0:0:
168,18,37209,6,0,P|115:50|105:122,1,135,6|0,1:2|0:0,0:0:0:0:
155,182,37664,2,0,P|165:211|165:231,1,45,10|0,0:0|0:0,0:0:0:0:
42,302,37891,2,0,P|86:285|130:298,1,90,6|0,0:3|1:0,0:0:0:0:
217,378,38346,1,4,0:3:0:0:
165,225,38573,1,10,0:0:0:0:
89,362,38800,1,6,0:3:0:0:
241,184,39028,6,0,B|287:191|287:191|315:213|315:213|372:224,1,135,2|0,1:2|0:0,0:0:0:0:
439,192,39482,1,8,0:0:0:0:
358,49,39709,2,0,L|347:154,1,90,6|0,0:3|1:0,0:0:0:0:
428,3,40164,1,4,0:3:0:0:
276,78,40391,2,0,P|255:85|232:85,1,45,10|0,0:0|0:0,0:0:0:0:
147,53,40618,2,0,P|126:46|103:46,1,45,6|0,0:3|0:0,0:0:0:0:
105,257,40846,6,0,L|116:120,1,135,2|0,1:2|0:0,0:0:0:0:
103,45,41300,1,8,0:0:0:0:
38,167,41528,2,0,P|102:200|197:146,1,180,6|4,0:3|0:3,0:0:0:0:
350,199,42209,2,0,P|302:228|282:273,1,90,10|4,0:0|0:3,0:0:0:0:
401,125,42664,6,0,L|388:26,1,90,2|4,1:2|0:3,0:0:0:0:
460,265,43118,2,0,L|473:166,1,90,10|4,0:0|0:3,0:0:0:0:
309,40,43573,2,0,L|219:58,1,90,2|4,1:2|0:3,0:0:0:0:
59,90,44028,1,8,0:0:0:0:
220,57,44255,1,4,0:3:0:0:
160,215,44482,6,0,B|148:162|148:162|157:128|157:128|144:70,1,135,2|0,1:2|0:0,0:0:0:0:
59,90,44937,2,0,L|77:150,1,45,10|0,0:0|0:0,0:0:0:0:
130,295,45164,2,0,P|183:298|222:271,1,90,6|0,0:3|1:0,0:0:0:0:
311,182,45618,1,4,0:3:0:0:
259,343,45846,1,10,0:0:0:0:
228,160,46073,1,6,0:3:0:0:
406,222,46300,6,0,P|352:214|324:286,1,135,2|0,1:2|0:0,0:0:0:0:
345,352,46755,1,8,0:0:0:0:
487,224,46982,2,0,L|481:124,1,90,6|0,0:3|1:0,0:0:0:0:
474,0,47437,1,4,0:3:0:0:
358,102,47664,2,0,P|380:108|406:104,1,45,10|0,0:0|0:0,0:0:0:0:
238,80,47891,2,0,P|260:74|286:78,1,45,6|0,0:3|0:0,0:0:0:0:
168,138,48118,6,0,L|148:12,1,90,2|4,1:2|0:3,0:0:0:0:
179,220,48573,1,8,0:0:0:0:
48,222,48800,5,6,0:3:0:0:
89,149,49028,1,2,1:2:0:0:
179,220,49255,2,0,P|207:259|202:318,1,90,6|8,0:3|0:0,0:0:0:0:
464,222,49709,5,6,0:3:0:0:
423,149,49937,1,2,1:2:0:0:
333,220,50164,2,0,P|305:259|310:318,1,90,6|8,0:3|0:0,0:0:0:0:
247,151,50618,1,6,0:3:0:0:
168,352,50846,6,0,L|63:337,1,90,2|4,1:2|0:3,0:0:0:0:
247,151,51300,2,0,L|352:136,1,90,10|4,0:0|0:3,0:0:0:0:
135,241,51755,6,0,B|133:190|133:190|115:150|115:150|117:94,1,135,2|0,1:2|0:0,0:0:0:0:
92,39,52209,2,0,P|158:67|201:56,1,90,8|4,0:0|0:3,0:0:0:0:
321,39,52664,1,0,1:0:0:0:
242,12,52891,1,4,0:3:0:0:
116,109,53118,2,0,L|119:177,1,45,8|0,0:0|0:0,0:0:0:0:
129,343,53346,5,6,0:0:0:0:
128,325,53800,1,8,0:0:0:0:
129,304,54255,1,8,0:3:0:0:
128,278,54709,2,0,L|129:242,1,26.9999991760254,0|0,1:0|0:0,0:0:0:0:
263,198,54937,5,8,0:2:0:0:
228,209,55050,1,8,0:3:0:0:
193,207,55164,1,8,0:3:0:0:
269,295,55391,6,0,P|325:266|404:323,1,161.999995056153,6|0,0:0|0:0,0:0:0:0:
498,300,55846,2,0,P|438:327|386:302,1,107.999996704102,10|0,0:0|0:3,0:0:0:0:
216,125,56300,1,2,1:2:0:0:
269,295,56528,1,2,0:2:0:0:
339,87,56755,2,0,P|312:79|266:91,1,53.9999983520508,8|0,0:0|0:0,0:0:0:0:
185,223,56982,6,0,P|128:249|87:113,1,215.999993408203,6|0,1:2|0:3,0:0:0:0:
200,312,57664,2,0,P|169:323|146:326,1,53.9999983520508,10|0,0:0|0:0,0:0:0:0:
261,197,57891,2,0,B|373:184|303:245|456:228,1,161.999995056153,2|0,0:2|0:2,0:0:0:0:
486,203,58346,1,2,0:0:0:0:
353,12,58573,2,0,P|347:48|350:75,1,53.9999983520508,10|0,0:0|0:0,0:0:0:0:
433,149,58800,2,0,P|439:113|436:86,1,53.9999983520508,2|0,0:3|0:0,0:0:0:0:
232,58,59028,6,0,B|163:72|163:72|145:91|145:91|65:111,1,161.999995056153,6|0,1:2|0:0,0:0:0:0:
16,169,59482,2,0,P|71:150|80:102,1,107.999996704102,10|0,0:0|0:0,0:0:0:0:
14,6,59937,1,2,1:2:0:0:
28,297,60164,1,10,1:2:0:0:
28,297,60618,6,0,B|55:247|55:247|108:341|205:289,1,215.999993408203,4|0,1:2|0:0,0:0:0:0:
168,122,61300,2,0,L|140:228,1,107.999996704102,8|0,0:0|0:0,0:0:0:0:
286,333,61755,2,0,L|258:227,1,107.999996704102,2|0,1:2|0:0,0:0:0:0:
122,67,62209,2,0,B|168:94|168:94|217:71,1,107.999996704102,10|0,0:0|0:0,0:0:0:0:
284,33,62550,1,2,0:0:0:0:
284,33,62664,6,0,P|244:81|330:132,1,161.999995056153,6|0,1:2|0:0,0:0:0:0:
402,149,63118,2,0,P|351:127|298:144,1,107.999996704102,10|0,0:0|0:0,0:0:0:0:
459,289,63573,2,0,L|470:176,1,107.999996704102,2|0,1:2|0:0,0:0:0:0:
377,356,64028,2,0,L|368:302,1,53.9999983520508,8|0,0:0|0:0,0:0:0:0:
349,165,64255,1,2,0:0:0:0:
302,140,64368,1,2,0:0:0:0:
249,147,64482,6,0,P|190:174|112:111,1,161.999995056153,6|0,1:2|0:0,0:0:0:0:
134,29,64937,1,8,0:0:0:0:
89,209,65164,1,2,0:0:0:0:
15,55,65391,6,0,P|41:68|69:65,1,53.9999983520508,2|0,1:2|0:0,0:0:0:0:
115,123,65618,2,0,P|143:118|164:100,1,53.9999983520508,2|0,1:2|0:0,0:0:0:0:
369,101,65846,2,0,P|343:88|315:91,1,53.9999983520508,10|0,0:0|0:0,0:0:0:0:
269,33,66073,2,0,P|240:37|219:55,1,53.9999983520508,2|0,1:2|0:0,0:0:0:0:
179,189,66300,6,0,B|187:248|187:248|208:278|208:278|219:350,1,161.999995056153,6|0,1:2|0:0,0:0:0:0:
134,364,66755,2,0,L|125:294,1,53.9999983520508,8|0,0:0|0:0,0:0:0:0:
179,189,66982,1,0,1:0:0:0:
310,201,67209,6,0,P|279:211|245:206,1,53.9999983520508,6|0,1:2|0:0,0:0:0:0:
109,139,67437,1,2,0:0:0:0:
127,310,67664,1,10,1:2:0:0:
179,189,67891,1,2,0:0:0:0:
0,244,68118,6,0,L|108:232,1,107.999996704102,6|0,1:2|1:0,0:0:0:0:
276,90,68573,2,0,L|168:78,1,107.999996704102,8|0,0:0|1:0,0:0:0:0:
348,52,69028,6,0,P|357:83|353:111,1,53.9999983520508,2|0,1:2|0:0,0:0:0:0:
324,230,69255,1,8,0:0:0:0:
438,121,69482,2,0,P|429:152|433:180,1,53.9999983520508,10|0,0:3|0:0,0:0:0:0:
496,285,69709,1,8,0:0:0:0:
444,269,69822,1,0,1:0:0:0:
401,287,69937,6,0,P|344:328|294:330,1,107.999996704102,6|0,1:2|0:0,0:0:0:0:
238,171,70391,2,0,P|302:199|328:242,1,107.999996704102,10|0,0:2|0:0,0:0:0:0:
224,361,70846,2,0,P|216:291|240:246,1,107.999996704102,2|0,1:2|0:0,0:0:0:0:
320,111,71300,1,10,0:0:0:0:
229,258,71528,1,2,0:0:0:0:
71,80,71755,6,0,P|109:125|109:181,1,107.999996704102,2|2,1:2|0:0,0:0:0:0:
94,324,72209,2,0,P|56:279|56:223,1,107.999996704102,10|2,0:0|0:0,0:0:0:0:
163,62,72664,6,0,L|218:57,1,53.9999983520508,2|0,1:2|0:0,0:0:0:0:
292,43,72891,2,0,L|347:38,1,53.9999983520508,2|0,0:2|0:0,0:0:0:0:
451,153,73118,2,0,L|396:148,1,53.9999983520508,10|0,0:0|0:0,0:0:0:0:
322,134,73345,2,0,L|267:129,1,53.9999983520508,2|0,0:0|0:0,0:0:0:0:
328,319,73573,6,0,L|345:210,1,107.999996704102,2|0,1:2|0:0,0:0:0:0:
152,174,74028,2,0,L|237:243,1,107.999996704102,10|0,0:0|0:0,0:0:0:0:
368,90,74482,2,0,L|265:129,1,107.999996704102,2|0,1:2|0:0,0:0:0:0:
76,211,74937,1,10,0:0:0:0:
134,14,75164,5,2,1:3:0:0:
128,28,75618,1,10,0:3:0:0:
120,44,76073,2,0,L|19:33,1,80.9999975280763,10|0,0:0|0:0,0:0:0:0:
210,67,76528,1,10,0:3:0:0:
101,173,76755,2,0,L|109:118,1,45,10|0,0:0|0:0,0:0:0:0:
201,148,76982,2,0,L|194:192,1,45,2|0,1:2|0:0,0:0:0:0:
84,257,77209,6,0,B|147:265|147:265|170:286|170:286|245:297,1,161.999995056153,6|0,1:2|0:0,0:0:0:0:
328,289,77664,2,0,P|263:272|235:297,1,107.999996704102,8|0,0:0|0:0,0:0:0:0:
281,188,78118,1,0,1:0:0:0:
415,275,78346,2,0,L|423:152,1,107.999996704102,2|8,0:0|0:0,0:0:0:0:
417,88,78743,1,2,0:0:0:0:
417,88,79028,6,0,P|360:76|316:96,1,107.999996704102,2|0,1:2|0:0,0:0:0:0:
247,131,79368,1,2,0:0:0:0:
247,131,79482,2,0,L|240:197,1,53.9999983520508,8|0,0:0|0:0,0:0:0:0:
295,299,79709,2,0,B|313:243|313:243|237:301|167:224,1,215.999993408203,2|0,0:0|0:0,0:0:0:0:
86,90,80391,2,0,P|106:151|97:205,1,107.999996704102,10|0,0:0|0:0,0:0:0:0:
8,384,80846,6,0,P|-8:329|78:249,1,161.999995056153,2|0,1:2|0:0,0:0:0:0:
132,302,81300,2,0,P|70:289|52:244,1,107.999996704102,8|0,0:0|0:0,0:0:0:0:
203,145,81755,2,0,L|283:140,1,53.9999983520508,0|0,1:0|0:0,0:0:0:0:
336,136,81982,2,0,L|416:131,1,53.9999983520508,0|0,1:0|0:0,0:0:0:0:
503,129,82209,1,8,0:0:0:0:
453,15,82437,2,0,P|445:47|455:85,1,53.9999983520508,2|0,0:2|0:0,0:0:0:0:
501,222,82664,5,2,1:2:0:0:
361,217,82891,1,2,1:2:0:0:
447,68,83118,1,10,0:0:0:0:
428,286,83346,1,2,1:2:0:0:
370,58,83573,6,0,B|311:48|311:48|267:65|267:65|182:52,1,161.999995056153,6|0,1:2|0:0,0:0:0:0:
133,66,84028,2,0,P|143:100|145:125,1,53.9999983520508,8|0,0:0|0:0,0:0:0:0:
0,167,84255,6,0,B|123:133|79:240|218:180,1,215.999993408203,6|2,1:2|1:2,0:0:0:0:
56,318,84937,2,0,P|38:262|50:219,1,90,10|0,0:2|0:0,0:0:0:0:
144,118,85391,1,2,1:2:0:0:
290,182,85618,2,0,P|236:195|202:184,1,90,2|8,0:0|0:0,0:0:0:0:
250,311,86073,6,0,P|319:285|416:337,1,180,2|2,0:2|1:2,0:0:0:0:
294,176,86755,2,0,L|301:82,1,90,8|0,0:0|0:0,0:0:0:0:
323,0,87209,1,2,1:2:0:0:
477,48,87437,2,0,P|431:59|390:51,1,90,2|8,0:0|0:0,0:0:0:0:
135,35,87891,6,0,P|180:15|187:117,1,180,2|2,0:0|1:2,0:0:0:0:
88,258,88573,2,0,L|-6:246,1,90,10|0,0:0|0:0,0:0:0:0:
153,353,89028,2,0,L|158:296,1,45,2|0,1:2|0:0,0:0:0:0:
165,228,89255,2,0,L|170:166,1,45,2|0,1:2|0:0,0:0:0:0:
274,286,89482,2,0,L|221:278,1,45,10|0,0:0|0:0,0:0:0:0:
64,139,89709,6,0,P|97:90|205:112,1,180,2|0,1:2|0:0,0:0:0:0:
274,286,90391,2,0,L|270:349,1,45,8|0,0:0|0:0,0:0:0:0:
267,155,90618,2,0,P|310:168|357:156,1,90,2|0,0:0|1:0,0:0:0:0:
506,120,91073,2,0,P|463:107|419:117,1,90,2|8,0:0|0:0,0:0:0:0:
465,362,91528,6,0,B|471:292|471:292|458:253|458:253|462:184,1,180,2|2,0:0|1:2,0:0:0:0:
354,276,92209,2,0,L|255:256,1,90,10|0,0:0|0:0,0:0:0:0:
98,222,92664,1,2,1:2:0:0:
214,109,92891,2,0,P|227:157|216:209,1,90,2|8,0:0|0:0,0:0:0:0:
99,83,93346,6,0,B|147:111|147:111|254:47,1,180,2|2,0:0|1:2,0:0:0:0:
405,9,94028,2,0,B|367:-11|307:11,1,90,8|0,0:0|0:0,0:0:0:0:
228,189,94482,1,2,1:2:0:0:
367,76,94709,2,0,L|368:170,1,90,2|8,0:0|0:0,0:0:0:0:
248,280,95164,6,0,B|342:253|317:320|428:289,1,180,2|2,0:0|1:2,0:0:0:0:
204,352,95846,2,0,P|170:308|169:264,1,90,10|0,0:0|0:0,0:0:0:0:
223,111,96300,2,0,L|232:168,1,45,2|0,1:2|0:0,0:0:0:0:
153,205,96528,2,0,L|145:155,1,45,2|0,1:2|0:0,0:0:0:0:
285,54,96755,2,0,L|337:46,1,45,10|0,0:0|0:0,0:0:0:0:
480,157,96982,38,0,B|422:140|422:140|374:148|374:148|303:130,1,180,2|0,1:2|0:0,0:0:0:0:
406,222,97664,1,8,0:0:0:0:
480,70,97891,2,0,P|490:119|474:166,1,90,2|0,0:0|1:0,0:0:0:0:
326,281,98346,1,2,0:0:0:0:
449,227,98573,2,0,P|420:220|389:227,1,45,8|0,0:0|0:0,0:0:0:0:
362,357,98800,2,0,P|333:364|301:357,1,45,12|0,0:0|0:0,0:0:0:0:
224,324,99028,21,2,0:0:0:0:
238,199,99255,1,6,0:3:0:0:
247,216,99368,1,2,0:0:0:0:
250,236,99482,1,10,0:0:0:0:
207,122,99709,5,6,0:3:0:0:
332,136,99936,1,2,1:2:0:0:
315,145,100049,1,2,0:0:0:0:
295,148,100164,1,6,0:3:0:0:
409,109,100391,37,10,0:2:0:0:
395,234,100618,1,6,0:3:0:0:
386,217,100731,1,2,0:0:0:0:
383,197,100845,1,2,1:2:0:0:
423,313,101073,5,6,0:3:0:0:
298,299,101300,1,10,0:0:0:0:
315,290,101413,1,2,0:0:0:0:
335,287,101527,1,6,0:3:0:0:
134,333,101755,5,2,1:2:0:0:
131,312,101868,1,2,0:0:0:0:
129,292,101982,1,4,0:3:0:0:
212,82,102209,5,10,0:0:0:0:
209,102,102322,1,2,0:0:0:0:
207,122,102436,1,4,0:3:0:0:
162,13,102664,5,2,1:2:0:0:
80,73,102891,1,6,0:3:0:0:
98,79,103004,1,2,0:0:0:0:
119,82,103118,1,10,0:0:0:0:
263,10,103346,5,6,0:3:0:0:
345,70,103573,1,2,1:2:0:0:
326,76,103686,1,2,0:0:0:0:
305,79,103800,1,6,0:3:0:0:
424,43,104028,37,10,0:0:0:0:
417,166,104255,1,6,0:3:0:0:
407,148,104368,1,2,0:0:0:0:
404,128,104482,1,2,1:2:0:0:
499,11,104709,22,0,P|505:37|502:61,1,40.4999987640381,10|0,0:0|0:0,0:0:0:0:
447,241,104937,1,10,0:2:0:0:
447,241,105050,1,4,0:3:0:0:
274,170,105846,5,8,0:3:0:0:
305,153,105959,1,8,0:3:0:0:
341,152,106073,1,0,1:3:0:0:
216,239,106300,6,0,P|193:195|197:146,1,90,6|4,1:2|0:3,0:0:0:0:
234,86,106641,1,0,1:0:0:0:
234,86,106755,2,0,P|183:104|135:83,1,90,10|4,0:0|0:3,0:0:0:0:
4,24,107209,1,0,1:0:0:0:
68,169,107437,1,4,0:3:0:0:
121,13,107664,1,8,0:0:0:0:
68,169,107891,2,0,P|65:197|71:222,1,45,6|0,0:3|0:0,0:0:0:0:
221,326,108118,6,0,B|238:279|213:233,1,90,2|4,1:2|0:3,0:0:0:0:
148,194,108459,1,2,0:0:0:0:
148,194,108573,1,8,0:0:0:0:
308,279,108800,2,0,L|406:259,1,90,6|0,0:3|1:0,0:0:0:0:
510,233,109255,1,6,0:3:0:0:
337,191,109482,1,10,0:0:0:0:
378,352,109709,1,6,0:3:0:0:
443,188,109937,6,0,P|446:139|431:95,1,90,2|6,1:2|0:3,0:0:0:0:
211,16,110391,1,8,0:0:0:0:
362,58,110618,1,12,1:3:0:0:
362,58,110732,2,0,L|306:39,1,45,0|0,1:0|1:0,0:0:0:0:
211,16,110959,1,0,1:0:0:0:
211,16,111073,1,4,1:3:0:0:
236,189,111300,1,8,0:0:0:0:
103,120,111528,2,0,P|94:150|99:175,1,45,4|0,0:3|0:0,0:0:0:0:
166,310,111755,6,0,P|169:257|145:217,1,90,2|4,1:2|0:3,0:0:0:0:
234,354,112209,1,8,0:0:0:0:
85,310,112437,1,4,1:3:0:0:
85,310,112550,2,0,P|83:279|92:257,1,45,0|0,1:0|1:0,0:0:0:0:
182,149,112778,1,0,1:0:0:0:
182,149,112891,1,4,1:3:0:0:
166,310,113118,1,8,0:0:0:0:
281,194,113346,2,0,P|254:206|233:205,1,45,6|0,0:3|0:0,0:0:0:0:
370,246,113573,6,0,P|362:198|375:151,1,90,2|4,1:2|0:3,0:0:0:0:
412,96,113914,1,2,0:0:0:0:
412,96,114028,1,8,0:0:0:0:
183,83,114255,1,4,1:3:0:0:
183,83,114368,2,0,P|214:41|259:27,1,90,0|0,1:0|0:0,0:0:0:0:
312,107,114709,2,0,P|286:111|261:106,1,45,4|0,1:3|0:0,0:0:0:0:
87,16,114937,1,10,0:0:0:0:
183,83,115164,1,6,0:3:0:0:
119,271,115391,6,0,L|107:170,1,90,2|4,1:2|0:3,0:0:0:0:
99,104,115732,1,2,0:0:0:0:
99,104,115846,1,8,0:0:0:0:
279,198,116073,2,0,P|225:180|184:184,1,90,6|0,0:3|1:0,0:0:0:0:
32,254,116528,2,0,P|86:272|127:268,1,90,6|8,0:3|0:0,0:0:0:0:
242,107,116982,1,6,0:3:0:0:
213,349,117209,6,0,L|225:248,1,90,2|6,1:2|0:3,0:0:0:0:
253,24,117664,1,8,0:0:0:0:
382,73,117891,1,6,1:3:0:0:
382,73,118005,2,0,P|359:66|335:66,1,45,0|0,1:0|1:0,0:0:0:0:
242,107,118232,1,0,1:0:0:0:
242,107,118346,1,4,1:3:0:0:
323,283,118573,1,8,0:0:0:0:
301,163,118800,2,0,P|274:183|255:190,1,45,4|0,0:3|0:0,0:0:0:0:
98,178,119028,6,0,P|144:170|191:197,1,90,2|4,1:2|0:3,0:0:0:0:
250,353,119482,1,8,0:0:0:0:
269,191,119709,1,4,1:3:0:0:
269,191,119823,2,0,P|274:221|270:243,1,45,0|0,1:0|1:0,0:0:0:0:
163,348,120050,1,8,0:0:0:0:
163,348,120164,1,4,1:3:0:0:
327,366,120391,2,0,P|356:369|384:359,1,45,8|0,0:0|0:0,0:0:0:0:
494,255,120618,2,0,P|469:248|449:249,1,45,14|0,0:3|0:0,0:0:0:0:
512,381,120846,6,0,B|483:339|483:339|497:242,1,135,6|0,1:2|0:0,0:0:0:0:
482,168,121300,2,0,P|452:172|420:162,1,45,10|0,0:0|0:0,0:0:0:0:
278,149,121528,2,0,P|327:138|375:160,1,90,6|0,0:3|1:0,0:0:0:0:
270,53,121982,1,4,0:3:0:0:
422,98,122209,1,10,0:0:0:0:
315,218,122437,1,6,0:3:0:0:
270,53,122664,6,0,B|189:33|225:86|131:53,1,135,2|0,1:2|0:0,0:0:0:0:
77,12,123118,1,10,0:0:0:0:
160,146,123346,2,0,P|168:191|159:233,1,90,6|0,0:3|1:0,0:0:0:0:
241,128,123800,1,6,0:3:0:0:
213,294,124028,2,0,P|191:309|168:312,1,45,10|0,0:0|0:0,0:0:0:0:
50,213,124255,2,0,P|72:198|95:195,1,45,6|0,0:3|0:0,0:0:0:0:
247,212,124482,6,0,P|306:233|369:178,1,135,2|0,1:2|0:0,0:0:0:0:
395,126,124937,1,8,0:0:0:0:
502,274,125164,2,0,P|443:253|380:308,1,135,6|0,0:3|0:0,0:0:0:0:
354,360,125619,1,6,0:3:0:0:
512,184,125846,2,0,L|501:82,1,90,10|4,0:0|0:3,0:0:0:0:
300,36,126300,6,0,P|351:48|391:37,1,90,2|4,1:2|0:3,0:0:0:0:
286,172,126755,2,0,P|274:128|245:95,1,90,10|4,0:0|0:3,0:0:0:0:
413,110,127209,2,0,P|381:141|366:183,1,90,2|4,1:2|0:3,0:0:0:0:
310,363,127664,1,8,0:0:0:0:
320,240,127891,2,0,L|315:298,1,45,6|0,0:3|0:0,0:0:0:0:
162,360,128118,6,0,B|165:310|165:310|157:271|157:271|166:224,1,135,2|0,1:2|0:0,0:0:0:0:
242,232,128573,2,0,L|234:288,1,45,10|0,0:0|0:0,0:0:0:0:
86,320,128800,2,0,L|-3:306,1,90,6|0,0:3|1:0,0:0:0:0:
85,103,129255,1,6,0:3:0:0:
54,235,129482,1,10,0:0:0:0:
12,69,129709,1,6,0:3:0:0:
159,149,129937,6,0,B|212:140|212:140|237:150|237:150|301:138,1,135,2|0,1:2|0:0,0:0:0:0:
365,108,130391,1,10,0:0:0:0:
365,274,130618,2,0,P|349:223|354:171,1,90,6|0,0:3|1:0,0:0:0:0:
392,28,131073,1,4,0:3:0:0:
492,89,131300,2,0,P|464:95|438:92,1,45,10|0,0:0|0:0,0:0:0:0:
316,42,131528,2,0,P|288:36|262:39,1,45,6|0,0:3|0:0,0:0:0:0:
143,142,131755,5,2,1:2:0:0:
191,5,131982,2,0,L|208:112,1,90,6|8,0:3|0:0,0:0:0:0:
80,213,132437,5,6,0:3:0:0:
143,142,132664,1,2,1:2:0:0:
191,244,132891,2,0,P|212:284|203:344,1,90,6|8,0:3|0:0,0:0:0:0:
432,213,133346,5,6,0:3:0:0:
369,142,133573,1,2,1:2:0:0:
321,244,133800,2,0,P|300:284|309:344,1,90,6|8,0:3|0:0,0:0:0:0:
256,179,134255,1,6,0:3:0:0:
113,237,134482,6,0,L|6:226,1,90,2|4,1:2|0:3,0:0:0:0:
260,57,134937,2,0,L|367:46,1,90,10|4,0:0|0:3,0:0:0:0:
187,8,135391,6,0,P|175:64|234:140,1,135,2|0,1:2|0:0,0:0:0:0:
292,143,135846,2,0,L|399:132,1,90,8|4,0:0|0:3,0:0:0:0:
260,57,136300,1,0,1:0:0:0:
278,238,136528,1,4,0:3:0:0:
426,129,136755,2,0,L|354:136,1,45,8|0,0:0|0:0,0:0:0:0:
140,149,136982,5,6,0:0:0:0:
130,162,137437,1,8,0:0:0:0:
121,174,137891,1,8,0:3:0:0:
110,191,138346,2,0,L|116:233,1,26.9999991760254,0|0,1:0|0:0,0:0:0:0:
243,242,138573,5,8,0:2:0:0:
251,206,138686,1,8,0:3:0:0:
246,171,138800,1,8,0:3:0:0:
144,333,139028,6,0,B|199:317|199:317|241:332|241:332|303:313,1,161.999995056153,6|0,1:2|0:0,0:0:0:0:
385,265,139482,2,0,B|364:299|364:299|290:316,1,107.999996704102,10|0,0:0|0:0,0:0:0:0:
109,268,139937,1,2,1:2:0:0:
160,114,140164,1,2,0:0:0:0:
243,242,140391,2,0,P|248:212|239:187,1,53.9999983520508,8|0,0:0|0:0,0:0:0:0:
165,0,140618,6,0,P|194:61|66:76,1,215.999993408203,6|0,1:2|0:0,0:0:0:0:
261,5,141300,2,0,P|271:33|271:61,1,53.9999983520508,8|0,0:0|0:0,0:0:0:0:
177,235,141528,2,0,B|284:223|228:293|370:260,1,161.999995056153,2|0,0:0|0:0,0:0:0:0:
395,230,141982,1,2,0:0:0:0:
355,52,142209,2,0,P|345:80|345:108,1,53.9999983520508,10|0,0:0|0:0,0:0:0:0:
384,177,142437,2,0,P|394:205|394:233,1,53.9999983520508,2|0,0:0|0:0,0:0:0:0:
333,357,142664,6,0,B|226:369|282:299|140:332,1,161.999995056153,6|0,1:2|0:0,0:0:0:0:
81,327,143118,2,0,P|143:344|180:323,1,107.999996704102,8|0,0:0|0:0,0:0:0:0:
287,171,143573,1,2,1:2:0:0:
81,327,143800,1,10,0:0:0:0:
81,327,144255,6,0,B|131:300|131:300|37:247|89:150,1,215.999993408203,6|0,1:2|0:0,0:0:0:0:
233,164,144937,2,0,P|192:207|140:210,1,107.999996704102,8|0,0:0|0:0,0:0:0:0:
303,314,145391,2,0,L|316:198,1,107.999996704102,2|0,1:2|0:0,0:0:0:0:
295,0,145846,2,0,L|308:116,1,107.999996704102,10|0,0:0|0:0,0:0:0:0:
233,158,146187,1,0,1:0:0:0:
233,158,146300,6,0,B|176:151|176:151|131:161|131:161|43:143,1,161.999995056153,6|0,1:2|0:0,0:0:0:0:
48,54,146755,2,0,B|81:92|81:92|72:170,1,107.999996704102,10|0,0:0|0:0,0:0:0:0:
43,341,147209,2,0,L|63:225,1,107.999996704102,2|0,1:2|0:0,0:0:0:0:
140,44,147664,2,0,B|152:75|152:75|152:104,1,53.9999983520508,8|0,0:0|0:0,0:0:0:0:
134,242,147891,1,2,0:2:0:0:
128,294,148004,1,2,0:2:0:0:
162,333,148118,6,0,B|222:327|222:327|262:338|262:338|340:330,1,161.999995056153,6|0,1:2|0:0,0:0:0:0:
398,319,148573,1,8,0:0:0:0:
242,152,148800,1,2,0:0:0:0:
257,238,149028,6,0,P|288:228|319:231,1,53.9999983520508,2|0,1:2|0:0,0:0:0:0:
327,150,149255,2,0,P|358:159|381:179,1,53.9999983520508,2|0,1:2|0:0,0:0:0:0:
510,377,149482,2,0,P|485:355|472:326,1,53.9999983520508,10|0,0:0|0:0,0:0:0:0:
405,373,149709,2,0,P|399:337|405:306,1,53.9999983520508,2|0,1:2|0:0,0:0:0:0:
424,108,149937,6,0,P|459:174|396:245,1,161.999995056153,6|0,1:2|0:0,0:0:0:0:
375,172,150391,2,0,P|352:156|327:150,1,53.9999983520508,8|0,0:0|0:0,0:0:0:0:
149,191,150618,1,0,1:0:0:0:
243,60,150846,6,0,L|251:127,1,53.9999983520508,4|0,1:2|0:0,0:0:0:0:
269,270,151073,1,2,0:2:0:0:
152,87,151300,1,10,0:2:0:0:
342,62,151528,1,2,0:2:0:0:
186,277,151755,6,0,L|68:264,1,107.999996704102,6|0,1:2|1:0,0:0:0:0:
327,150,152209,2,0,L|445:137,1,107.999996704102,8|0,0:2|1:0,0:0:0:0:
269,270,152664,6,0,P|266:241|270:208,1,53.9999983520508,2|0,1:2|0:0,0:0:0:0:
342,62,152891,1,8,0:0:0:0:
409,247,153118,2,0,P|380:250|347:246,1,53.9999983520508,10|0,0:0|0:0,0:0:0:0:
204,156,153346,1,8,0:0:0:0:
152,142,153459,1,8,0:0:0:0:
102,161,153573,6,0,L|77:284,1,107.999996704102,6|0,1:2|0:0,0:0:0:0:
276,112,154028,2,0,L|251:-11,1,107.999996704102,10|0,0:0|0:0,0:0:0:0:
107,170,154482,2,0,L|82:293,1,107.999996704102,2|0,1:2|0:0,0:0:0:0:
178,117,154937,1,10,0:0:0:0:
22,213,155164,1,2,0:0:0:0:
182,307,155391,6,0,P|235:318|291:304,1,107.999996704102,2|2,1:2|0:0,0:0:0:0:
111,66,155846,2,0,P|95:119|109:174,1,107.999996704102,10|2,0:0|0:0,0:0:0:0:
304,216,156300,6,0,L|295:159,1,53.9999983520508,2|0,1:2|0:0,0:0:0:0:
279,83,156528,2,0,L|270:26,1,53.9999983520508,2|0,1:2|0:0,0:0:0:0:
106,169,156755,2,0,L|97:226,1,53.9999983520508,10|0,0:0|0:0,0:0:0:0:
84,299,156983,2,0,L|75:356,1,53.9999983520508,2|0,1:2|0:0,0:0:0:0:
206,103,157209,6,0,P|157:68|105:67,1,107.999996704102,2|0,1:2|0:0,0:0:0:0:
304,216,157664,2,0,P|358:191|385:146,1,107.999996704102,10|0,0:0|0:0,0:0:0:0:
155,250,158118,2,0,P|149:309|174:355,1,107.999996704102,2|0,1:2|0:0,0:0:0:0:
213,188,158573,1,10,0:0:0:0:
91,363,158800,5,2,1:2:0:0:
72,361,159255,1,10,0:3:0:0:
47,356,159709,2,0,L|61:260,1,80.9999975280763,10|0,0:0|0:0,0:0:0:0:
88,102,160164,1,10,0:3:0:0:
2,190,160391,2,0,P|34:201|59:198,1,45,10|0,0:0|0:0,0:0:0:0:
149,154,160618,2,0,P|181:143|206:146,1,45,2|0,1:2|0:0,0:0:0:0:
315,200,160846,6,0,B|307:257|307:257|323:295|323:295|317:367,1,161.999995056153,6|0,1:2|0:0,0:0:0:0:
210,345,161300,2,0,L|319:358,1,107.999996704102,8|0,0:0|0:0,0:0:0:0:
461,378,161755,1,0,1:0:0:0:
391,251,161982,2,0,L|406:144,1,107.999996704102,2|8,0:0|0:0,0:0:0:0:
425,61,162380,1,2,0:0:0:0:
425,61,162664,6,0,B|385:57|385:57|366:69|366:69|311:62,1,107.999996704102,2|0,1:2|0:0,0:0:0:0:
236,27,163005,1,2,0:0:0:0:
236,27,163118,2,0,P|244:57|238:89,1,53.9999983520508,8|0,0:0|0:0,0:0:0:0:
96,126,163346,2,0,B|203:104|175:203|336:144,1,215.999993408203,2|0,0:0|0:0,0:0:0:0:
144,311,164028,2,0,L|129:197,1,107.999996704102,10|0,0:0|0:0,0:0:0:0:
398,252,164482,6,0,B|337:263|337:263|315:291|315:291|224:303,1,161.999995056153,2|0,1:2|0:0,0:0:0:0:
144,311,164937,2,0,L|274:297,1,107.999996704102,8|0,0:0|0:0,0:0:0:0:
249,45,165391,2,0,P|236:72|234:97,1,53.9999983520508,0|0,1:2|0:0,0:0:0:0:
246,172,165618,2,0,P|253:201|267:221,1,53.9999983520508,0|0,1:0|0:0,0:0:0:0:
435,118,165846,1,8,0:0:0:0:
306,122,166073,2,0,L|367:120,1,53.9999983520508,2|0,0:0|0:0,0:0:0:0:
512,116,166300,5,2,1:2:0:0:
381,234,166528,1,2,0:0:0:0:
512,116,166755,1,10,0:0:0:0:
378,15,166982,1,2,0:0:0:0:
302,265,167209,6,0,P|363:314|439:294,1,161.999995056153,6|0,1:2|0:0,0:0:0:0:
510,240,167664,2,0,P|477:222|446:222,1,53.9999983520508,8|0,0:0|0:0,0:0:0:0:
302,265,167891,6,0,P|249:298|194:212,1,180,6|2,1:2|0:0,0:0:0:0:
244,54,168573,2,0,L|239:109,1,45,10|0,0:0|0:0,0:0:0:0:
131,169,168800,2,0,L|32:160,1,90,2|0,0:0|1:0,0:0:0:0:
183,308,169255,2,0,L|192:209,1,90,2|8,0:0|0:0,0:0:0:0:
99,40,169709,2,0,L|92:95,1,45,2|0,0:0|0:0,0:0:0:0:
269,178,169937,6,0,L|368:169,1,90,2|0,1:2|0:0,0:0:0:0:
240,99,170391,1,10,0:0:0:0:
300,254,170618,2,0,L|399:245,1,90,2|0,0:2|1:0,0:0:0:0:
430,87,171073,2,0,L|439:186,1,90,2|8,0:2|0:0,0:0:0:0:
458,346,171528,2,0,L|450:283,1,45,2|0,0:0|0:0,0:0:0:0:
299,254,171755,6,0,L|309:363,1,90,2|0,1:2|0:0,0:0:0:0:
360,171,172209,1,8,0:0:0:0:
215,264,172437,2,0,P|162:270|116:253,1,90,2|0,0:0|1:0,0:0:0:0:
251,104,172891,2,0,P|257:157|240:203,1,90,2|8,0:0|0:0,0:0:0:0:
297,39,173346,2,0,L|350:50,1,45,2|0,0:0|0:0,0:0:0:0:
178,144,173573,6,0,L|79:127,1,90,2|0,1:2|0:0,0:0:0:0:
6,0,174028,1,10,0:0:0:0:
33,192,174255,2,0,P|9:145|45:65,1,135,10|0,0:3|0:0,0:0:0:0:
36,71,174709,1,8,0:0:0:0:
180,142,174937,2,0,L|125:132,1,31.4999990386963,10|0,0:0|0:0,0:0:0:0:
67,277,175164,1,0,1:0:0:0:
67,277,175278,1,0,1:0:0:0:
67,277,175391,6,0,L|144:295,1,53.9999983520508,2|4,1:2|0:3,0:0:0:0:
217,314,175846,1,8,0:1:0:0:
217,314,176073,1,4,0:3:0:0:
172,216,176300,2,0,L|249:234,1,53.9999983520508,4|4,1:3|0:3,0:0:0:0:
375,268,176755,1,10,0:1:0:0:
297,249,176982,1,6,0:3:0:0:
358,73,177209,5,0,1:0:0:0:
358,73,177664,2,0,P|328:61|303:57,1,53.9999983520508,8|4,0:1|0:3,0:0:0:0:
248,126,178118,1,4,0:3:0:0:
248,126,178346,1,4,0:3:0:0:
145,65,178573,2,0,L|153:3,1,53.9999983520508,8|4,0:1|0:3,0:0:0:0:
11,150,179028,5,0,1:0:0:0:
11,150,179482,2,0,L|67:169,1,53.9999983520508,8|6,0:1|0:3,0:0:0:0:
148,200,179937,2,0,P|135:229|138:260,1,53.9999983520508,6|6,0:3|0:3,0:0:0:0:
185,357,180391,2,0,P|198:328|195:297,1,53.9999983520508,10|4,0:1|0:3,0:0:0:0:
281,342,180846,6,0,B|311:335|311:335|337:342|337:342|365:334,1,80.9999975280763,2|0,1:2|0:0,0:0:0:0:
359,335,181300,2,0,L|340:274,1,53.9999983520508,10|4,0:1|0:3,0:0:0:0:
289,205,181755,2,0,P|322:202|351:184,1,53.9999983520508,4|4,0:3|0:3,0:0:0:0:
434,90,182209,1,10,0:1:0:0:
414,168,182437,1,4,0:3:0:0:
257,82,182664,5,2,1:2:0:0:
257,82,183118,2,0,L|197:77,1,53.9999983520508,8|4,0:1|0:3,0:0:0:0:
123,49,183573,2,0,P|129:88|124:120,1,53.9999983520508,4|6,0:3|0:3,0:0:0:0:
57,238,184028,1,8,0:1:0:0:
95,171,184255,1,6,0:3:0:0:
155,348,184482,5,2,1:2:0:0:
155,348,184937,2,0,L|137:288,1,53.9999983520508,10|6,0:1|0:3,0:0:0:0:
196,237,185391,2,0,L|214:177,1,53.9999983520508,4|6,0:3|0:3,0:0:0:0:
199,35,185846,1,8,0:1:0:0:
233,108,186073,1,6,0:3:0:0:
353,46,186300,5,2,1:2:0:0:
353,46,186755,2,0,P|317:54|285:51,1,53.9999983520508,8|4,0:1|0:3,0:0:0:0:
199,35,187209,1,4,0:3:0:0:
199,35,187437,1,4,0:3:0:0:
228,161,187664,2,0,L|234:92,1,53.9999983520508,8|4,0:1|0:3,0:0:0:0:
120,211,188118,5,0,1:0:0:0:
120,211,188573,2,0,L|55:198,1,53.9999983520508,8|4,0:1|0:3,0:0:0:0:
185,271,189028,2,0,L|250:258,1,53.9999983520508,6|4,0:3|0:3,0:0:0:0:
376,237,189482,1,8,0:1:0:0:
376,237,189709,1,4,0:3:0:0:
264,10,189937,5,6,0:2:0:0:
266,9,191528,5,8,0:0:0:0:
254,19,191982,1,8,0:3:0:0:
241,25,192437,1,0,1:0:0:0:
228,35,192891,2,0,L|236:71,1,26.9999991760254,0|0,1:0|0:0,0:0:0:0:
261,197,193118,5,8,0:0:0:0:
228,181,193231,1,8,0:3:0:0:
193,177,193345,1,8,0:3:0:0:
304,271,193573,6,0,P|290:216|386:161,1,161.999995056153,6|0,1:2|0:0,0:0:0:0:
462,173,194028,2,0,P|401:179|358:150,1,107.999996704102,10|0,0:0|0:0,0:0:0:0:
228,32,194482,1,2,1:2:0:0:
261,197,194709,1,2,0:0:0:0:
351,66,194937,2,0,P|322:75|294:71,1,53.9999983520508,8|0,0:0|0:0,0:0:0:0:
88,89,195164,6,0,P|152:86|136:216,1,215.999993408203,6|0,1:2|0:0,0:0:0:0:
5,91,195846,2,0,L|15:26,1,53.9999983520508,10|0,0:0|0:0,0:0:0:0:
80,166,196073,2,0,B|76:227|76:227|98:265|98:265|90:359,1,161.999995056153,2|0,0:0|0:0,0:0:0:0:
137,382,196528,1,2,0:0:0:0:
210,218,196755,2,0,P|180:208|154:208,1,53.9999983520508,10|0,0:0|0:0,0:0:0:0:
331,256,196982,2,0,P|301:266|275:266,1,53.9999983520508,2|0,0:2|0:0,0:0:0:0:
198,57,197209,6,0,B|253:42|253:42|295:53|295:53|356:36,1,161.999995056153,6|0,1:2|0:0,0:0:0:0:
450,49,197664,2,0,B|415:21|415:21|343:38,1,107.999996704102,8|0,0:0|0:0,0:0:0:0:
248,124,198118,1,2,1:2:0:0:
422,295,198346,1,10,0:2:0:0:
422,295,198800,6,0,B|395:245|395:245|342:339|245:287,1,215.999993408203,6|0,1:2|0:0,0:0:0:0:
256,130,199482,2,0,P|297:180|313:228,1,107.999996704102,8|0,0:0|0:0,0:0:0:0:
182,335,199937,2,0,L|70:319,1,107.999996704102,2|0,1:2|0:0,0:0:0:0:
256,130,200391,2,0,L|368:114,1,107.999996704102,10|0,0:0|0:0,0:0:0:0:
441,96,200732,1,2,0:0:0:0:
441,96,200846,6,0,P|386:123|396:226,1,161.999995056153,6|0,1:2|0:0,0:0:0:0:
409,311,201300,2,0,P|409:246|367:203,1,107.999996704102,10|0,0:0|0:0,0:0:0:0:
196,216,201755,2,0,P|256:234|305:219,1,107.999996704102,2|0,1:2|0:0,0:0:0:0:
115,183,202209,2,0,P|113:153|119:130,1,53.9999983520508,8|0,0:0|0:0,0:0:0:0:
283,91,202437,1,2,1:2:0:0:
233,108,202550,1,2,1:0:0:0:
185,86,202664,6,0,P|138:54|52:98,1,161.999995056153,6|0,1:2|0:0,0:0:0:0:
37,173,203118,1,8,0:0:0:0:
46,0,203346,1,2,0:0:0:0:
185,86,203573,6,0,P|212:101|241:108,1,53.9999983520508,2|0,1:2|0:0,0:0:0:0:
314,96,203800,2,0,P|344:90|371:76,1,53.9999983520508,2|0,1:2|0:0,0:0:0:0:
510,178,204028,2,0,P|483:163|454:156,1,53.9999983520508,10|0,0:0|0:0,0:0:0:0:
381,168,204255,2,0,P|350:173|323:187,1,53.9999983520508,2|0,1:2|0:0,0:0:0:0:
242,358,204482,6,0,B|267:302|267:302|246:192,1,161.999995056153,6|0,1:2|0:0,0:0:0:0:
180,262,204937,2,0,P|149:268|119:260,1,53.9999983520508,8|0,0:0|0:0,0:0:0:0:
15,147,205164,1,0,1:0:0:0:
47,304,205391,6,0,L|55:243,1,53.9999983520508,4|0,1:2|0:0,0:0:0:0:
72,84,205618,1,2,1:2:0:0:
130,265,205846,1,10,0:0:0:0:
15,147,206073,1,2,0:0:0:0:
200,141,206300,6,0,P|146:168|88:159,1,107.999996704102,6|0,1:2|1:0,0:0:0:0:
248,307,206755,2,0,P|302:280|360:289,1,107.999996704102,8|0,0:0|1:0,0:0:0:0:
432,370,207209,6,0,P|419:337|416:305,1,53.9999983520508,2|0,1:2|0:0,0:0:0:0:
442,159,207437,1,8,0:0:0:0:
492,277,207664,2,0,P|505:244|508:212,1,53.9999983520508,10|0,0:0|0:0,0:0:0:0:
484,60,207891,1,8,0:0:0:0:
431,50,208004,1,8,0:0:0:0:
392,80,208118,6,0,P|341:101|279:82,1,107.999996704102,6|0,1:2|0:0,0:0:0:0:
154,9,208573,2,0,P|196:41|212:91,1,107.999996704102,10|0,0:0|0:0,0:0:0:0:
215,252,209028,2,0,P|221:199|256:159,1,107.999996704102,2|0,1:2|0:0,0:0:0:0:
222,333,209482,1,10,0:0:0:0:
157,146,209709,1,2,0:0:0:0:
38,319,209937,6,0,L|153:297,1,107.999996704102,2|2,1:2|0:0,0:0:0:0:
362,179,210391,2,0,L|247:157,1,107.999996704102,10|2,0:0|0:0,0:0:0:0:
76,152,210846,6,0,P|78:119|93:96,1,53.9999983520508,2|0,1:2|0:0,0:0:0:0:
139,40,211073,2,0,P|161:16|188:8,1,53.9999983520508,2|0,1:2|0:0,0:0:0:0:
432,74,211300,2,0,P|402:88|375:87,1,53.9999983520508,10|0,0:0|0:0,0:0:0:0:
303,75,211528,2,0,P|270:67|250:48,1,53.9999983520508,2|0,1:2|0:0,0:0:0:0:
446,160,211755,6,0,L|439:277,1,107.999996704102,2|0,1:2|0:0,0:0:0:0:
261,162,212209,2,0,L|254:45,1,107.999996704102,10|0,0:0|0:0,0:0:0:0:
211,261,212664,2,0,L|352:254,1,107.999996704102,2|0,1:2|0:0,0:0:0:0:
126,269,213118,1,10,0:3:0:0:
155,51,213346,5,6,1:2:0:0:
156,76,213800,1,8,0:3:0:0:
159,98,214255,2,0,L|55:90,1,80.9999975280763,6|0,1:2|0:0,0:0:0:0:
247,102,214709,1,10,0:3:0:0:
237,230,214937,2,0,L|240:182,1,45,10|0,1:2|0:0,0:0:0:0:
149,180,215164,2,0,L|146:228,1,45,2|0,1:2|0:0,0:0:0:0:
291,304,215391,6,0,B|352:295|352:295|386:310|386:310|467:297,1,161.999995056153,6|0,1:2|0:0,0:0:0:0:
458,197,215846,2,0,B|439:233|439:233|450:312,1,107.999996704102,8|0,0:0|0:0,0:0:0:0:
511,137,216300,1,0,1:0:0:0:
369,193,216528,2,0,B|388:157|388:157|377:78,1,107.999996704102,2|8,0:0|0:0,0:0:0:0:
316,42,216925,1,2,0:0:0:0:
316,42,217209,6,0,B|297:78|297:78|308:157,1,107.999996704102,2|0,1:2|0:0,0:0:0:0:
369,193,217550,1,2,0:0:0:0:
369,193,217664,2,0,P|395:201|427:191,1,53.9999983520508,10|0,0:0|0:0,0:0:0:0:
216,111,217891,2,0,B|78:108|153:193|-2:164,1,215.999993408203,2|0,0:0|0:0,0:0:0:0:
192,295,218573,2,0,P|198:236|179:187,1,107.999996704102,10|0,0:0|0:0,0:0:0:0:
78,368,219028,6,0,B|138:357|138:357|173:377|173:377|244:366,1,161.999995056153,2|0,1:2|0:0,0:0:0:0:
338,347,219482,2,0,L|225:369,1,107.999996704102,8|0,0:0|0:0,0:0:0:0:
409,332,219937,2,0,L|391:268,1,53.9999983520508,0|0,1:0|0:0,0:0:0:0:
376,204,220164,2,0,L|358:140,1,53.9999983520508,0|0,1:0|0:0,0:0:0:0:
332,2,220391,1,8,0:0:0:0:
463,80,220618,2,0,P|425:98|402:99,1,53.9999983520508,2|0,1:2|0:0,0:0:0:0:
242,19,220846,5,2,1:2:0:0:
334,84,221073,1,2,1:2:0:0:
158,192,221300,2,0,L|151:134,1,53.9999983520508,10|0,0:0|0:0,0:0:0:0:
242,19,221528,2,0,L|235:77,1,53.9999983520508,10|0,1:3|0:0,0:0:0:0:
174,269,221755,5,10,1:2:0:0:
363,164,221982,1,8,1:2:0:0:
141,60,222209,1,10,0:2:0:0:
174,269,222437,1,8,0:2:0:0:
141,60,222664,6,0,P|68:71|70:161,1,161.999995056153,6|0,1:2|0:0,0:2:0:0:
54,249,223118,2,0,P|70:180|53:138,1,107.999996704102,10|0,0:0|0:0,0:0:0:0:
0,32,223573,1,2,1:2:0:0:
141,60,223800,1,2,0:0:0:0:
54,249,224028,2,8,P|79:220|105:208,1,53.9999983520508,8|0,0:0|0:0,0:0:0:0:
286,269,224255,6,0,P|239:290|190:173,1,215.999993408203,6|0,1:2|0:0,0:0:0:0:
302,353,224937,2,0,P|262:368|242:370,1,53.9999983520508,8|0,0:0|0:0,0:0:0:0:
254,122,225164,2,0,B|365:111|299:177|432:160,1,161.999995056153,2|0,0:0|0:0,0:0:0:0:
474,129,225618,1,2,0:0:0:0:
413,33,225846,2,0,P|397:71|398:100,1,53.9999983520508,10|0,0:0|0:0,0:0:0:0:
474,129,226073,2,0,P|490:167|489:196,1,53.9999983520508,2|0,0:0|0:0,0:0:0:0:
286,271,226300,6,0,B|348:266|348:266|379:288|379:288|458:278,1,161.999995056153,6|0,1:2|0:0,0:0:0:0:
452,383,226755,2,0,B|432:340|432:340|440:275,1,107.999996704102,10|0,0:0|0:0,0:0:0:0:
474,129,227209,1,2,1:0:0:0:
286,271,227437,1,10,0:0:0:0:
286,271,227891,6,0,B|236:244|236:244|330:191|278:94,1,215.999993408203,6|0,1:2|0:0,0:0:0:0:
118,136,228573,2,0,P|173:163|225:157,1,107.999996704102,8|0,0:0|0:0,0:0:0:0:
111,321,229028,2,0,L|95:204,1,107.999996704102,2|0,1:2|0:0,0:0:0:0:
285,110,229482,2,0,L|300:3,1,107.999996704102,10|0,0:0|0:0,0:0:0:0:
220,26,229823,1,2,0:0:0:0:
220,26,229937,6,0,B|157:16|157:16|122:29|122:29|48:20,1,161.999995056153,6|0,1:2|0:0,0:0:0:0:
41,121,230391,2,0,B|67:84|67:84|60:13,1,107.999996704102,10|0,0:0|0:0,0:0:0:0:
12,219,230846,2,0,P|70:196|122:209,1,107.999996704102,2|0,1:2|0:0,0:0:0:0:
299,287,231300,2,0,P|267:283|238:267,1,53.9999983520508,8|0,0:0|0:0,0:0:0:0:
197,108,231528,1,2,0:2:0:0:
218,155,231641,1,2,0:2:0:0:
200,205,231755,6,0,P|170:257|212:349,1,161.999995056153,6|0,0:0|0:0,0:0:0:0:
275,380,232209,1,8,0:0:0:0:
86,281,232437,1,2,0:0:0:0:
218,155,232664,6,0,P|224:124|215:96,1,53.9999983520508,2|0,1:2|0:0,0:0:0:0:
147,122,232891,2,0,P|133:92|109:74,1,53.9999983520508,2|0,1:2|0:0,0:0:0:0:
279,221,233118,2,0,P|292:250|316:268,1,53.9999983520508,10|0,0:0|0:0,0:0:0:0:
353,203,233345,2,0,P|381:218|410:220,1,53.9999983520508,2|0,1:2|0:0,0:0:0:0:
482,52,233573,6,0,B|375:29|436:107|291:55,1,161.999995056153,6|0,1:2|0:0,0:0:0:0:
255,37,234028,2,0,P|229:28|198:27,1,53.9999983520508,8|0,0:0|0:0,0:0:0:0:
65,148,234255,1,0,1:0:0:0:
109,25,234482,6,0,L|118:91,1,53.9999983520508,6|0,1:2|0:0,0:0:0:0:
136,246,234709,1,2,1:2:0:0:
205,104,234937,1,10,0:0:0:0:
40,72,235164,1,2,1:2:0:0:
136,246,235391,6,0,L|256:226,1,107.999996704102,6|0,1:2|1:0,0:0:0:0:
274,26,235846,2,0,L|294:146,1,107.999996704102,8|0,0:0|1:0,0:0:0:0:
428,204,236300,6,0,P|396:198|369:199,1,53.9999983520508,2|0,1:2|0:0,0:0:0:0:
253,304,236528,1,8,0:0:0:0:
291,132,236755,2,0,P|259:138|232:137,1,53.9999983520508,10|0,0:3|0:0,0:0:0:0:
72,77,236982,1,8,0:0:0:0:
122,81,237095,1,8,0:0:0:0:
144,129,237210,6,0,L|135:248,1,107.999996704102,6|0,1:2|0:0,0:0:0:0:
17,369,237664,2,0,L|8:250,1,107.999996704102,10|0,0:2|0:0,0:0:0:0:
153,139,238118,2,0,L|144:258,1,107.999996704102,2|0,1:2|0:0,0:0:0:0:
203,64,238573,1,10,0:0:0:0:
74,159,238800,1,2,0:0:0:0:
195,310,239028,6,0,P|252:325|316:300,1,107.999996704102,2|2,1:2|0:0,0:0:0:0:
392,133,239482,2,0,P|350:174|340:242,1,107.999996704102,10|2,0:0|0:0,0:0:0:0:
473,384,239937,6,0,P|482:356|480:322,1,53.9999983520508,2|0,1:2|0:0,0:0:0:0:
449,259,240164,2,0,P|437:231|414:207,1,53.9999983520508,2|0,1:2|0:0,0:0:0:0:
165,180,240391,2,0,P|184:201|215:217,1,53.9999983520508,10|0,0:0|0:0,0:0:0:0:
285,221,240618,2,0,P|314:225|347:217,1,53.9999983520508,2|0,1:2|0:0,0:0:0:0:
412,28,240846,6,0,P|391:81|400:144,1,107.999996704102,2|0,1:2|0:0,0:0:0:0:
321,323,241300,2,0,P|342:270|333:207,1,107.999996704102,10|0,0:0|0:0,0:0:0:0:
164,179,241755,2,0,L|57:189,1,107.999996704102,2|0,1:2|0:0,0:0:0:0:
226,119,242209,1,10,0:0:0:0:
180,366,242437,5,6,0:2:0:0:
180,344,242891,1,10,0:3:0:0:
180,317,243346,2,0,L|72:328,1,80.9999975280763,14|0,0:0|0:0,0:0:0:0:
264,304,243800,1,10,0:0:0:0:
164,183,244028,2,0,P|160:211|165:239,1,45,10|0,0:0|0:0,0:0:0:0:
308,131,244255,2,0,P|312:103|307:75,1,45,2|0,1:2|0:0,0:0:0:0:
76,56,244482,6,0,P|120:102|213:76,1,161.999995056153,6|0,1:2|0:0,0:0:0:0:
310,86,244937,2,0,P|246:68|195:94,1,107.999996704102,8|0,0:0|0:0,0:0:0:0:
377,142,245391,1,0,1:0:0:0:
247,200,245618,2,0,P|232:248|241:307,1,107.999996704102,2|8,0:0|0:0,0:0:0:0:
285,374,246016,1,2,0:0:0:0:
285,374,246300,6,0,P|226:381|164:338,1,107.999996704102,6|0,1:2|0:0,0:0:0:0:
141,299,246641,1,2,0:0:0:0:
141,299,246755,2,0,L|149:233,1,53.9999983520508,10|0,0:0|0:0,0:0:0:0:
222,113,246982,2,0,B|155:146|155:146|27:66,1,215.999993408203,2|0,0:0|0:0,0:0:0:0:
283,49,247664,2,0,P|308:116|294:169,1,107.999996704102,10|0,0:0|0:0,0:0:0:0:
147,247,248118,6,0,B|203:240|203:240|247:264|247:264|337:252,1,161.999995056153,6|0,1:2|0:0,0:0:0:0:
402,265,248573,2,0,P|338:244|296:260,1,107.999996704102,8|0,0:0|0:0,0:0:0:0:
214,369,249028,2,0,P|180:381|150:376,1,53.9999983520508,0|0,1:0|0:0,0:0:0:0:
84,364,249255,2,0,P|50:351|30:328,1,53.9999983520508,0|0,1:0|0:0,0:0:0:0:
164,160,249482,1,8,0:0:0:0:
136,300,249709,2,0,L|146:247,1,53.9999983520508,2|0,1:2|0:0,0:0:0:0:
188,71,249937,5,2,1:2:0:0:
75,193,250164,1,2,0:0:0:0:
243,230,250391,1,10,0:0:0:0:
192,43,250618,1,2,0:0:0:0:
250,265,250846,6,0,B|338:285|313:220|427:251,1,161.999995056153,6|0,1:2|0:0,0:0:0:0:
441,318,251300,2,0,P|396:325|384:322,1,53.9999983520508,8|0,0:0|0:0,0:0:0:0:
296,170,251528,6,0,P|261:113|357:9,1,215.999993408203,6|0,1:2|0:0,0:0:0:0:
439,82,252209,2,0,B|407:106|349:96,1,90,10|0,0:0|0:0,0:0:0:0:
200,22,252664,1,2,1:2:0:0:
165,184,252891,2,0,L|188:88,1,90,2|8,0:0|0:0,0:0:0:0:
85,241,253346,6,0,P|151:217|207:310,1,180,2|2,1:2|1:2,0:0:0:0:
2,255,254028,2,0,L|14:143,1,90,10|0,0:0|0:0,0:0:0:0:
30,33,254482,1,2,1:2:0:0:
188,99,254709,2,0,P|142:82|85:88,1,90,2|8,0:0|0:0,0:0:0:0:
218,280,255164,6,0,B|308:263|287:330|393:294,1,180,2|2,1:2|1:2,0:0:0:0:
343,129,255846,2,0,L|336:230,1,90,10|0,0:0|0:0,0:0:0:0:
439,65,256300,2,0,L|385:66,1,45,2|0,1:2|0:0,0:0:0:0:
286,67,256528,2,0,L|232:69,1,45,2|0,1:2|0:0,0:0:0:0:
197,225,256755,2,0,L|248:217,1,45,10|0,0:0|0:0,0:0:0:0:
203,0,256982,6,0,B|154:37|154:37|171:157,1,180,2|0,1:2|0:0,0:0:0:0:
249,331,257664,2,0,L|235:270,1,45,8|0,0:0|0:0,0:0:0:0:
170,154,257891,2,0,L|74:175,1,90,2|0,0:2|1:0,0:0:0:0:
126,335,258346,2,0,L|101:235,1,90,2|8,0:0|0:0,0:0:0:0:
119,79,258800,6,0,B|180:67|180:67|215:84|215:84|301:68,1,180,2|2,1:2|1:2,0:0:0:0:
451,34,259482,2,0,L|358:53,1,90,10|0,0:0|0:0,0:0:0:0:
169,146,259937,1,2,1:2:0:0:
306,232,260164,2,0,P|312:184|297:135,1,90,2|8,0:0|0:0,0:0:0:0:
217,268,260618,6,0,P|287:260|328:348,1,180,2|2,1:2|1:2,0:0:0:0:
476,222,261300,2,0,P|431:239|383:233,1,90,10|0,0:0|0:0,0:0:0:0:
219,111,261755,1,2,1:2:0:0:
306,232,261982,2,0,P|312:184|295:130,1,90,2|8,0:0|0:0,0:0:0:0:
136,82,262437,6,0,P|137:140|241:192,1,180,2|2,1:2|1:2,0:0:0:0:
59,74,263118,2,0,P|54:130|77:178,1,90,10|0,0:0|0:0,0:0:0:0:
173,274,263573,2,0,P|141:251|122:248,1,45,2|0,1:2|0:0,0:0:0:0:
61,237,263800,2,0,P|21:239|3:247,1,45,2|0,1:2|0:0,0:0:0:0:
136,82,264028,2,0,P|166:82|191:95,1,45,10|0,0:0|0:0,0:0:0:0:
348,175,264255,6,0,B|339:229|339:229|354:272|354:272|338:353,1,180,2|0,1:2|0:0,0:0:0:0:
253,200,264937,2,0,L|266:147,1,45,8|0,0:0|0:0,0:0:0:0:
441,129,265164,2,0,L|419:232,1,90,2|0,0:0|1:0,0:0:0:0:
397,58,265618,1,2,0:0:0:0:
221,143,265846,6,0,P|247:154|268:156,1,45,8|0,0:0|0:0,0:0:0:0:
481,51,266073,1,14,0:0:0:0:
