osu file format v14

[General]
AudioFilename: audio.mp3
AudioLeadIn: 0
PreviewTime: 36365
Countdown: 0
SampleSet: Soft
StackLeniency: 0.7
Mode: 0
LetterboxInBreaks: 0
WidescreenStoryboard: 0

[Editor]
Bookmarks: 365,11615,18365,35802,36365,48365,60365,72365
DistanceSpacing: 1.1
BeatDivisor: 4
GridSize: 16
TimelineZoom: 2.5

[Metadata]
Title:Title Loop 1
TitleUnicode:タイトルループ1
Artist:Meguro Shoji
ArtistUnicode:目黒将司
Creator:Matrix
Version:Terminal
Source:真・女神転生III-NOCTURNE
Tags:atlus electronic instrumental video game shin megami tensei iii nocturne heaven punisher shouji
BeatmapID:2708850
BeatmapSetID:1306508

[Difficulty]
HPDrainRate:5
CircleSize:6
OverallDifficulty:8
ApproachRate:8
SliderMultiplier:1.7
SliderTickRate:1

[Events]
//Background and Video events
Video,-1794,"2.mp4"
0,0,"Macey was the best dog EVER.jpg",0,0
//Break Periods
//Storyboard Layer 0 (Background)
//Storyboard Layer 1 (Fail)
//Storyboard Layer 2 (Pass)
//Storyboard Layer 3 (Foreground)
//Storyboard Layer 4 (Overlay)
//Storyboard Sound Samples

[TimingPoints]
365,375,4,2,2,30,1,0
365,-117.647058823529,4,2,2,30,0,0
18365,-200,4,2,2,30,0,0
19115,-117.647058823529,4,2,2,30,0,0
23615,-117.647058823529,4,2,1,30,0,0
23802,-117.647058823529,4,2,2,30,0,0
23990,-117.647058823529,4,2,3,30,0,0
24365,-222.222222222222,4,2,2,30,0,0
25115,-117.647058823529,4,2,2,30,0,0
30365,-250,4,2,2,30,0,0
31115,-117.647058823529,4,2,2,30,0,0
35802,-117.647058823529,4,2,1,40,0,0
36365,-83.3333333333333,4,2,1,50,0,0
36927,-100,4,2,1,50,0,0
48365,-83.3333333333333,4,2,1,55,0,0
48927,-100,4,2,1,55,0,0
60365,-83.3333333333333,4,2,1,60,0,0
60927,-100,4,2,1,60,0,0
71990,-117.647058823529,4,2,1,60,0,0
72365,-333.333333333333,4,2,1,60,0,0
72370,-333.333333333333,4,2,1,5,0,0

[Colours]
Combo1 : 199,52,173
Combo2 : 12,109,190
Combo3 : 126,98,174
Combo4 : 152,56,175
SliderBorder : 203,188,255
SliderTrackOverride : 51,26,141

[HitObjects]
249,123,365,6,0,L|264:280,1,144.500002756119,4|8,0:0|0:0,0:0:0:0:
325,184,1115,2,0,P|368:182|414:213,1,72.2500013780594,0|8,0:0|0:0,0:0:0:0:
187,200,1490,2,0,P|144:202|98:171,1,72.2500013780594,8|0,0:0|0:0,0:0:0:0:
256,192,1865,1,8,0:0:0:0:
493,99,2427,5,8,0:0:0:0:
467,166,2615,2,0,P|461:211|490:253,1,72.2500013780594,0|8,0:0|0:0,0:0:0:0:
421,111,2990,2,0,P|376:105|334:134,1,72.2500013780594,8|0,0:0|0:0,0:0:0:0:
307,172,3365,1,8,0:0:0:0:
346,33,3740,1,8,0:0:0:0:
174,157,4115,5,0,0:0:0:0:
104,140,4303,1,8,0:0:0:0:
99,67,4490,1,8,0:0:0:0:
167,39,4678,1,0,0:0:0:0:
215,94,4865,1,8,0:0:0:0:
101,338,5427,6,0,P|67:330|28:339,2,72.2500013780594,8|0|8,0:0|0:0|0:0,0:0:0:0:
167,369,5990,1,8,0:0:0:0:
238,362,6177,1,0,0:0:0:0:
297,320,6365,1,8,0:0:0:0:
310,315,6740,1,8,0:0:0:0:
324,315,7115,5,0,0:0:0:0:
393,335,7302,2,0,P|434:341|481:323,2,72.2500013780594,8|8|0,0:0|0:0|0:0,0:0:0:0:
375,264,7865,2,0,B|324:232|310:174|326:110,1,144.500002756119,8|0,0:0|0:0,0:0:0:0:
343,70,8427,1,8,0:0:0:0:
459,126,8615,2,0,P|402:130|375:117,1,72.2500013780594,0|8,0:0|0:0,0:0:0:0:
202,85,8990,2,0,P|237:78|272:86,1,72.2500013780594,8|0,0:0|0:0,0:0:0:0:
140,123,9365,1,8,0:0:0:0:
30,28,9740,1,8,0:0:0:0:
5,170,10115,5,0,0:0:0:0:
74,187,10302,1,8,0:0:0:0:
113,247,10490,1,8,0:0:0:0:
97,317,10677,1,0,0:0:0:0:
34,353,10865,2,0,B|84:298|174:299|222:376,1,216.750004134178,8|0,0:0|0:0,0:0:0:0:
404,352,11615,5,4,0:0:0:0:
382,284,11802,1,8,0:0:0:0:
314,306,11990,1,8,0:0:0:0:
336,374,12177,1,0,0:0:0:0:
487,362,12365,6,0,B|461:320|407:308|358:329,1,144.500002756119,8|8,0:0|0:0,0:0:0:0:
293,180,13115,2,0,P|279:212|249:232,1,72.2500013780594,0|8,0:0|0:0,0:0:0:0:
354,215,13490,2,0,P|389:210|421:225,1,72.2500013780594,8|0,0:0|0:0,0:0:0:0:
350,142,13865,1,8,0:0:0:0:
182,97,14240,6,0,P|160:68|157:33,1,72.2500013780594,0|8,0:0|0:0,0:0:0:0:
58,10,14615,2,0,P|79:38|82:73,1,72.2500013780594,0|8,0:0|0:0,0:0:0:0:
60,143,14990,1,8,0:0:0:0:
146,259,15365,1,8,0:0:0:0:
2,275,15740,1,8,0:0:0:0:
103,200,16115,6,0,P|131:180|174:177,1,72.2500013780594,0|8,0:0|0:0,0:0:0:0:
74,267,16490,2,0,P|77:301|58:339,1,72.2500013780594,8|0,0:0|0:0,0:0:0:0:
31,209,16865,1,8,0:0:0:0:
391,243,17427,5,8,0:0:0:0:
257,256,17615,2,0,P|289:270|324:268,1,72.2500013780594,0|8,0:0|0:0,0:0:0:0:
337,199,17990,2,0,P|304:183|269:185,1,72.2500013780594,8|0,0:0|0:0,0:0:0:0:
256,192,18365,6,0,B|285:148|229:111|267:61,1,127.5,2|0,0:0|0:0,0:0:0:0:
392,116,19115,6,0,P|352:120|316:105,1,72.2500013780594,0|8,0:0|0:0,0:0:0:0:
125,151,19490,2,0,P|161:146|195:157,1,72.2500013780594,8|0,0:0|0:0,0:0:0:0:
65,190,19865,1,8,0:0:0:0:
512,267,20427,5,8,0:0:0:0:
465,211,20615,1,0,0:0:0:0:
394,197,20802,1,8,0:0:0:0:
325,219,20990,2,0,P|326:265|304:310,1,72.2500013780594,8|0,0:0|0:0,0:0:0:0:
265,339,21365,1,8,0:0:0:0:
403,380,21740,1,8,0:0:0:0:
124,265,22115,6,0,P|120:229|134:196,1,72.2500013780594,0|8,0:0|0:0,0:0:0:0:
79,321,22490,2,0,P|49:341|14:346,1,72.2500013780594,8|0,0:0|0:0,0:0:0:0:
150,332,22865,1,8,0:0:0:0:
109,81,23427,5,8,0:0:0:0:
184,39,23615,2,0,L|174:111,1,72.2500013780594,8|8,0:0|0:0,0:0:0:0:
206,175,23990,1,8,0:0:0:0:
213,167,24083,1,8,0:0:0:0:
220,159,24177,1,8,0:0:0:0:
227,151,24271,1,8,0:0:0:0:
233,143,24365,6,0,L|348:139,1,114.749996498108,2|0,0:0|0:0,0:0:0:0:
408,100,25115,6,0,P|416:65|438:37,1,72.2500013780594,0|8,0:0|0:0,0:0:0:0:
414,173,25490,2,0,P|406:208|384:236,1,72.2500013780594,8|0,0:0|0:0,0:0:0:0:
476,136,25865,1,8,0:0:0:0:
275,298,26240,5,0,0:0:0:0:
275,298,26427,1,8,0:0:0:0:
254,357,26615,5,0,0:0:0:0:
324,340,26803,1,8,0:0:0:0:
329,267,26990,1,8,0:0:0:0:
261,239,27178,1,0,0:0:0:0:
213,294,27365,2,0,L|50:286,1,144.500002756119,8|8,0:0|0:0,0:0:0:0:
106,62,28115,6,0,P|77:83|42:89,1,72.2500013780594,0|8,0:0|0:0,0:0:0:0:
156,112,28490,2,0,P|186:92|221:86,1,72.2500013780594,8|0,0:0|0:0,0:0:0:0:
121,175,28865,1,8,0:0:0:0:
247,247,29240,6,0,L|320:252,1,72.2500013780594,0|8,0:0|0:0,0:0:0:0:
431,298,29615,1,0,0:0:0:0:
368,197,29802,1,8,0:0:0:0:
361,315,29990,1,12,0:0:0:0:
436,225,30177,1,0,0:0:0:0:
320,252,30365,6,0,L|215:245,1,102,2|0,0:0|0:0,0:0:0:0:
164,196,31115,6,0,P|163:160|181:129,1,72.2500013780594,0|8,0:0|0:0,0:0:0:0:
152,267,31490,2,0,P|152:305|130:337,1,72.2500013780594,8|0,0:0|0:0,0:0:0:0:
94,224,31865,1,8,0:0:0:0:
50,36,32240,5,0,0:0:0:0:
50,36,32427,1,8,0:0:0:0:
163,86,32615,2,0,L|92:94,2,72.2500013780594,0|8|8,0:0|0:0|0:0,0:0:0:0:
39,160,33365,1,8,0:0:0:0:
178,197,33740,1,8,0:0:0:0:
76,299,34115,5,0,0:0:0:0:
145,279,34302,1,8,0:0:0:0:
216,293,34490,1,8,0:0:0:0:
277,331,34677,1,0,0:0:0:0:
347,347,34865,2,0,P|390:339|432:305,2,72.2500013780594,8|0|0,0:0|0:0|0:0,0:0:0:0:
308,37,35802,5,8,0:0:0:0:
340,125,35990,1,8,0:0:0:0:
248,109,36177,1,8,0:0:0:0:
399,53,36365,2,0,B|437:49|478:74|490:112,2,101.999996887207,6|2|0,0:0|0:0|0:0,0:0:0:0:
475,259,36927,5,2,0:0:0:0:
377,246,37115,2,0,B|376:213|390:188|427:170,1,85,10|2,0:0|0:0,0:0:0:0:
411,334,37490,1,2,0:0:0:0:
312,322,37677,1,2,0:0:0:0:
252,249,37865,2,0,B|235:221|238:192|258:167,1,85
213,334,38240,2,0,B|160:326|131:285|129:234,1,127.5,4|0,0:0|0:0,0:0:0:0:
133,237,38615,2,0,P|101:268|53:276,1,85,8|0,0:0|0:0,0:0:0:0:
41,148,38990,5,2,0:0:0:0:
128,116,39177,1,2,0:0:0:0:
218,140,39365,2,0,P|251:164|277:209,1,85,2|2,0:0|0:0,0:0:0:0:
200,360,39740,2,0,P|205:318|225:281,1,85,0|2,0:0|0:0,0:0:0:0:
398,265,40115,2,0,P|359:283|317:284,1,85,14|2,0:0|0:0,0:0:0:0:
399,172,40490,6,0,P|437:154|479:153,1,85,2|2,0:0|0:0,0:0:0:0:
490,161,40865,2,0,B|434:147|404:80|433:23,1,170
344,52,41427,1,0,0:0:0:0:
326,64,41521,1,0,0:0:0:0:
305,71,41615,2,0,P|262:75|219:63,1,85,8|0,0:0|0:0,0:0:0:0:
131,39,41990,5,6,0:0:0:0:
39,57,42177,1,2,0:0:0:0:
101,126,42365,2,0,P|124:150|135:200,1,85,2|2,0:0|0:0,0:0:0:0:
113,290,42740,1,0,0:0:0:0:
46,226,42927,1,2,0:0:0:0:
66,356,43115,6,0,P|75:324|113:289,1,85,14|2,0:0|0:0,0:0:0:0:
202,262,43490,1,2,0:0:0:0:
223,263,43583,1,0,0:0:0:0:
242,271,43677,1,2,0:0:0:0:
303,341,43865,2,0,P|329:322|381:319,1,85
470,344,44240,2,0,P|467:281|512:222,1,127.5,4|0,0:0|0:0,0:0:0:0:
512,221,44615,2,0,P|484:239|433:241,1,85,8|0,0:0|0:0,0:0:0:0:
355,189,44990,5,2,0:0:0:0:
323,101,45177,1,2,0:0:0:0:
449,45,45365,2,0,P|422:76|415:118,2,85,2|2|0,0:0|0:0|0:0,0:0:0:0:
215,17,45927,1,2,0:0:0:0:
233,6,46021,1,0,0:0:0:0:
253,0,46115,2,0,P|301:-2|342:13,1,85,10|2,0:0|0:0,0:0:0:0:
323,101,46490,2,0,P|275:103|234:88,1,85,6|2,0:0|0:0,0:0:0:0:
65,28,46865,5,0,0:0:0:0:
95,118,47052,1,0,0:0:0:0:
71,208,47240,1,4,0:0:0:0:
158,46,47615,5,8,0:0:0:0:
241,92,47802,1,0,0:0:0:0:
284,176,47990,2,0,B|294:204|294:238|274:269,1,85,2|2,0:0|0:0,0:0:0:0:
223,333,48365,6,0,B|200:353|165:366|117:359,2,101.999996887207,6|2|0,0:0|0:0|0:0,0:0:0:0:
315,343,48927,1,2,0:0:0:0:
279,258,49115,2,0,B|293:236|294:201|283:175,1,85,10|2,0:0|0:0,0:0:0:0:
241,92,49490,2,0,B|229:69|200:52|171:47,1,85,2|2,0:0|0:0,0:0:0:0:
78,44,49865,1,0,0:0:0:0:
183,163,50240,2,0,P|127:165|65:210,1,127.5,4|0,0:0|0:0,0:0:0:0:
64,219,50615,2,0,P|87:174|80:106,1,85,8|0,0:0|0:0,0:0:0:0:
308,25,50990,5,2,0:0:0:0:
254,101,51177,1,2,0:0:0:0:
271,191,51365,2,0,P|305:217|346:229,1,85,2|2,0:0|0:0,0:0:0:0:
183,163,51740,2,0,P|139:181|103:225,1,85,0|2,0:0|0:0,0:0:0:0:
77,294,52115,1,14,0:0:0:0:
148,355,52302,1,2,0:0:0:0:
228,307,52490,1,2,0:0:0:0:
207,216,52677,1,2,0:0:0:0:
302,366,52865,6,0,B|357:364|415:323|422:257,1,170
302,242,53427,1,0,0:0:0:0:
312,260,53521,1,0,0:0:0:0:
329,271,53615,1,8,0:0:0:0:
421,263,53802,1,0,0:0:0:0:
492,202,53990,2,0,P|494:171|486:153,2,42.5,6|0|2,0:0|0:0|0:0,0:0:0:0:
411,125,54365,6,0,P|433:88|433:46,1,85,2|2,0:0|0:0,0:0:0:0:
321,153,54740,2,0,P|342:190|378:211,1,85,0|2,0:0|0:0,0:0:0:0:
338,61,55115,2,0,P|296:60|259:81,1,85,14|2,0:0|0:0,0:0:0:0:
205,157,55490,1,2,0:0:0:0:
202,177,55583,1,0,0:0:0:0:
206,197,55677,1,2,0:0:0:0:
74,200,55865,6,0,P|80:241|107:274,1,85
124,285,56146,1,0,0:0:0:0:
144,291,56240,2,0,P|78:290|24:329,1,127.5,4|0,0:0|0:0,0:0:0:0:
21,337,56615,2,0,P|33:285|18:250,1,85,8|0,0:0|0:0,0:0:0:0:
133,109,56990,5,2,0:0:0:0:
72,38,57177,1,2,0:0:0:0:
41,126,57365,2,0,P|67:158|73:199,2,85,2|2|0,0:0|0:0|0:0,0:0:0:0:
164,21,57927,1,2,0:0:0:0:
225,92,58115,1,10,0:0:0:0:
243,104,58208,1,0,0:0:0:0:
263,108,58302,1,2,0:0:0:0:
356,110,58490,2,0,B|392:102|421:79|433:53,1,85,6|2,0:0|0:0,0:0:0:0:
310,62,58865,5,0,0:0:0:0:
308,155,59052,1,0,0:0:0:0:
367,227,59240,2,0,B|409:255|473:256|522:214,1,127.5,4|0,0:0|0:0,0:0:0:0:
502,228,59615,2,0,P|467:257|456:307,1,85,8|0,0:0|0:0,0:0:0:0:
491,384,59990,1,2,0:0:0:0:
491,384,60177,1,2,0:0:0:0:
390,364,60365,6,0,B|351:359|351:359|337:363|337:363|289:358,2,101.999996887207,6|2|0,0:0|0:0|0:0,0:0:0:0:
196,348,60927,1,2,0:0:0:0:
253,274,61115,1,6,0:0:0:0:
262,255,61208,1,0,0:0:0:0:
263,233,61302,1,2,0:0:0:0:
169,226,61490,1,2,0:0:0:0:
160,245,61583,1,0,0:0:0:0:
159,267,61677,1,2,0:0:0:0:
93,334,61865,2,0,B|56:330|56:330|42:334|42:334|3:329,2,85,0|0|4,0:0|0:0|0:0,0:0:0:0:
63,24,62615,6,0,P|52:64|60:106,1,85,8|0,0:0|0:0,0:0:0:0:
110,187,62990,1,2,0:0:0:0:
159,267,63177,1,2,0:0:0:0:
155,104,63365,2,0,P|182:71|245:53,1,85,2|2,0:0|0:0,0:0:0:0:
270,133,63740,2,0,P|243:166|180:184,1,85,0|2,0:0|0:0,0:0:0:0:
406,0,64115,1,14,0:0:0:0:
415,19,64208,1,0,0:0:0:0:
416,41,64302,1,2,0:0:0:0:
322,48,64490,1,2,0:0:0:0:
313,29,64583,1,0,0:0:0:0:
312,7,64677,1,2,0:0:0:0:
486,109,64865,5,0,0:0:0:0:
476,201,65052,1,0,0:0:0:0:
395,249,65240,1,0,0:0:0:0:
302,239,65427,1,0,0:0:0:0:
281,243,65521,1,0,0:0:0:0:
265,257,65615,1,8,0:0:0:0:
157,270,65990,5,6,0:0:0:0:
96,341,66177,1,2,0:0:0:0:
65,251,66365,2,0,P|60:217|83:172,1,85,6|2,0:0|0:0,0:0:0:0:
157,270,66740,2,0,P|188:282|216:325,1,85,0|2,0:0|0:0,0:0:0:0:
289,252,67115,1,14,0:0:0:0:
301,268,67208,1,0,0:0:0:0:
307,288,67302,1,2,0:0:0:0:
397,310,67490,1,2,0:0:0:0:
394,330,67583,1,0,0:0:0:0:
381,347,67677,1,2,0:0:0:0:
482,274,67865,6,0,P|476:230|450:189,1,85
489,107,68240,2,0,B|476:157|425:201|353:174,1,170,2|8,0:0|0:0,0:0:0:0:
87,298,68990,5,2,0:0:0:0:
154,147,69177,1,2,0:0:0:0:
188,306,69365,1,2,0:0:0:0:
185,326,69458,1,0,0:0:0:0:
174,344,69552,1,2,0:0:0:0:
66,198,69740,1,0,0:0:0:0:
229,214,69928,1,2,0:0:0:0:
290,294,70115,5,10,0:0:0:0:
307,282,70208,1,0,0:0:0:0:
318,264,70302,1,2,0:0:0:0:
420,262,70490,1,6,0:0:0:0:
425,241,70583,1,0,0:0:0:0:
421,219,70677,1,2,0:0:0:0:
259,97,70865,5,0,0:0:0:0:
340,158,71052,1,0,0:0:0:0:
354,56,71240,2,0,P|319:17|268:5,1,85,4|0,0:0|0:0,0:0:0:0:
435,117,71615,1,0,0:0:0:0:
435,283,71990,6,0,P|416:254|420:219,1,72.2500013780594,4|8,0:0|0:0,0:0:0:0:
469,241,72365,6,0,B|380:304|338:266|293:226|201:288,1,280.49999143982
