osu file format v14

[General]
AudioFilename: audio.mp3
AudioLeadIn: 0
PreviewTime: 36365
Countdown: 0
SampleSet: Soft
StackLeniency: 0.8
Mode: 0
LetterboxInBreaks: 0
WidescreenStoryboard: 1

[Editor]
Bookmarks: 365,11615,18365,35802,36365,48365,60365,72365
DistanceSpacing: 1
BeatDivisor: 4
GridSize: 16
TimelineZoom: 2.5

[Metadata]
Title:Title Loop 1
TitleUnicode:タイトルループ1
Artist:Meguro Shoji
ArtistUnicode:目黒将司
Creator:Matrix
Version:Normal
Source:真・女神転生III-NOCTURNE
Tags:atlus electronic instrumental video game shin megami tensei iii nocturne heaven punisher shouji
BeatmapID:2711224
BeatmapSetID:1306508

[Difficulty]
HPDrainRate:3
CircleSize:3
OverallDifficulty:5
ApproachRate:6
SliderMultiplier:1.2
SliderTickRate:1

[Events]
//Background and Video events
Video,-1794,"2.mp4"
0,0,"Macey was the best dog EVER.jpg",0,0
//Break Periods
//Storyboard Layer 0 (Background)
//Storyboard Layer 1 (Fail)
//Storyboard Layer 2 (Pass)
//Storyboard Layer 3 (Foreground)
//Storyboard Layer 4 (Overlay)
//Storyboard Sound Samples

[TimingPoints]
365,375,4,2,2,30,1,0
365,-117.647058823529,4,2,2,30,0,0
18365,-117.647058823529,4,2,2,30,0,0
19115,-117.647058823529,4,2,2,30,0,0
23615,-117.647058823529,4,2,1,30,0,0
23802,-117.647058823529,4,2,2,30,0,0
23990,-117.647058823529,4,2,3,30,0,0
24365,-117.647058823529,4,2,2,30,0,0
25115,-117.647058823529,4,2,2,30,0,0
30365,-117.647058823529,4,2,2,30,0,0
31115,-117.647058823529,4,2,2,30,0,0
35802,-117.647058823529,4,2,1,40,0,0
36365,-117.647058823529,4,2,1,50,0,0
36927,-117.647058823529,4,2,1,50,0,0
48365,-117.647058823529,4,2,1,55,0,0
48927,-117.647058823529,4,2,1,55,0,0
60365,-117.647058823529,4,2,1,60,0,0
60927,-117.647058823529,4,2,1,60,0,0
71990,-117.647058823529,4,2,1,60,0,0
72365,-133.333333333333,4,2,1,60,0,0
72370,-133.333333333333,4,2,1,5,0,0

[Colours]
Combo1 : 199,52,173
Combo2 : 12,109,190
Combo3 : 126,98,174
Combo4 : 152,56,175
SliderBorder : 203,188,255
SliderTrackOverride : 51,26,141

[HitObjects]
207,207,365,6,0,L|321:174,1,102.000001945496,4|8,0:0|0:0,0:0:0:0:
402,149,1115,1,0,0:0:0:0:
452,147,1302,1,8,0:0:0:0:
496,172,1490,2,0,P|510:194|506:237,2,51.0000009727478,8|0|8,0:0|0:0|0:0,0:0:0:0:
494,19,2427,5,8,0:0:0:0:
446,38,2615,2,0,P|400:46|333:34,1,102.000001945496,0|8,0:0|0:0,0:0:0:0:
250,0,3365,1,8,0:0:0:0:
149,17,3740,1,8,0:0:0:0:
76,89,4115,6,0,P|50:78|20:78,2,51.0000009727478,0|8|8,0:0|0:0|0:0,0:0:0:0:
116,119,4677,1,0,0:0:0:0:
141,163,4865,1,8,0:0:0:0:
71,299,5427,6,0,P|35:302|18:311,2,51.0000009727478,8|0|8,0:0|0:0|0:0,0:0:0:0:
121,307,5990,1,8,0:0:0:0:
166,329,6177,1,0,0:0:0:0:
199,367,6365,2,0,L|317:355,1,102.000001945496,8|8,0:0|0:0,0:0:0:0:
402,346,7115,6,0,P|398:286|417:234,1,102.000001945496,0|8,0:0|0:0,0:0:0:0:
460,157,7865,1,8,0:0:0:0:
380,92,8240,5,0,0:0:0:0:
330,101,8427,2,0,P|313:77|285:63,2,51.0000009727478,8|0|8,0:0|0:0|0:0,0:0:0:0:
330,152,8990,1,8,0:0:0:0:
303,195,9177,1,0,0:0:0:0:
253,205,9365,1,8,0:0:0:0:
185,281,9740,1,8,0:0:0:0:
83,277,10115,6,0,P|94:234|90:215,1,51.0000009727478,0|8,0:0|0:0,0:0:0:0:
88,177,10490,2,0,P|80:146|57:123,1,51.0000009727478,8|0,0:0|0:0,0:0:0:0:
34,93,10865,1,8,0:0:0:0:
113,29,11240,5,0,0:0:0:0:
156,55,11427,2,0,L|213:42,1,51.0000009727478,0|4,0:0|0:0,0:0:0:0:
255,30,11802,1,8,0:0:0:0:
305,19,11990,2,0,L|293:136,1,102.000001945496,8|8,0:0|0:0,0:0:0:0:
281,221,12740,1,8,0:0:0:0:
266,321,13115,6,0,P|305:326|324:320,1,51.0000009727478,0|8,0:0|0:0,0:0:0:0:
365,310,13490,2,0,P|394:294|408:277,1,51.0000009727478,8|0,0:0|0:0,0:0:0:0:
432,237,13865,1,8,0:0:0:0:
451,136,14240,6,0,L|389:128,1,51.0000009727478,0|8,0:0|0:0,0:0:0:0:
350,120,14615,1,0,0:0:0:0:
305,94,14802,1,8,0:0:0:0:
288,45,14990,2,0,L|168:62,1,102.000001945496,8|8,0:0|0:0,0:0:0:0:
86,75,15740,1,8,0:0:0:0:
27,158,16115,6,0,P|49:179|60:201,1,51.0000009727478,0|8,0:0|0:0,0:0:0:0:
81,242,16490,2,0,P|89:284|82:307,1,51.0000009727478,8|0,0:0|0:0,0:0:0:0:
82,342,16865,1,8,0:0:0:0:
234,354,17427,5,8,0:0:0:0:
267,315,17615,2,0,P|289:296|314:285,1,51.0000009727478,0|8,0:0|0:0,0:0:0:0:
358,277,17990,1,8,0:0:0:0:
459,269,18365,6,0,B|428:216|484:187|443:109,1,153.000002918243,2|0,0:0|0:0,0:0:0:0:
422,75,19115,2,0,P|396:50|372:42,1,51.0000009727478,0|8,0:0|0:0,0:0:0:0:
332,36,19490,2,0,P|292:39|278:46,1,51.0000009727478,8|0,0:0|0:0,0:0:0:0:
240,72,19865,1,8,0:0:0:0:
348,179,20427,5,8,0:0:0:0:
327,225,20615,2,0,L|299:285,1,51.0000009727478,0|8,0:0|0:0,0:0:0:0:
282,316,20990,2,0,P|239:307|175:322,1,102.000001945496,8|8,0:0|0:0,0:0:0:0:
93,368,21740,1,8,0:0:0:0:
86,266,22115,6,0,P|73:237|47:215,1,51.0000009727478,0|8,0:0|0:0,0:0:0:0:
16,197,22490,2,0,L|26:139,1,51.0000009727478,8|0,0:0|0:0,0:0:0:0:
36,97,22865,1,8,0:0:0:0:
170,23,23427,5,8,0:0:0:0:
168,74,23615,2,0,P|174:102|191:127,1,51.0000009727478,8|8,0:0|0:0,0:0:0:0:
224,154,23990,2,0,P|258:167|279:165,1,51.0000009727478,8|8,0:0|0:0,0:0:0:0:
323,163,24365,6,0,L|339:324,1,153.000002918243,2|0,0:0|0:0,0:0:0:0:
343,366,25115,1,0,0:0:0:0:
444,372,25490,1,8,0:0:0:0:
508,292,25865,2,0,P|484:263|473:192,1,102.000001945496,8|0,0:0|0:0,0:0:0:0:
486,152,26427,1,8,0:0:0:0:
494,101,26615,2,0,P|487:68|472:51,1,51.0000009727478,0|8,0:0|0:0,0:0:0:0:
436,24,26990,1,8,0:0:0:0:
367,99,27365,1,8,0:0:0:0:
285,37,27740,1,8,0:0:0:0:
183,32,28115,5,0,0:0:0:0:
186,82,28302,1,8,0:0:0:0:
172,131,28490,2,0,P|160:160|137:184,1,51.0000009727478,8|0,0:0|0:0,0:0:0:0:
113,212,28865,1,8,0:0:0:0:
134,316,29240,6,0,L|190:303,1,51.0000009727478,0|8,0:0|0:0,0:0:0:0:
234,298,29615,1,0,0:0:0:0:
284,303,29802,1,8,0:0:0:0:
328,328,29990,1,12,0:0:0:0:
429,338,30365,6,0,L|437:180,1,153.000002918243,2|0,0:0|0:0,0:0:0:0:
436,134,31115,2,0,P|402:147|384:146,1,51.0000009727478,0|8,0:0|0:0,0:0:0:0:
337,140,31490,2,0,P|303:128|292:117,1,51.0000009727478,8|0,0:0|0:0,0:0:0:0:
267,73,31865,1,8,0:0:0:0:
200,150,32240,6,0,L|216:222,1,51.0000009727478,0|8,0:0|0:0,0:0:0:0:
219,250,32615,1,0,0:0:0:0:
216,300,32802,1,8,0:0:0:0:
189,343,32990,2,0,P|161:359|84:357,1,102.000001945496,8|8,0:0|0:0,0:0:0:0:
11,298,33740,1,8,0:0:0:0:
77,220,34115,5,0,0:0:0:0:
99,174,34302,1,8,0:0:0:0:
100,122,34490,1,8,0:0:0:0:
74,77,34677,1,0,0:0:0:0:
31,48,34865,1,8,0:0:0:0:
285,20,35802,5,8,0:0:0:0:
255,62,35990,1,8,0:0:0:0:
252,112,36177,1,8,0:0:0:0:
278,155,36365,2,0,P|309:172|329:173,2,51.0000009727478,6|2|0,0:0|0:0|0:0,0:0:0:0:
185,197,37115,6,0,P|178:234|185:257,1,51.0000009727478,10|2,0:0|0:0,0:0:0:0:
195,295,37490,2,0,P|218:325|247:339,1,51.0000009727478,2|2,0:0|0:0,0:0:0:0:
274,354,37865,1,0,0:0:0:0:
374,336,38240,1,4,0:0:0:0:
474,319,38615,1,8,0:0:0:0:
497,219,38990,5,2,0:0:0:0:
460,184,39177,1,2,0:0:0:0:
437,137,39365,2,0,P|432:96|436:81,1,51.0000009727478,2|2,0:0|0:0,0:0:0:0:
449,38,39740,1,0,0:0:0:0:
347,34,40115,6,0,L|273:38,1,51.0000009727478,14|2,0:0|0:0,0:0:0:0:
262,75,40490,2,0,L|188:79,1,51.0000009727478,2|2,0:0|0:0,0:0:0:0:
159,75,40865,2,0,P|97:58|62:23,1,102.000001945496
22,52,41427,1,0,0:0:0:0:
10,101,41615,2,0,P|18:129|15:168,2,51.0000009727478,8|0|6,0:0|0:0|0:0,0:0:0:0:
100,148,42365,6,0,P|108:178|107:202,1,51.0000009727478,2|2,0:0|0:0,0:0:0:0:
98,248,42740,2,0,P|88:278|74:299,1,51.0000009727478,0|2,0:0|0:0,0:0:0:0:
36,324,43115,1,14,0:0:0:0:
128,367,43490,1,2,0:0:0:0:
224,333,43865,2,0,P|287:326|344:341,1,102.000001945496,0|4,0:0|0:0,0:0:0:0:
421,367,44615,5,8,0:0:0:0:
470,354,44802,1,0,0:0:0:0:
504,316,44990,2,0,P|508:284|506:260,1,51.0000009727478,2|2,0:0|0:0,0:0:0:0:
495,215,45365,2,0,P|472:183|451:168,2,51.0000009727478,2|2|0,0:0|0:0|0:0,0:0:0:0:
402,258,46115,6,0,L|348:251,1,51.0000009727478,10|2,0:0|0:0,0:0:0:0:
311,219,46490,2,0,L|257:212,1,51.0000009727478,6|2,0:0|0:0,0:0:0:0:
209,205,46865,1,0,0:0:0:0:
159,217,47052,1,0,0:0:0:0:
121,252,47240,1,4,0:0:0:0:
37,193,47615,1,8,0:0:0:0:
32,91,47990,2,0,P|57:65|80:56,1,51.0000009727478,2|2,0:0|0:0,0:0:0:0:
120,48,48365,2,0,P|143:46|177:59,2,51.0000009727478,6|2|0,0:0|0:0|0:0,0:0:0:0:
136,148,49115,6,0,P|168:157|205:153,1,51.0000009727478,10|2,0:0|0:0,0:0:0:0:
236,150,49490,2,0,P|266:136|292:109,1,51.0000009727478,2|2,0:0|0:0,0:0:0:0:
313,86,49865,1,0,0:0:0:0:
392,21,50240,2,0,L|402:134,1,102.000001945496,4|8,0:0|0:0,0:0:0:0:
411,224,50990,6,0,P|428:249|453:262,1,51.0000009727478,2|2,0:0|0:0,0:0:0:0:
495,269,51365,2,0,L|491:322,1,51.0000009727478,2|2,0:0|0:0,0:0:0:0:
487,370,51740,1,0,0:0:0:0:
392,332,52115,2,0,P|346:322|326:323,1,51.0000009727478,14|2,0:0|0:0,0:0:0:0:
291,326,52490,2,0,P|261:336|237:354,1,51.0000009727478,2|2,0:0|0:0,0:0:0:0:
204,377,52865,1,0,0:0:0:0:
107,343,53240,1,0,0:0:0:0:
130,297,53427,1,0,0:0:0:0:
171,267,53615,1,8,0:0:0:0:
244,196,53990,6,0,B|223:175|192:173,1,51.0000009727478,6|2,0:0|0:0,0:0:0:0:
148,175,54365,2,0,L|145:115,1,51.0000009727478,2|2,0:0|0:0,0:0:0:0:
143,72,54740,1,0,0:0:0:0:
236,32,55115,1,14,0:0:0:0:
304,107,55490,1,2,0:0:0:0:
402,78,55865,5,0,0:0:0:0:
407,128,56052,1,0,0:0:0:0:
436,169,56240,1,4,0:0:0:0:
481,260,56615,2,0,P|479:291|468:325,1,51.0000009727478,8|0,0:0|0:0,0:0:0:0:
453,357,56990,1,2,0:0:0:0:
407,380,57177,1,2,0:0:0:0:
355,382,57365,2,0,P|328:379|297:368,2,51.0000009727478,2|2|0,0:0|0:0|0:0,0:0:0:0:
318,286,58115,6,0,P|294:257|289:235,1,51.0000009727478,10|2,0:0|0:0,0:0:0:0:
285,193,58490,2,0,P|298:162|317:144,1,51.0000009727478,6|2,0:0|0:0,0:0:0:0:
343,110,58865,1,0,0:0:0:0:
354,60,59052,1,0,0:0:0:0:
332,13,59240,1,4,0:0:0:0:
249,72,59615,1,8,0:0:0:0:
166,12,59990,6,0,L|113:33,1,51.0000009727478,2|2,0:0|0:0,0:0:0:0:
70,48,60365,2,0,P|37:35|9:10,2,51.0000009727478,6|2|0,0:0|0:0|0:0,0:0:0:0:
116,138,61115,2,0,P|113:178|97:200,1,51.0000009727478,6|2,0:0|0:0,0:0:0:0:
76,227,61490,2,0,L|82:288,1,51.0000009727478,2|2,0:0|0:0,0:0:0:0:
87,328,61865,1,0,0:0:0:0:
181,365,62240,2,0,P|224:345|287:347,1,102.000001945496,4|8,0:0|0:0,0:0:0:0:
376,370,62990,5,2,0:0:0:0:
392,321,63177,1,2,0:0:0:0:
408,272,63365,2,0,P|407:228|396:210,1,51.0000009727478,2|2,0:0|0:0,0:0:0:0:
388,173,63740,1,0,0:0:0:0:
299,122,64115,6,0,L|301:179,1,51.0000009727478,14|2,0:0|0:0,0:0:0:0:
268,212,64490,2,0,L|270:269,1,51.0000009727478,2|2,0:0|0:0,0:0:0:0:
270,314,64865,2,0,P|211:314|155:296,1,102.000001945496
82,249,65615,1,8,0:0:0:0:
149,172,65990,5,6,0:0:0:0:
160,122,66177,1,2,0:0:0:0:
152,71,66365,2,0,P|130:44|103:28,1,51.0000009727478,6|2,0:0|0:0,0:0:0:0:
68,18,66740,2,0,P|35:16|7:23,2,51.0000009727478,0|2|14,0:0|0:0|0:0,0:0:0:0:
40,116,67490,1,2,0:0:0:0:
64,214,67865,1,0,0:0:0:0:
83,314,68240,2,0,P|137:302|204:313,1,102.000001945496,2|8,0:0|0:0,0:0:0:0:
277,346,68990,5,2,0:0:0:0:
321,378,69177,1,2,0:0:0:0:
372,378,69365,2,0,P|406:367|433:345,1,51.0000009727478,2|2,0:0|0:0,0:0:0:0:
456,324,69740,1,0,0:0:0:0:
442,222,70115,6,0,P|452:185|475:159,1,51.0000009727478,10|2,0:0|0:0,0:0:0:0:
488,133,70490,2,0,L|486:74,2,51.0000009727478,6|2|0,0:0|0:0|0:0,0:0:0:0:
392,96,71240,2,0,P|345:96|294:124,1,102.000001945496,4|0,0:0|0:0,0:0:0:0:
184,122,71990,6,0,P|178:149|156:174,1,51.0000009727478,4|8,0:0|0:0,0:0:0:0:
123,194,72365,2,0,B|284:191|266:352|450:339,1,360.000013732911
