osu file format v14

[General]
AudioFilename: audio.mp3
AudioLeadIn: 0
PreviewTime: 36365
Countdown: 0
SampleSet: Soft
StackLeniency: 0.8
Mode: 0
LetterboxInBreaks: 0
WidescreenStoryboard: 1

[Editor]
Bookmarks: 365,11615,18365,35802,36365,48365,60365,72365
DistanceSpacing: 1.1
BeatDivisor: 4
GridSize: 16
TimelineZoom: 2.5

[Metadata]
Title:Title Loop 1
TitleUnicode:タイトルループ1
Artist:Meguro Shoji
ArtistUnicode:目黒将司
Creator:Matrix
Version:Hard
Source:真・女神転生III-NOCTURNE
Tags:atlus electronic instrumental video game shin megami tensei iii nocturne heaven punisher shouji
BeatmapID:2711049
BeatmapSetID:1306508

[Difficulty]
HPDrainRate:5
CircleSize:5
OverallDifficulty:6
ApproachRate:7
SliderMultiplier:1.5
SliderTickRate:1

[Events]
//Background and Video events
Video,-1794,"2.mp4"
0,0,"Macey was the best dog EVER.jpg",0,0
//Break Periods
//Storyboard Layer 0 (Background)
//Storyboard Layer 1 (Fail)
//Storyboard Layer 2 (Pass)
//Storyboard Layer 3 (Foreground)
//Storyboard Layer 4 (Overlay)
//Storyboard Sound Samples

[TimingPoints]
365,375,4,2,2,30,1,0
365,-117.647058823529,4,2,2,30,0,0
18365,-200,4,2,2,30,0,0
19115,-117.647058823529,4,2,2,30,0,0
23615,-117.647058823529,4,2,1,30,0,0
23802,-117.647058823529,4,2,2,30,0,0
23990,-117.647058823529,4,2,3,30,0,0
24365,-222.222222222222,4,2,2,30,0,0
25115,-117.647058823529,4,2,2,30,0,0
30365,-250,4,2,2,30,0,0
31115,-117.647058823529,4,2,2,30,0,0
35802,-117.647058823529,4,2,1,40,0,0
36365,-83.3333333333333,4,2,1,50,0,0
36927,-100,4,2,1,50,0,0
48365,-83.3333333333333,4,2,1,55,0,0
48927,-100,4,2,1,55,0,0
60365,-83.3333333333333,4,2,1,60,0,0
60927,-100,4,2,1,60,0,0
71990,-117.647058823529,4,2,1,60,0,0
72365,-333.333333333333,4,2,1,60,0,0
72370,-333.333333333333,4,2,1,5,0,0

[Colours]
Combo1 : 199,52,173
Combo2 : 12,109,190
Combo3 : 126,98,174
Combo4 : 152,56,175
SliderBorder : 203,188,255
SliderTrackOverride : 51,26,141

[HitObjects]
252,256,365,6,0,L|260:121,1,127.50000243187,4|8,0:0|0:0,0:0:0:0:
131,135,1115,2,0,P|72:163|52:153,1,63.7500012159348,0|8,0:0|0:0,0:0:0:0:
48,107,1490,2,0,P|107:79|127:89,1,63.7500012159348,8|0,0:0|0:0,0:0:0:0:
164,80,1865,1,8,0:0:0:0:
354,65,2427,6,0,P|337:36|337:4,2,63.7500012159348,8|0|8,0:0|0:0|0:0,0:0:0:0:
404,104,2990,1,8,0:0:0:0:
432,160,3177,1,0,0:0:0:0:
428,223,3365,1,8,0:0:0:0:
433,234,3740,1,8,0:0:0:0:
440,244,4115,6,0,P|469:269|499:274,2,63.7500012159348,0|8|8,0:0|0:0|0:0,0:0:0:0:
378,227,4677,1,0,0:0:0:0:
317,248,4865,1,8,0:0:0:0:
156,352,5427,5,8,0:0:0:0:
92,345,5615,1,0,0:0:0:0:
61,289,5802,1,8,0:0:0:0:
76,227,5990,1,8,0:0:0:0:
117,178,6177,1,0,0:0:0:0:
139,118,6365,2,0,B|150:68|120:26|76:15,1,127.50000243187,8|8,0:0|0:0,0:0:0:0:
308,77,7115,6,0,P|336:60|352:33,1,63.7500012159348,0|8,0:0|0:0,0:0:0:0:
251,104,7490,2,0,P|254:144|276:171,1,63.7500012159348,8|0,0:0|0:0,0:0:0:0:
255,40,7865,1,8,0:0:0:0:
495,196,8427,5,8,0:0:0:0:
453,243,8615,2,0,P|437:271|433:303,1,63.7500012159348,0|8,0:0|0:0,0:0:0:0:
430,184,8990,2,0,P|399:144|368:131,1,63.7500012159348,8|0,0:0|0:0,0:0:0:0:
327,118,9365,2,0,P|368:42|402:18,1,127.50000243187,8|8,0:0|0:0,0:0:0:0:
205,59,10115,6,0,P|244:43|265:19,2,63.7500012159348,0|8|8,0:0|0:0|0:0,0:0:0:0:
141,59,10677,1,0,0:0:0:0:
80,37,10865,2,0,P|37:61|33:192,1,191.250003647804,8|0,0:0|0:0,0:0:0:0:
116,232,11615,5,4,0:0:0:0:
174,257,11802,1,8,0:0:0:0:
224,218,11990,1,8,0:0:0:0:
166,193,12177,1,0,0:0:0:0:
182,321,12365,6,0,B|227:311|278:325|306:365,1,127.50000243187,8|8,0:0|0:0,0:0:0:0:
490,325,13115,2,0,P|474:292|481:244,1,63.7500012159348,0|8,0:0|0:0,0:0:0:0:
414,242,13490,2,0,P|381:258|333:251,1,63.7500012159348,8|0,0:0|0:0,0:0:0:0:
465,203,13865,1,8,0:0:0:0:
440,77,14240,6,0,P|407:93|359:86,1,63.7500012159348,0|8,0:0|0:0,0:0:0:0:
318,79,14615,1,0,0:0:0:0:
261,50,14802,1,8,0:0:0:0:
197,42,14990,1,8,0:0:0:0:
73,73,15365,2,0,P|93:119|98:200,1,127.50000243187,8|8,0:0|0:0,0:0:0:0:
18,294,16115,5,0,0:0:0:0:
20,357,16302,1,8,0:0:0:0:
80,373,16490,1,8,0:0:0:0:
113,321,16677,1,0,0:0:0:0:
73,272,16865,2,0,B|93:329|168:354|240:322,1,191.250003647804,8|8,0:0|0:0,0:0:0:0:
298,308,17615,6,0,P|338:302|377:312,1,63.7500012159348,0|8,0:0|0:0,0:0:0:0:
421,325,17990,2,0,P|457:343|483:373,1,63.7500012159348,8|0,0:0|0:0,0:0:0:0:
483,373,18365,6,0,B|468:335|482:314|495:293|477:257,1,112.5,2|0,0:0|0:0,0:0:0:0:
464,200,19115,6,0,P|481:172|504:151,1,63.7500012159348,0|8,0:0|0:0,0:0:0:0:
420,245,19490,2,0,P|388:244|357:233,1,63.7500012159348,8|0,0:0|0:0,0:0:0:0:
300,205,19865,1,8,0:0:0:0:
446,108,20427,5,8,0:0:0:0:
458,45,20614,2,0,P|482:24|512:16,1,63.7500012159348,0|8,0:0|0:0,0:0:0:0:
397,65,20989,2,0,P|357:47|342:29,1,63.7500012159348,8|0,0:0|0:0,0:0:0:0:
281,20,21365,2,0,L|126:31,1,127.50000243187,8|8,0:0|0:0,0:0:0:0:
32,70,22115,5,0,0:0:0:0:
87,100,22302,1,8,0:0:0:0:
114,157,22490,1,8,0:0:0:0:
101,219,22677,1,0,0:0:0:0:
53,262,22865,1,8,0:0:0:0:
210,370,23427,5,8,0:0:0:0:
266,339,23615,2,0,P|281:304|281:261,1,63.7500012159348,8|8,0:0|0:0,0:0:0:0:
285,214,23990,1,8,0:0:0:0:
290,199,24083,1,8,0:0:0:0:
300,186,24177,1,8,0:0:0:0:
312,176,24271,1,8,0:0:0:0:
325,168,24365,6,0,L|432:173,1,101.249996910095,2|0,0:0|0:0,0:0:0:0:
467,124,25115,6,0,P|443:89|440:57,1,63.7500012159348,0|8,0:0|0:0,0:0:0:0:
463,226,25490,2,0,P|487:261|490:293,1,63.7500012159348,8|0,0:0|0:0,0:0:0:0:
480,344,25865,1,8,0:0:0:0:
353,324,26240,6,0,P|372:348|380:379,2,63.7500012159348,0|8|0,0:0|0:0|0:0,0:0:0:0:
293,302,26802,1,8,0:0:0:0:
231,320,26990,1,8,0:0:0:0:
113,369,27365,2,0,B|75:382|16:362|6:318,1,127.50000243187,8|8,0:0|0:0,0:0:0:0:
114,187,28115,6,0,P|114:219|100:247,1,63.7500012159348,0|8,0:0|0:0,0:0:0:0:
38,229,28490,2,0,P|42:186|56:166,1,63.7500012159348,8|0,0:0|0:0,0:0:0:0:
99,126,28865,1,8,0:0:0:0:
187,34,29240,6,0,L|257:43,1,63.7500012159348,0|8,0:0|0:0,0:0:0:0:
311,23,29614,1,0,0:0:0:0:
349,72,29802,1,8,0:0:0:0:
313,123,29989,1,12,0:0:0:0:
253,104,30177,1,0,0:0:0:0:
372,14,30365,6,0,L|463:25,1,90,2|0,0:0|0:0,0:0:0:0:
463,157,31115,6,0,B|481:126|478:95,1,63.7500012159348,0|8,0:0|0:0,0:0:0:0:
399,151,31490,2,0,B|381:182|383:212,1,63.7500012159348,8|0,0:0|0:0,0:0:0:0:
409,270,31865,1,8,0:0:0:0:
298,355,32240,5,0,0:0:0:0:
263,300,32427,2,0,P|291:287|331:300,2,63.7500012159348,8|0|8,0:0|0:0|0:0,0:0:0:0:
216,345,32990,1,8,0:0:0:0:
157,369,33177,1,0,0:0:0:0:
94,355,33365,1,8,0:0:0:0:
22,249,33740,1,8,0:0:0:0:
84,138,34115,5,0,0:0:0:0:
142,54,34302,1,8,0:0:0:0:
46,90,34490,1,8,0:0:0:0:
144,117,34677,1,0,0:0:0:0:
81,37,34865,1,8,0:0:0:0:
453,0,35802,5,8,0:0:0:0:
461,105,35990,1,8,0:0:0:0:
512,49,36177,1,8,0:0:0:0:
402,56,36365,2,0,P|367:71|334:112,2,89.9999972534181,6|2|0,0:0|0:0|0:0,0:0:0:0:
276,51,36927,5,2,0:0:0:0:
195,67,37115,2,0,P|158:73|123:60,1,75,10|2,0:0|0:0,0:0:0:0:
253,126,37490,2,0,P|283:182|281:198,1,75,2|2,0:0|0:0,0:0:0:0:
287,272,37865,2,0,P|329:334|398:361,1,150,0|4,0:0|0:0,0:0:0:0:
180,305,38615,6,0,P|189:268|211:238,1,75,8|0,0:0|0:0,0:0:0:0:
282,190,38990,1,2,0:0:0:0:
363,181,39177,1,2,0:0:0:0:
443,198,39365,2,0,P|473:218|501:254,2,75,2|2|0,0:0|0:0|0:0,0:0:0:0:
415,120,39927,5,2,0:0:0:0:
363,181,40115,2,0,P|323:208|264:213,1,75,14|2,0:0|0:0,0:0:0:0:
215,228,40490,2,0,P|179:238|149:261,1,75,2|2,0:0|0:0,0:0:0:0:
99,327,40865,1,0,0:0:0:0:
26,178,41240,6,0,P|61:167|91:144,2,75,0|0|8,0:0|0:0|0:0,0:0:0:0:
24,95,41802,1,0,0:0:0:0:
100,62,41990,1,6,0:0:0:0:
169,106,42177,1,2,0:0:0:0:
164,188,42365,6,0,P|207:218|252:219,1,75,2|2,0:0|0:0,0:0:0:0:
310,213,42740,2,0,P|349:191|372:157,1,75,0|2,0:0|0:0,0:0:0:0:
398,93,43115,1,14,0:0:0:0:
398,93,43208,1,0,0:0:0:0:
398,93,43302,1,2,0:0:0:0:
476,118,43490,2,0,P|476:160|454:196,2,75,2|2|0,0:0|0:0|0:0,0:0:0:0:
356,3,44240,5,4,0:0:0:0:
292,155,44615,1,8,0:0:0:0:
221,197,44802,1,0,0:0:0:0:
142,172,44990,1,2,0:0:0:0:
114,94,45177,1,2,0:0:0:0:
160,25,45365,6,0,P|194:7|244:9,2,75,2|2|0,0:0|0:0|0:0,0:0:0:0:
114,94,45927,1,2,0:0:0:0:
42,130,46115,1,10,0:0:0:0:
42,130,46208,1,0,0:0:0:0:
42,130,46302,1,2,0:0:0:0:
16,208,46490,2,0,P|43:247|41:279,1,75,6|2,0:0|0:0,0:0:0:0:
20,352,46865,5,0,0:0:0:0:
99,330,47052,1,0,0:0:0:0:
176,359,47240,1,4,0:0:0:0:
334,372,47615,2,0,P|378:360|411:328,1,75,8|0,0:0|0:0,0:0:0:0:
449,275,47990,1,2,0:0:0:0:
452,192,48177,1,2,0:0:0:0:
408,121,48365,6,0,P|443:94|462:53,2,89.9999972534181,6|2|0,0:0|0:0|0:0,0:0:0:0:
331,151,48927,1,2,0:0:0:0:
253,160,49115,1,10,0:0:0:0:
253,160,49208,1,0,0:0:0:0:
253,160,49302,1,2,0:0:0:0:
174,133,49490,2,0,P|147:113|121:71,1,75,2|2,0:0|0:0,0:0:0:0:
109,4,49865,1,0,0:0:0:0:
21,143,50240,2,0,B|53:183|62:234|43:289,1,150,4|8,0:0|0:0,0:0:0:0:
191,355,50990,5,2,0:0:0:0:
254,302,51177,1,2,0:0:0:0:
223,225,51365,2,0,L|128:230,1,75,2|2,0:0|0:0,0:0:0:0:
115,152,51740,2,0,L|179:96,1,75,0|2,0:0|0:0,0:0:0:0:
250,142,52115,1,14,0:0:0:0:
250,142,52208,1,0,0:0:0:0:
250,142,52302,1,2,0:0:0:0:
319,95,52490,2,0,P|337:108|346:123,2,37.5,2|0|2,0:0|0:0|0:0,0:0:0:0:
297,15,52865,5,0,0:0:0:0:
462,12,53240,1,0,0:0:0:0:
432,88,53427,1,0,0:0:0:0:
512,75,53615,2,0,L|504:159,1,75,8|0,0:0|0:0,0:0:0:0:
450,232,53990,6,0,P|483:271|488:306,1,75,6|2,0:0|0:0,0:0:0:0:
344,309,54365,2,0,P|347:272|367:240,1,75,2|2,0:0|0:0,0:0:0:0:
402,164,54740,1,0,0:0:0:0:
320,172,54927,1,2,0:0:0:0:
276,244,55115,1,14,0:0:0:0:
276,244,55209,1,0,0:0:0:0:
276,244,55303,1,2,0:0:0:0:
230,312,55490,2,0,P|193:340|149:344,1,75,2|2,0:0|0:0,0:0:0:0:
84,329,55865,1,0,0:0:0:0:
4,184,56240,6,0,P|67:136|142:129,1,150,4|8,0:0|0:0,0:0:0:0:
215,148,56802,1,0,0:0:0:0:
295,165,56990,2,0,P|335:163|386:134,1,75,2|2,0:0|0:0,0:0:0:0:
434,101,57365,2,0,P|461:70|473:23,2,75,2|2|0,0:0|0:0|0:0,0:0:0:0:
358,66,57927,5,2,0:0:0:0:
281,54,58115,1,10,0:0:0:0:
281,54,58208,1,0,0:0:0:0:
281,54,58302,1,2,0:0:0:0:
199,42,58490,2,0,P|158:47|117:73,1,75,6|2,0:0|0:0,0:0:0:0:
94,137,58865,2,0,L|5:150,2,75,0|0|4,0:0|0:0|0:0,0:0:0:0:
6,277,59615,2,0,L|80:266,1,75,8|0,0:0|0:0,0:0:0:0:
162,253,59990,1,2,0:0:0:0:
141,332,60177,1,2,0:0:0:0:
224,318,60365,6,0,L|315:305,2,89.9999972534181,6|2|0,0:0|0:0|0:0,0:0:0:0:
162,253,60927,1,2,0:0:0:0:
226,200,61115,1,6,0:0:0:0:
226,200,61208,1,0,0:0:0:0:
226,200,61302,1,2,0:0:0:0:
308,193,61490,2,0,P|353:209|383:237,1,75,2|2,0:0|0:0,0:0:0:0:
430,285,61865,1,0,0:0:0:0:
504,137,62240,2,0,P|462:121|395:22,1,150,4|8,0:0|0:0,0:0:0:0:
274,95,62990,5,2,0:0:0:0:
232,25,63177,1,2,0:0:0:0:
153,44,63365,2,0,L|145:126,2,75,2|2|0,0:0|0:0|0:0,0:0:0:0:
74,17,63927,1,2,0:0:0:0:
31,89,64115,1,14,0:0:0:0:
31,89,64209,1,0,0:0:0:0:
31,89,64303,1,2,0:0:0:0:
60,169,64490,2,0,P|42:185|31:206,2,37.5,2|0|2,0:0|0:0|0:0,0:0:0:0:
138,200,64865,1,0,0:0:0:0:
12,307,65240,5,0,0:0:0:0:
87,274,65427,1,0,0:0:0:0:
166,297,65615,2,0,P|209:311|253:311,1,75,8|0,0:0|0:0,0:0:0:0:
321,313,65990,5,6,0:0:0:0:
277,243,66177,1,2,0:0:0:0:
281,160,66365,2,0,P|302:123|342:98,2,75,6|2|0,0:0|0:0|0:0,0:0:0:0:
349,205,66927,1,2,0:0:0:0:
437,202,67115,1,14,0:0:0:0:
437,202,67208,1,0,0:0:0:0:
437,202,67302,1,2,0:0:0:0:
502,152,67490,1,2,0:0:0:0:
501,69,67677,1,2,0:0:0:0:
438,14,67865,2,0,B|390:-3|311:15|286:60,1,150,0|2,0:0|0:0,0:0:0:0:
242,200,68615,1,8,0:0:0:0:
77,199,68990,5,2,0:0:0:0:
129,262,69177,1,2,0:0:0:0:
47,276,69365,2,0,L|39:358,2,75,2|2|0,0:0|0:0|0:0,0:0:0:0:
77,199,69927,1,2,0:0:0:0:
50,120,70115,2,0,P|84:94|97:57,1,75,10|2,0:0|0:0,0:0:0:0:
178,58,70490,1,6,0:0:0:0:
178,58,70583,1,0,0:0:0:0:
178,58,70677,1,2,0:0:0:0:
258,40,70865,1,0,0:0:0:0:
227,116,71052,1,0,0:0:0:0:
307,98,71240,2,0,P|360:91|451:138,1,150,4|0,0:0|0:0,0:0:0:0:
398,298,71990,6,0,P|390:267|398:236,1,63.7500012159348,4|8,0:0|0:0,0:0:0:0:
453,267,72365,6,0,B|348:301|312:198|217:231,1,247.4999924469
