osu file format v14

[General]
AudioFilename: audio.mp3
AudioLeadIn: 0
PreviewTime: 42936
Countdown: 0
SampleSet: Soft
StackLeniency: 0.7
Mode: 0
LetterboxInBreaks: 0
WidescreenStoryboard: 0

[Editor]
Bookmarks: 9583,20877,32172,43642,49289,66230
DistanceSpacing: 1
BeatDivisor: 4
GridSize: 4
TimelineZoom: 1.4

[Metadata]
Title:Reach Out To The Truth
TitleUnicode:Reach Out To The Truth
Artist:Meguro Shoji
ArtistUnicode:目黒将司
Creator:Mocaotic
Version:Normal
Source:ペルソナ4
Tags:persona four persona4 平田志穂子 Shihoko Hirata ザ・ゴールデン Golden Atlus super smash bros. bros ultimate Japanese Video Game
BeatmapID:2193800
BeatmapSetID:1049655

[Difficulty]
HPDrainRate:4
CircleSize:3.5
OverallDifficulty:4
ApproachRate:5
SliderMultiplier:1
SliderTickRate:1

[Events]
//Background and Video events
0,0,"2496d54d5ed4fc05615b84eb14e295a1.jpg",0,0
//Break Periods
//Storyboard Layer 0 (Background)
//Storyboard Layer 1 (Fail)
//Storyboard Layer 2 (Pass)
//Storyboard Layer 3 (Foreground)
//Storyboard Layer 4 (Overlay)
//Storyboard Sound Samples

[TimingPoints]
-122,352.941176470588,4,2,2,62,1,0
1289,-100,4,2,2,75,0,1
6936,-100,4,2,2,88,0,1
8877,-100,4,2,2,70,0,1
9583,-111.111111111111,4,2,2,50,0,0
19554,-111.111111111111,4,2,2,5,0,0
19819,-111.111111111111,4,2,2,62,0,0
19907,-111.111111111111,4,2,2,5,0,0
20172,-111.111111111111,4,2,2,62,0,0
20789,-111.111111111111,4,2,2,5,0,0
20877,-100,4,2,2,65,0,0
43642,-100,4,2,2,75,0,1
49289,-90.9090909090909,4,2,2,88,0,1
66230,-100,4,2,2,75,0,0

[Colours]
Combo1 : 192,192,192
Combo2 : 247,219,64
Combo3 : 159,159,159
Combo4 : 255,255,128

[HitObjects]
54,179,583,5,12,0:2:0:0:
54,179,760,1,2,3:2:0:0:
138,57,1290,6,0,B|181:27|181:27|291:20,1,150,6|2,0:0|0:2,0:0:0:0:
328,19,1995,1,8,0:2:0:0:
400,87,2348,1,2,0:2:0:0:
303,114,2701,6,0,B|280:158|280:158|299:269,1,150,6|2,0:2|0:2,0:0:0:0:
308,305,3407,1,8,0:2:0:0:
397,349,3760,1,2,0:2:0:0:
466,277,4113,5,6,0:2:0:0:
466,277,4289,1,2,0:2:0:0:
419,189,4642,1,2,3:2:0:0:
321,205,4995,1,2,3:2:0:0:
304,303,5348,6,0,P|244:341|164:303,1,150,6|2,0:2|0:2,0:0:0:0:
124,229,6230,1,10,0:2:0:0:
190,154,6583,2,0,L|257:147,1,50,10|0,3:2|3:2,0:0:0:0:
287,133,6936,6,0,P|297:76|268:19,1,100,6|10,0:2|0:2,0:0:0:0:
238,14,7466,2,0,L|129:26,1,100,2|0,3:2|3:2,0:0:0:0:
93,46,7995,2,0,P|86:80|93:117,1,50,10|2,0:2|0:2,0:0:0:0:
106,141,8348,5,6,0:2:0:0:
190,194,8701,2,0,L|257:189,1,50,10|4,0:2|0:2,0:0:0:0:
286,208,9054,2,0,P|308:256|300:315,1,100,2|8,0:2|0:2,0:0:0:0:
278,339,9583,5,6,0:2:0:0:
190,359,9936,1,0,0:2:0:0:
190,359,10113,2,0,L|130:369,1,44.999998626709,8|0,0:2|3:2,0:0:0:0:
100,359,10466,2,0,P|84:327|89:267,1,89.9999972534181,0|8,3:2|0:2,0:0:0:0:
101,231,10995,5,2,3:0:0:0:
132,146,11348,1,0,0:2:0:0:
132,146,11525,2,0,P|136:117|130:89,1,44.999998626709,8|0,0:2|3:2,0:0:0:0:
106,66,11877,2,0,L|52:73,2,44.999998626709,0|0|8,0:2|3:2|0:2,0:0:0:0:
134,30,12407,5,6,0:2:0:0:
222,12,12760,1,0,0:2:0:0:
222,12,12936,2,0,L|286:13,1,44.999998626709,8|0,0:2|3:2,0:0:0:0:
308,29,13289,2,0,P|321:88|308:125,1,89.9999972534181,0|8,3:2|0:2,0:0:0:0:
290,154,13819,5,2,3:0:0:0:
346,224,14172,1,0,3:2:0:0:
433,201,14525,2,0,P|468:158|471:75,1,134.999995880127,0|8,3:2|0:2,0:0:0:0:
455,39,15230,5,6,0:2:0:0:
367,18,15583,1,0,0:2:0:0:
367,18,15760,2,0,L|315:18,1,44.999998626709,8|0,0:2|3:2,0:0:0:0:
280,35,16113,2,0,P|269:94|287:132,1,89.9999972534181,0|8,3:2|0:2,0:0:0:0:
307,155,16642,5,2,3:0:0:0:
377,210,16995,1,0,3:2:0:0:
377,210,17172,2,0,L|376:275,1,44.999998626709,8|0,0:2|3:2,0:0:0:0:
400,293,17525,2,0,P|431:298|458:292,2,44.999998626709,0|0|8,0:2|3:2|0:2,0:0:0:0:
376,331,18054,5,6,0:2:0:0:
296,372,18407,1,0,0:2:0:0:
296,372,18583,2,0,L|246:369,1,44.999998626709,8|0,0:2|3:2,0:0:0:0:
209,351,18936,2,0,P|202:309|226:253,1,89.9999972534181,0|8,3:2|0:2,0:0:0:0:
243,227,19466,5,2,3:2:0:0:
181,161,19819,1,2,3:2:0:0:
105,209,20172,2,0,P|75:270|77:340,1,134.999995880127,2|8,3:2|0:2,0:0:0:0:
112,370,20877,6,0,B|148:377|148:377|227:353,1,100,6|2,0:2|0:2,0:0:0:0:
252,333,21407,2,0,P|286:324|319:332,1,50,10|2,0:2|3:2,0:0:0:0:
341,353,21760,2,0,L|446:350,1,100,2|10,3:2|0:2,0:0:0:0:
501,270,22466,6,0,P|501:231|495:210,1,50,2|2,0:2|3:2,0:0:0:0:
477,175,22819,2,0,P|477:136|483:115,1,50,10|2,0:2|3:2,0:0:0:0:
506,83,23172,2,0,P|501:43|435:11,1,100,2|10,0:2|0:2,0:0:0:0:
356,29,23877,6,0,P|337:68|348:138,1,100,2|10,0:0|0:2,0:0:0:0:
367,174,24407,1,2,3:2:0:0:
367,174,24583,2,0,P|368:208|358:230,1,50,2|0,3:2|3:2,0:0:0:0:
332,263,24936,1,10,0:2:0:0:
332,263,25113,5,2,3:0:0:0:
257,196,25466,1,2,3:2:0:0:
187,267,25819,1,2,3:2:0:0:
187,267,25995,2,0,L|127:270,1,50,2|2,0:2|3:2,0:0:0:0:
91,272,26348,1,10,0:2:0:0:
91,272,26525,5,4,0:2:0:0:
38,187,26877,2,0,P|25:135|47:82,1,100,2|2,0:2|3:2,0:0:0:0:
71,53,27407,2,0,L|126:45,1,50,2|2,3:2|3:2,0:0:0:0:
170,44,27760,1,10,0:2:0:0:
251,102,28113,6,0,P|261:132|259:157,1,50,2|0,0:2|3:2,0:0:0:0:
239,195,28466,2,0,P|228:225|231:250,1,50,10|0,0:2|3:2,0:0:0:0:
249,288,28819,2,0,L|309:282,2,50,2|2|10,0:2|3:2|0:2,0:0:0:0:
161,337,29525,6,0,B|136:359|136:359|60:352,1,100,2|8,0:2|0:2,0:0:0:0:
26,328,30054,2,0,P|18:273|44:219,1,100,2|2,3:2|3:2,0:0:0:0:
64,193,30583,1,10,0:2:0:0:
163,184,30936,6,0,L|275:176,1,100,2|10,0:2|0:2,0:0:0:0:
306,152,31466,2,0,P|314:97|288:43,1,100,2|2,3:2|3:2,0:0:0:0:
263,26,31995,1,10,0:2:0:0:
263,26,32172,5,4,0:2:0:0:
167,54,32525,2,0,L|106:47,2,50,2|10|2,0:2|0:2|3:2,0:0:0:0:
203,88,33054,2,0,L|211:202,1,100,2|10,3:2|0:2,0:0:0:0:
214,237,33583,5,2,3:0:0:0:
295,294,33936,1,2,3:2:0:0:
366,223,34289,1,2,3:2:0:0:
357,123,34642,2,0,L|351:50,1,50,2|10,3:2|0:2,0:0:0:0:
348,23,34995,5,6,0:2:0:0:
448,21,35348,2,0,P|475:60|470:117,1,100,2|2,0:2|3:2,0:0:0:0:
450,155,35877,2,0,P|444:187|454:220,1,50,2|2,3:2|3:2,0:0:0:0:
471,247,36230,2,0,P|477:279|467:312,1,50,10|2,0:2|3:0,0:0:0:0:
449,339,36583,5,2,0:0:0:0:
350,321,36936,2,0,L|280:315,1,50,10|2,0:2|3:2,0:0:0:0:
270,276,37289,2,0,L|200:282,1,50,2|2,0:2|3:2,0:0:0:0:
183,257,37642,1,10,0:2:0:0:
183,257,37819,5,4,0:2:0:0:
88,289,38172,2,8,P|82:321|87:348,1,50,2|10,0:2|0:2,0:0:0:0:
114,379,38525,2,0,L|219:370,1,100,2|2,3:2|3:2,0:0:0:0:
269,370,39054,1,8,0:2:0:0:
269,370,39230,5,2,3:0:0:0:
337,296,39583,1,2,3:2:0:0:
337,296,39760,2,0,P|330:263|343:227,1,50,10|2,0:2|3:2,0:0:0:0:
357,203,40113,2,0,L|410:200,2,50,2|2|10,0:2|3:2|0:2,0:0:0:0:
320,168,40642,5,4,0:2:0:0:
268,82,40995,2,0,L|215:79,2,50,2|10|2,0:2|0:2|3:2,0:0:0:0:
302,45,41525,2,0,L|365:39,1,50,2|2,0:2|3:2,0:0:0:0:
399,54,41877,2,0,L|458:65,1,50,8|8,0:2|0:2,0:0:0:0:
497,72,42230,5,2,3:2:0:0:
510,271,42936,1,10,0:2:0:0:
510,271,43113,1,2,3:2:0:0:
403,375,43642,6,0,B|358:345|358:345|244:352,1,150,6|2,0:2|0:2,0:0:0:0:
212,354,44348,1,8,0:2:0:0:
115,381,44701,1,2,0:2:0:0:
33,323,45054,6,0,B|12:278|12:278|29:174,1,150,6|2,0:2|0:2,0:0:0:0:
38,129,45760,1,8,0:2:0:0:
126,82,46113,1,2,0:2:0:0:
197,151,46466,5,6,0:2:0:0:
197,151,46642,1,2,0:2:0:0:
153,240,46995,1,2,3:2:0:0:
224,309,47348,1,2,3:2:0:0:
307,254,47701,6,0,P|346:219|447:225,1,150,6|2,0:2|0:2,0:0:0:0:
503,297,48583,1,10,0:2:0:0:
429,365,48936,2,0,L|364:360,1,50,10|0,3:2|3:2,0:0:0:0:
325,352,49289,6,0,P|296:284|309:249,1,110.000003356934,6|10,0:2|0:2,0:0:0:0:
337,207,49819,2,0,L|456:198,1,110.000003356934,2|0,3:2|3:2,0:0:0:0:
492,168,50348,2,0,P|492:127|484:106,1,55.0000016784668,10|2,0:2|3:2,0:0:0:0:
461,65,50701,5,2,0:2:0:0:
364,12,51054,2,0,L|291:18,1,55.0000016784668,10|0,0:2|3:2,0:0:0:0:
273,60,51407,2,0,L|200:54,1,55.0000016784668,2|0,0:2|3:2,0:0:0:0:
177,18,51760,2,0,L|104:24,1,55.0000016784668,10|2,0:2|3:0,0:0:0:0:
80,58,52113,6,0,P|65:98|81:172,1,110.000003356934,2|8,0:2|0:2,0:0:0:0:
169,221,52819,2,0,P|184:261|168:335,1,110.000003356934,2|8,3:2|0:2,0:0:0:0:
130,361,53348,1,2,3:2:0:0:
75,355,53525,2,0,P|42:327|18:255,1,110.000003356934,2|8,0:2|0:2,0:0:0:0:
17,211,54054,2,0,L|26:77,1,110.000003356934,0|0,3:2|3:2,0:0:0:0:
27,46,54583,1,10,0:2:0:0:
133,18,54936,6,0,B|171:30|171:30|245:12,1,110.000003356934,6|10,0:2|0:2,0:0:0:0:
293,24,55466,2,0,P|332:64|337:119,1,110.000003356934,2|0,3:2|3:2,0:0:0:0:
309,163,55995,2,0,L|243:175,1,55.0000016784668,10|2,0:2|3:2,0:0:0:0:
211,206,56348,6,0,B|196:242|196:242|207:313,1,110.000003356934,2|10,0:2|0:2,0:0:0:0:
248,348,56877,2,0,P|305:365|354:342,1,110.000003356934,2|0,3:2|3:2,0:0:0:0:
383,302,57407,1,10,0:2:0:0:
444,210,57760,6,0,B|472:241|472:241|479:327,1,110.000003356934,4|10,0:2|0:2,0:0:0:0:
479,364,58289,1,2,3:2:0:0:
369,368,58642,1,2,3:2:0:0:
285,296,58995,6,0,P|269:241|291:184,1,110.000003356934,2|0,3:2|3:2,0:0:0:0:
325,154,59525,2,0,L|385:151,1,55.0000016784668,10|0,0:2|3:2,0:0:0:0:
428,126,59877,2,0,P|430:99|416:61,1,55.0000016784668,2|0,0:2|3:2,0:0:0:0:
390,27,60230,1,10,0:2:0:0:
280,24,60583,6,0,L|153:32,1,110.000003356934,6|8,0:2|0:2,0:0:0:0:
121,56,61113,2,0,P|96:98|115:171,1,110.000003356934,2|0,3:2|3:2,0:0:0:0:
141,197,61642,2,0,L|191:231,1,55.0000016784668,10|2,0:2|3:2,0:0:0:0:
233,257,61995,5,2,0:2:0:0:
325,197,62348,1,10,0:2:0:0:
410,265,62701,1,2,0:2:0:0:
410,265,62877,1,2,3:2:0:0:
371,366,63230,6,0,L|247:362,1,110.000003356934,6|0,0:2|0:2,0:0:0:0:
208,345,63760,2,0,P|195:294|221:230,1,110.000003356934,10|0,0:2|3:2,0:0:0:0:
242,194,64289,2,0,P|255:143|229:79,1,110.000003356934,2|0,3:2|3:2,0:0:0:0:
196,52,64819,5,2,0:2:0:0:
94,95,65172,1,8,0:2:0:0:
94,95,65348,2,0,P|76:147|106:216,1,110.000003356934,2|0,3:2|3:2,0:0:0:0:
130,236,65877,1,10,0:2:0:0:
222,197,66230,6,0,B|254:177|254:177|330:175,1,100,6|10,0:2|0:2,0:0:0:0:
361,196,66760,2,0,P|382:257|364:311,1,100,2|0,3:2|3:2,0:0:0:0:
349,333,67289,1,10,0:2:0:0:
253,361,67642,6,0,L|149:366,1,100,2|10,0:2|0:2,0:0:0:0:
106,347,68172,2,0,P|89:302|106:234,1,100,2|0,3:2|3:2,0:0:0:0:
123,209,68701,1,10,0:2:0:0:
222,202,69054,6,0,L|336:196,1,100,2|8,0:2|0:2,0:0:0:0:
366,174,69583,2,0,P|382:144|384:120,1,50,2|0,3:2|3:2,0:0:0:0:
369,80,69936,2,0,P|339:64|315:62,1,50,2|8,3:2|0:2,0:0:0:0:
281,89,70289,6,0,B|259:115|259:115|184:118,1,100,2|0,0:2|3:2,0:0:0:0:
142,115,70819,1,10,0:2:0:0:
73,41,71172,1,2,0:2:0:0:
14,122,71525,2,0,L|14:187,1,50,10|4,0:2|0:2,0:0:0:0:
47,209,71877,6,0,P|98:185|157:203,1,100,2|8,0:2|0:2,0:0:0:0:
184,214,72407,2,0,P|235:238|294:220,1,100,2|0,3:2|0:2,0:0:0:0:
318,204,72936,2,0,L|322:149,1,50,10|2,0:2|3:2,0:0:0:0:
328,104,73289,5,2,0:2:0:0:
416,57,73642,1,10,0:2:0:0:
487,126,73995,1,2,3:2:0:0:
487,126,74172,1,2,3:2:0:0:
443,214,74525,6,0,P|431:271|446:327,1,100,6|0,0:2|0:2,0:0:0:0:
422,358,75054,2,0,L|368:374,1,50,8|0,0:2|3:2,0:0:0:0:
326,355,75407,2,0,P|256:331|211:339,1,100,2|8,3:2|0:2,0:0:0:0:
137,298,76113,6,0,P|109:248|119:185,1,100,2|8,0:2|0:2,0:0:0:0:
138,164,76642,2,0,L|235:141,1,100,0|0,3:2|3:2,0:0:0:0:
284,130,77172,1,10,0:2:0:0:
375,169,77525,6,0,B|397:189|397:189|405:267,1,100,2|10,0:2|0:2,0:0:0:0:
384,304,78054,2,0,P|344:330|277:317,1,100,2|0,3:2|3:2,0:0:0:0:
256,292,78583,1,10,0:2:0:0:
263,192,78936,6,0,L|269:88,1,100,2|10,0:2|0:2,0:0:0:0:
249,45,79466,2,0,P|200:28|138:45,1,100,2|0,3:2|3:2,0:0:0:0:
111,62,79995,1,10,0:2:0:0:
122,161,80348,6,0,L|134:283,1,100,2|10,0:2|0:2,0:0:0:0:
162,300,80877,2,0,P|205:305|227:293,1,50,2|0,3:2|3:2,0:0:0:0:
250,273,81230,2,0,P|293:268|315:280,1,50,2|8,3:2|0:2,0:0:0:0:
337,301,81583,6,0,B|359:324|359:324|444:321,1,100,2|0,3:2|3:2,0:0:0:0:
477,320,82113,1,10,0:2:0:0:
508,225,82466,1,2,0:2:0:0:
462,135,82819,2,0,L|411:136,1,50,10|4,0:2|0:2,0:0:0:0:
362,139,83172,6,0,P|351:174|370:244,1,100,2|8,0:2|0:2,0:0:0:0:
390,277,83701,2,0,P|401:312|382:382,1,100,2|0,3:2|3:2,0:0:0:0:
338,377,84230,2,0,L|283:370,1,50,10|2,0:2|3:2,0:0:0:0:
239,361,84583,5,2,0:2:0:0:
141,340,84936,1,10,0:2:0:0:
130,240,85289,1,2,0:2:0:0:
130,240,85466,1,2,3:2:0:0:
221,199,85819,6,0,P|276:193|322:219,1,100,6|0,0:2|0:2,0:0:0:0:
364,208,86348,2,0,L|411:174,1,50,8|0,0:2|3:2,0:0:0:0:
439,143,86701,1,0,3:2:0:0:
439,143,86877,2,0,P|427:98|434:76,2,50,0|8|0,3:2|0:2|3:2,0:0:0:0:
479,173,87407,6,0,P|499:233|486:280,1,100,2|8,0:2|0:2,0:0:0:0:
428,345,88113,2,0,L|362:346,1,50,8|8,0:2|0:2,0:0:0:0:
327,347,88466,1,8,0:2:0:0:
327,347,88642,1,12,0:2:0:0:
