osu file format v14

[General]
AudioFilename: audio.mp3
AudioLeadIn: 0
PreviewTime: 42936
Countdown: 0
SampleSet: Soft
StackLeniency: 0.7
Mode: 0
LetterboxInBreaks: 0
WidescreenStoryboard: 1

[Editor]
DistanceSpacing: 1.3
BeatDivisor: 4
GridSize: 4
TimelineZoom: 1.4

[Metadata]
Title:Reach Out To The Truth
TitleUnicode:Reach Out To The Truth
Artist:Meguro Shoji
ArtistUnicode:目黒将司
Creator:Mocaotic
Version:Hard
Source:ペルソナ4
Tags:persona four persona4 平田志穂子 Shihoko Hirata ザ・ゴールデン Golden Atlus super smash bros. bros ultimate Japanese Video Game
BeatmapID:2193798
BeatmapSetID:1049655

[Difficulty]
HPDrainRate:5
CircleSize:4
OverallDifficulty:6.5
ApproachRate:8
SliderMultiplier:1.3
SliderTickRate:1

[Events]
//Background and Video events
0,0,"2496d54d5ed4fc05615b84eb14e295a1.jpg",0,0
//Break Periods
//Storyboard Layer 0 (Background)
//Storyboard Layer 1 (Fail)
//Storyboard Layer 2 (Pass)
//Storyboard Layer 3 (Foreground)
//Storyboard Layer 4 (Overlay)
//Storyboard Sound Samples

[TimingPoints]
-122,352.941176470588,4,2,2,62,1,0
1289,-100,4,2,2,75,0,1
6936,-86.9565217391304,4,2,2,88,0,1
8877,-86.9565217391304,4,2,2,70,0,1
9583,-117.647058823529,4,2,2,50,0,0
19554,-117.647058823529,4,2,2,5,0,0
19819,-117.647058823529,4,2,2,62,0,0
19907,-117.647058823529,4,2,2,5,0,0
20172,-117.647058823529,4,2,2,62,0,0
20789,-117.647058823529,4,2,2,5,0,0
20877,-100,4,2,2,65,0,0
43642,-100,4,2,2,75,0,1
49289,-86.9565217391304,4,2,2,88,0,1
66230,-100,4,2,2,75,0,0

[Colours]
Combo1 : 192,192,192
Combo2 : 247,219,64
Combo3 : 159,159,159
Combo4 : 255,255,128

[HitObjects]
109,55,583,5,12,0:2:0:0:
109,55,760,1,2,3:2:0:0:
132,78,1289,6,0,B|226:95|222:13|337:42,1,195,6|2,0:0|0:2,0:0:0:0:
398,61,1995,1,8,0:2:0:0:
406,72,2348,1,2,0:2:0:0:
414,83,2701,6,0,P|426:136|324:226,1,195,6|2,0:2|0:2,0:0:0:0:
253,201,3407,1,8,0:2:0:0:
242,192,3760,1,2,0:2:0:0:
230,182,4113,5,6,0:2:0:0:
150,209,4289,2,0,L|130:291,1,65,2|0,0:2|0:2,0:0:0:0:
117,355,4642,2,0,L|198:331,1,65,2|8,3:2|0:2,0:0:0:0:
259,310,4995,2,0,L|197:251,1,65,2|0,3:2|0:0,0:0:0:0:
135,204,5348,6,0,P|182:226|258:193,1,130,6|0,0:2|0:2,0:0:0:0:
303,133,5877,1,2,0:2:0:0:
187,9,6230,1,10,0:2:0:0:
112,158,6583,1,10,3:2:0:0:
118,170,6671,1,8,3:2:0:0:
125,184,6759,1,0,3:2:0:0:
134,199,6847,1,0,3:2:0:0:
142,212,6936,6,0,B|235:195,1,74.7500014257431,6|2,0:2|0:2,0:0:0:0:
296,141,7289,1,10,0:2:0:0:
296,141,7466,2,0,P|264:195|299:283,1,149.500002851486,2|0,3:2|3:2,0:0:0:0:
354,344,7995,1,10,0:2:0:0:
406,261,8172,1,2,0:2:0:0:
288,273,8348,6,0,L|188:268,1,74.7500014257431,6|0,0:2|0:2,0:0:0:0:
256,182,8701,2,0,L|356:177,1,74.7500014257431,10|4,0:2|0:2,0:0:0:0:
287,90,9054,2,0,L|187:85,1,74.7500014257431,2|0,0:2|0:2,0:0:0:0:
132,30,9407,1,8,0:2:0:0:
85,105,9583,5,6,0:2:0:0:
184,230,9936,1,0,0:2:0:0:
184,230,10113,2,0,L|243:223,1,55.2500010538101,8|0,0:2|3:2,0:0:0:0:
306,185,10466,2,0,P|308:149|294:115,2,55.2500010538101,0|0|8,3:2|3:2|0:2,0:0:0:0:
358,263,10995,5,2,3:0:0:0:
479,160,11348,1,0,0:2:0:0:
479,160,11525,2,0,P|481:116|470:87,1,55.2500010538101,8|0,0:2|3:2,0:0:0:0:
430,44,11877,2,0,P|386:42|357:53,1,55.2500010538101,0|0,0:2|3:2,0:0:0:0:
315,93,12230,1,8,0:2:0:0:
241,35,12407,5,6,0:2:0:0:
170,173,12760,1,0,0:2:0:0:
170,173,12936,2,0,L|181:248,1,55.2500010538101,8|0,0:2|3:2,0:0:0:0:
140,295,13289,2,0,P|115:303|71:298,2,55.2500010538101,0|0|8,3:2|3:2|0:2,0:0:0:0:
234,339,13819,5,2,3:0:0:0:
388,326,14172,1,0,3:2:0:0:
262,235,14525,2,0,P|218:234|153:277,1,110.50000210762,0|0,3:2|3:2,0:0:0:0:
112,325,15054,1,8,0:2:0:0:
40,264,15230,5,6,0:2:0:0:
74,109,15583,1,0,0:2:0:0:
74,109,15760,2,0,L|143:104,1,55.2500010538101,8|0,0:2|3:2,0:0:0:0:
198,69,16113,2,0,P|208:32|204:8,2,55.2500010538101,0|0|8,3:2|3:2|0:2,0:0:0:0:
251,148,16642,5,2,3:0:0:0:
121,229,16995,1,0,3:2:0:0:
121,229,17172,2,0,P|89:227|53:238,1,55.2500010538101,8|0,0:2|3:2,0:0:0:0:
50,308,17525,2,0,P|82:310|118:299,1,55.2500010538101,0|0,0:2|3:2,0:0:0:0:
178,284,17877,1,8,0:2:0:0:
255,343,18054,5,6,0:2:0:0:
405,306,18407,1,0,0:2:0:0:
405,306,18583,2,0,L|407:240,1,55.2500010538101,8|0,0:2|3:2,0:0:0:0:
440,181,18936,2,0,P|470:174|501:174,2,55.2500010538101,0|0|8,3:2|3:2|0:2,0:0:0:0:
354,128,19466,5,2,3:2:0:0:
246,239,19819,1,2,3:2:0:0:
348,354,20172,2,0,P|390:371|469:349,1,110.50000210762,2|0,3:2|3:0,0:0:0:0:
482,334,20613,1,0,3:0:0:0:
482,334,20701,1,8,0:2:0:0:
436,238,20877,6,0,B|415:201|415:201|415:103,1,130,6|2,0:2|0:2,0:0:0:0:
386,40,21407,2,0,P|346:31|311:43,1,65,10|2,0:2|3:2,0:0:0:0:
261,83,21760,2,0,P|211:90|141:38,1,130,2|10,3:2|0:2,0:0:0:0:
13,119,22466,6,0,L|16:203,1,65,2|2,0:2|3:2,0:0:0:0:
77,230,22819,2,0,L|74:314,1,65,10|2,0:2|3:2,0:0:0:0:
27,357,23172,2,0,P|79:331|150:355,1,130,2|10,0:2|0:2,0:0:0:0:
280,272,23877,5,2,0:0:0:0:
335,326,24054,1,2,0:2:0:0:
415,319,24230,1,10,0:2:0:0:
415,319,24407,2,0,L|420:389,2,65,2|2|0,3:2|3:2|3:2,0:0:0:0:
467,260,24936,1,10,0:2:0:0:
406,210,25113,5,2,3:0:0:0:
447,59,25466,1,2,3:2:0:0:
296,18,25819,1,2,3:2:0:0:
296,18,25995,2,0,L|296:90,1,65,2|2,0:2|3:2,0:0:0:0:
300,161,26348,1,10,0:2:0:0:
365,118,26525,5,4,0:2:0:0:
499,196,26877,2,0,B|505:245|505:245|481:331,1,130,2|2,0:2|3:2,0:0:0:0:
418,367,27407,2,0,L|339:363,1,65,2|2,3:2|3:2,0:0:0:0:
275,354,27760,1,10,0:2:0:0:
209,212,28113,6,0,P|256:201|296:217,1,65,2|0,0:2|3:2,0:0:0:0:
343,235,28466,2,0,P|375:237|405:227,1,65,10|0,0:2|3:2,0:0:0:0:
443,158,28819,2,0,L|445:85,1,65,2|2,0:2|3:2,0:0:0:0:
447,14,29172,1,10,0:2:0:0:
378,51,29348,1,4,0:2:0:0:
311,9,29525,6,0,B|265:1|265:1|165:24,1,130,2|8,0:2|0:2,0:0:0:0:
129,75,30054,2,0,P|171:119|168:195,1,130,2|2,3:2|3:2,0:0:0:0:
129,250,30583,1,10,0:2:0:0:
129,250,30760,1,2,3:0:0:0:
51,238,30936,6,0,B|23:200|23:200|16:96,1,130,2|10,0:2|0:2,0:0:0:0:
40,42,31466,2,0,P|108:19|172:38,1,130,2|2,3:2|3:2,0:0:0:0:
227,76,31995,1,10,0:2:0:0:
282,21,32172,5,4,0:2:0:0:
430,68,32525,2,0,P|442:103|437:134,1,65,2|10,0:2|0:2,0:0:0:0:
389,190,32877,1,2,3:2:0:0:
436,252,33054,2,0,L|515:246,2,65,2|0|10,3:2|3:2|0:2,0:0:0:0:
382,308,33583,6,0,P|346:318|305:304,1,65,2|0,3:0|0:2,0:0:0:0:
275,248,33936,2,0,L|273:154,1,65,2|8,3:2|0:2,0:0:0:0:
235,114,34289,2,0,P|199:104|158:118,1,65,2|0,3:2|0:2,0:0:0:0:
115,163,34642,1,2,3:2:0:0:
153,231,34819,1,10,0:0:0:0:
113,298,34995,5,6,0:2:0:0:
259,349,35348,2,0,P|290:302|254:220,1,130,2|2,0:2|3:2,0:0:0:0:
208,188,35877,2,0,L|127:187,1,65,2|2,3:2|3:2,0:0:0:0:
74,149,36230,1,10,0:2:0:0:
74,149,36407,1,2,3:0:0:0:
109,79,36583,6,0,B|144:56|144:56|254:46,1,130,2|10,0:2|0:2,0:0:0:0:
289,101,37113,1,2,3:2:0:0:
357,63,37289,2,0,P|364:25|360:-3,2,65,2|2|10,0:2|3:2|0:2,0:0:0:0:
405,124,37819,5,4,0:2:0:0:
275,211,38172,2,0,L|204:211,1,65,2|10,0:2|0:2,0:0:0:0:
135,234,38525,2,0,P|110:302|142:372,1,130,2|2,3:2|3:2,0:0:0:0:
199,382,39054,1,8,0:2:0:0:
253,326,39230,6,0,P|320:300|391:326,1,130,2|2,3:0|3:2,0:0:0:0:
441,355,39760,1,10,0:2:0:0:
441,355,39936,1,2,3:2:0:0:
486,291,40113,2,0,L|492:209,1,65,2|2,0:2|3:2,0:0:0:0:
497,148,40466,1,10,0:2:0:0:
424,176,40642,5,4,0:2:0:0:
295,88,40995,2,0,L|287:17,2,65,2|10|2,0:2|0:2|3:2,0:0:0:0:
260,158,41525,2,0,P|226:170|195:165,1,65,2|2,0:2|3:2,0:0:0:0:
134,120,41877,1,8,0:2:0:0:
70,166,42054,1,8,0:2:0:0:
25,102,42230,5,2,3:2:0:0:
25,102,42407,1,2,3:2:0:0:
40,75,42936,6,0,L|135:63,1,65,10|2,0:2|3:2,0:0:0:0:
172,16,43289,2,0,L|267:28,1,65,8|0,0:2|3:2,0:0:0:0:
324,81,43642,6,0,B|348:182|275:188|323:289,1,195,6|2,0:2|0:2,0:0:0:0:
364,340,44348,1,8,0:2:0:0:
374,348,44701,1,2,0:2:0:0:
384,356,45054,6,0,P|463:347|468:239,1,195,6|2,0:2|0:2,0:0:0:0:
425,178,45760,1,8,0:2:0:0:
413,172,46113,1,2,0:2:0:0:
401,166,46466,5,6,0:2:0:0:
325,127,46642,2,0,L|351:54,1,65,2|0,0:2|0:2,0:0:0:0:
403,3,46995,2,0,L|453:62,1,65,2|8,3:2|0:2,0:0:0:0:
471,132,47348,2,0,L|394:145,1,65,2|0,3:2|0:0,0:0:0:0:
320,94,47701,6,0,P|344:123|338:226,1,130,6|0,0:2|0:2,0:0:0:0:
303,285,48230,1,2,0:2:0:0:
153,363,48583,1,10,0:2:0:0:
49,225,48936,1,10,3:2:0:0:
51,210,49024,1,8,3:2:0:0:
55,196,49112,1,0,3:2:0:0:
58,181,49200,1,0,3:2:0:0:
62,167,49289,6,0,L|149:147,1,74.7500014257431,6|2,0:2|0:2,0:0:0:0:
226,188,49642,1,10,0:2:0:0:
226,188,49819,2,0,P|193:148|219:45,1,149.500002851486,2|0,3:2|3:2,0:0:0:0:
291,0,50348,1,10,0:2:0:0:
315,94,50525,1,2,3:2:0:0:
206,56,50701,6,0,L|127:51,1,74.7500014257431,2|0,0:2|3:2,0:0:0:0:
91,141,51054,2,0,L|170:136,1,74.7500014257431,10|0,0:2|3:2,0:0:0:0:
207,225,51407,2,0,L|128:220,1,74.7500014257431,2|0,0:2|3:2,0:0:0:0:
69,294,51760,1,10,0:2:0:0:
157,333,51936,1,2,3:0:0:0:
207,225,52113,6,0,L|213:122,1,74.7500014257431,2|0,0:2|0:2,0:0:0:0:
307,133,52466,2,0,L|301:30,1,74.7500014257431,8|0,0:2|3:2,0:0:0:0:
216,12,52819,2,0,B|254:39|254:39|360:30,1,149.500002851486,2|8,3:2|0:2,0:0:0:0:
453,27,53348,1,2,3:2:0:0:
377,111,53525,6,0,P|354:163|372:264,1,149.500002851486,2|8,0:2|0:2,0:0:0:0:
449,302,54054,2,0,L|288:295,1,149.500002851486,0|0,3:2|3:2,0:0:0:0:
214,247,54583,1,10,0:2:0:0:
278,173,54760,1,2,3:2:0:0:
167,145,54936,6,0,L|63:154,1,74.7500014257431,6|0,0:2|0:2,0:0:0:0:
30,75,55289,1,10,0:2:0:0:
30,75,55466,2,0,P|62:136|43:223,1,149.500002851486,2|0,3:2|3:2,0:0:0:0:
2,298,55995,1,10,0:2:0:0:
70,366,56172,1,2,3:2:0:0:
150,288,56348,6,0,P|188:273|248:280,1,74.7500014257431,2|0,0:2|3:2,0:0:0:0:
305,322,56701,1,10,0:2:0:0:
305,322,56877,2,0,P|281:287|297:182,1,149.500002851486,2|0,3:2|3:2,0:0:0:0:
363,117,57407,1,10,0:2:0:0:
432,184,57583,1,2,3:2:0:0:
499,92,57760,6,0,P|508:54|491:-8,1,74.7500014257431,4|0,0:2|0:2,0:0:0:0:
400,96,58113,1,10,0:2:0:0:
400,96,58289,2,0,P|401:135|433:190,1,74.7500014257431,2|0,3:2|0:2,0:0:0:0:
328,214,58642,2,0,P|327:251|313:285,1,74.7500014257431,2|8,3:2|0:2,0:0:0:0:
208,336,58995,6,0,B|184:297|184:297|191:177,1,149.500002851486,2|0,3:2|3:2,0:0:0:0:
149,104,59525,2,0,P|108:93|68:106,1,74.7500014257431,10|0,0:2|3:2,0:0:0:0:
14,174,59877,2,0,L|18:272,1,74.7500014257431,2|0,0:2|3:2,0:0:0:0:
22,346,60230,1,10,0:2:0:0:
102,290,60407,1,0,3:2:0:0:
164,382,60583,6,0,L|261:378,1,74.7500014257431,6|0,0:2|0:2,0:0:0:0:
329,344,60936,1,8,0:2:0:0:
329,344,61113,2,0,P|356:296|326:198,1,149.500002851486,2|0,3:2|3:2,0:0:0:0:
253,154,61642,1,10,0:2:0:0:
198,235,61819,1,2,3:2:0:0:
104,173,61995,6,0,P|95:129|110:88,1,74.7500014257431,2|0,0:2|3:2,0:0:0:0:
182,45,62348,2,0,L|285:37,1,74.7500014257431,10|0,0:2|3:2,0:0:0:0:
353,33,62701,1,2,0:2:0:0:
314,121,62877,1,2,3:2:0:0:
411,115,63054,1,8,0:2:0:0:
480,204,63230,6,0,P|481:280|425:357,1,149.500002851486,6|0,0:2|0:2,0:0:0:0:
352,376,63760,2,0,L|190:370,1,149.500002851486,10|0,0:2|3:2,0:0:0:0:
139,296,64289,2,0,L|132:214,2,74.7500014257431,2|8|0,3:2|0:2|3:2,0:0:0:0:
74,369,64819,6,0,P|26:378|-18:361,1,74.7500014257431,2|0,0:2|3:2,0:0:0:0:
139,296,65172,1,8,0:2:0:0:
139,296,65348,2,0,P|210:291|280:342,1,149.500002851486,2|0,3:2|3:2,0:0:0:0:
356,281,65877,1,10,0:2:0:0:
356,281,66054,1,2,3:2:0:0:
428,350,66230,6,0,B|452:303|452:303|445:223,1,130,6|10,0:2|0:2,0:0:0:0:
496,157,66760,2,0,P|464:175|361:135,1,130,2|0,3:2|3:2,0:0:0:0:
333,83,67289,1,10,0:2:0:0:
333,83,67466,1,2,3:2:0:0:
266,134,67642,6,0,L|275:274,1,130,2|10,0:2|0:2,0:0:0:0:
331,327,68172,2,0,P|284:301|202:317,1,130,2|0,3:2|3:2,0:0:0:0:
152,372,68701,1,10,0:2:0:0:
88,316,68877,1,2,3:0:0:0:
11,376,69054,6,0,P|33:327|0:235,1,130,2|8,0:2|0:2,0:0:0:0:
57,180,69583,2,0,L|130:171,1,65,2|0,3:2|3:2,0:0:0:0:
187,118,69936,2,0,L|178:45,1,65,2|8,3:2|0:2,0:0:0:0:
104,11,70289,6,0,P|55:36|14:103,1,130,2|0,0:2|3:2,0:0:0:0:
51,175,70819,2,0,L|83:240,1,65,10|0,0:2|3:2,0:0:0:0:
164,231,71172,2,0,L|229:199,1,65,2|0,0:2|3:2,0:0:0:0:
307,202,71525,1,10,0:2:0:0:
343,277,71701,1,4,0:2:0:0:
426,285,71877,6,0,P|465:239|439:149,1,130,2|8,0:2|0:2,0:0:0:0:
394,117,72407,2,0,L|258:127,1,130,2|0,3:2|0:2,0:0:0:0:
194,78,72936,1,10,0:2:0:0:
194,78,73113,1,2,3:2:0:0:
251,16,73289,6,0,L|324:7,1,65,2|0,0:2|3:2,0:0:0:0:
373,70,73642,2,0,L|430:115,1,65,10|0,0:2|3:2,0:0:0:0:
422,195,73995,2,0,L|431:268,1,65,2|2,3:2|3:2,0:0:0:0:
387,332,74348,1,8,0:2:0:0:
341,246,74525,6,0,P|307:219|201:222,1,130,6|0,0:2|0:2,0:0:0:0:
157,267,75054,1,8,0:2:0:0:
157,267,75230,1,0,3:2:0:0:
183,347,75407,2,0,B|221:371|221:371|311:367,1,130,2|8,3:2|0:2,0:0:0:0:
375,318,75936,1,0,3:2:0:0:
435,377,76113,6,0,L|429:237,1,130,2|8,0:2|0:2,0:0:0:0:
367,189,76642,2,0,P|427:208|491:177,1,130,0|0,3:2|3:2,0:0:0:0:
510,100,77172,1,10,0:2:0:0:
448,42,77348,1,2,3:0:0:0:
422,122,77525,6,0,L|262:107,1,130,2|10,0:2|0:2,0:0:0:0:
218,68,78054,2,0,P|241:111|200:196,1,130,2|0,3:2|3:2,0:0:0:0:
151,238,78583,1,10,0:2:0:0:
151,238,78760,1,2,3:2:0:0:
71,210,78936,6,0,L|62:81,1,130,2|10,0:2|0:2,0:0:0:0:
4,17,79466,2,0,P|50:55|137:48,1,130,2|0,3:2|3:2,0:0:0:0:
187,9,79995,1,10,0:2:0:0:
259,53,80172,1,6,3:2:0:0:
205,118,80348,6,0,B|182:151|182:151|190:242,1,130,2|10,0:2|0:2,0:0:0:0:
250,300,80877,2,0,P|288:305|320:288,1,65,2|0,3:2|3:2,0:0:0:0:
381,246,81230,2,0,P|419:241|451:258,1,65,2|8,3:2|0:2,0:0:0:0:
478,328,81583,6,0,B|456:369|456:369|359:377,1,130,2|0,3:2|3:2,0:0:0:0:
295,340,82113,2,0,L|269:280,1,65,10|0,0:2|3:2,0:0:0:0:
199,232,82466,2,0,L|132:241,1,65,2|0,0:2|3:2,0:0:0:0:
52,217,82819,1,10,0:2:0:0:
21,138,82995,1,4,0:2:0:0:
79,76,83172,6,0,P|127:61|205:113,1,130,2|8,0:2|0:2,0:0:0:0:
246,162,83701,2,0,B|239:301,1,130,2|0,3:2|3:2,0:0:0:0:
187,358,84230,1,10,0:2:0:0:
187,358,84407,1,2,3:2:0:0:
112,319,84583,6,0,L|39:278,1,65,2|0,0:2|3:2,0:0:0:0:
69,203,84936,2,0,L|46:122,1,65,10|0,0:2|3:2,0:0:0:0:
120,90,85289,2,0,L|161:17,1,65,2|2,0:2|3:2,0:0:0:0:
232,7,85642,1,8,0:2:0:0:
288,70,85819,6,0,P|330:87|410:64,1,130,6|0,0:2|0:2,0:0:0:0:
488,93,86348,2,0,L|480:177,1,65,8|0,0:2|3:2,0:0:0:0:
470,241,86701,1,0,3:2:0:0:
392,208,86877,2,0,L|384:292,1,65,0|8,3:2|0:2,0:0:0:0:
374,356,87230,1,0,3:2:0:0:
305,305,87407,6,0,P|275:295|227:299,1,65,2|0,0:2|3:2,0:0:0:0:
182,355,87760,1,8,0:2:0:0:
182,355,87936,1,0,3:2:0:0:
112,306,88113,5,8,0:2:0:0:
167,242,88289,1,8,0:2:0:0:
95,196,88466,1,8,0:2:0:0:
152,134,88642,1,12,0:2:0:0:
