osu file format v14

[General]
AudioFilename: audio.mp3
AudioLeadIn: 0
PreviewTime: 537
Countdown: 0
SampleSet: Soft
StackLeniency: 0.7
Mode: 2
LetterboxInBreaks: 0
WidescreenStoryboard: 1

[Editor]
Bookmarks: 47446
DistanceSpacing: 1
BeatDivisor: 4
GridSize: 32
TimelineZoom: 2.1

[Metadata]
Title:Period
TitleUnicode:Period
Artist:Meguro Shoji
ArtistUnicode:目黒将司
Creator:Bastian
Version:Shuffle Time!
Source:Persona 4
Tags:真 女神転生 shin megami tensei smt ペルソナ4 persona4 p4 four golden atlus original soundtrack instrumental video game ost vgm
BeatmapID:3410357
BeatmapSetID:1669802

[Difficulty]
HPDrainRate:6
CircleSize:4
OverallDifficulty:9
ApproachRate:9
SliderMultiplier:2
SliderTickRate:2

[Events]
//Background and Video events
0,0,"22234510_p0.jpg",0,0
//Break Periods
//Storyboard Layer 0 (Background)
//Storyboard Layer 1 (Fail)
//Storyboard Layer 2 (Pass)
//Storyboard Layer 3 (Foreground)
//Storyboard Layer 4 (Overlay)
//Storyboard Sound Samples

[TimingPoints]
901,363.636363636364,4,2,1,60,1,0
901,-100,4,2,1,60,0,1
12537,-100,4,2,1,50,0,0
47446,-100,4,2,1,45,0,0
48901,-100,4,2,1,30,0,0
50355,-100,4,2,1,20,0,0
51446,-100,4,2,1,15,0,0
53264,-100,4,2,1,10,0,0
54719,-100,4,2,1,5,0,0

[Colours]
Combo1 : 255,181,145
Combo2 : 128,255,255
Combo3 : 242,242,0
Combo4 : 0,208,255

[HitObjects]
416,343,537,6,0,L|416:218,1,100,2|0,0:0|0:0,0:0:0:0:
134,243,901,6,0,L|370:243,1,200,6|8,0:0|0:0,0:0:0:0:
173,243,1446,2,0,L|37:243,1,100,2|0,0:0|0:0,0:0:0:0:
234,243,1810,2,0,L|359:243,1,100,2|8,0:0|0:0,0:0:0:0:
73,243,2173,6,0,L|73:118,1,100,2|0,0:0|0:0,0:0:0:0:
173,143,2537,1,2,0:0:0:0:
73,143,2719,1,8,0:0:0:0:
313,143,2901,2,0,P|380:86|303:35,1,200,2|0,0:0|0:0,0:0:0:0:
151,32,3446,2,0,L|151:149,1,100,8|0,0:0|0:0,0:0:0:0:
412,132,3810,6,0,L|180:132,1,200,6|10,0:0|0:0,0:0:0:0:
372,132,4355,2,0,L|245:132,1,100,2|0,0:0|0:0,0:0:0:0:
110,132,4719,2,0,L|245:132,1,100,2|8,0:0|0:0,0:0:0:0:
450,132,5082,6,0,P|446:213|336:258,1,200,6|0,0:0|0:0,0:0:0:0:
187,260,5628,1,10,0:0:0:0:
347,260,5810,1,0,0:0:0:0:
187,260,5991,2,0,L|65:260,1,100,10|0,0:0|0:0,0:0:0:0:
328,260,6355,2,0,L|476:260,1,100,10|0,0:0|0:0,0:0:0:0:
146,260,6719,6,0,P|78:322|149:372,1,200,6|10,0:0|0:0,0:0:0:0:
304,372,7264,2,0,L|192:372,1,100,2|0,0:0|0:0,0:0:0:0:
42,372,7628,2,0,L|43:258,1,100,2|8,0:0|0:0,0:0:0:0:
283,272,7991,6,0,L|418:272,1,100,2|0,0:0|0:0,0:0:0:0:
221,272,8355,2,0,L|105:272,1,100,2|8,0:0|0:0,0:0:0:0:
362,272,8719,2,0,P|425:220|352:153,1,200,2|0,0:0|0:0,0:0:0:0:
197,152,9264,1,8,0:0:0:0:
357,152,9446,1,0,0:0:0:0:
76,152,9628,6,0,P|76:90|195:24,1,200,6|10,0:0|0:0,0:0:0:0:
442,21,10173,2,0,L|225:21,1,200,6|2,0:0|0:0,0:0:0:0:
403,21,10719,1,10,0:0:0:0:
122,21,10901,6,0,P|55:88|130:131,1,200,6|10,0:0|0:0,0:0:0:0:
400,133,11446,1,2,0:0:0:0:
195,333,11810,1,10,0:0:0:0:
354,333,11991,1,0,0:0:0:0:
193,333,12173,1,0,0:0:0:0:
353,333,12355,1,0,0:0:0:0:
72,333,12537,6,0,L|288:332,1,200,6|10,0:0|0:0,0:0:0:0:
111,332,13082,2,0,L|111:207,1,100,2|0,0:0|0:0,0:0:0:0:
211,232,13446,1,2,0:0:0:0:
111,232,13628,1,8,0:0:0:0:
371,232,13810,6,0,L|371:112,1,100,2|0,0:0|0:0,0:0:0:0:
210,132,14173,2,0,L|210:23,1,100,2|8,0:0|0:0,0:0:0:0:
371,32,14537,1,2,0:0:0:0:
130,32,14719,2,0,L|5:32,1,100,10|0,0:0|0:0,0:0:0:0:
190,32,15082,2,0,L|83:33,1,100,2|8,0:0|0:0,0:0:0:0:
351,32,15446,6,0,P|417:91|340:141,1,200,6|10,0:0|0:0,0:0:0:0:
187,143,15991,2,0,L|187:253,1,100,2|0,0:0|0:0,0:0:0:0:
348,243,16355,2,0,L|348:355,1,100,2|8,0:0|0:0,0:0:0:0:
86,343,16719,6,0,L|299:343,1,200,6|0,0:0|0:0,0:0:0:0:
125,343,17264,2,0,L|7:343,1,100,10|0,0:0|0:0,0:0:0:0:
310,343,17628,2,0,P|377:290|298:236,1,200,10|2,0:0|0:0,0:0:0:0:
146,234,18173,1,8,0:0:0:0:
426,234,18355,6,0,L|208:234,1,200,6|10,0:0|0:0,0:0:0:0:
387,234,18901,2,0,L|387:114,1,100,2|0,0:0|0:0,0:0:0:0:
286,134,19264,1,2,0:0:0:0:
386,134,19446,1,8,0:0:0:0:
145,134,19628,6,0,L|145:256,1,100,2|0,0:0|0:0,0:0:0:0:
306,234,19991,2,0,L|306:354,1,100,2|8,0:0|0:0,0:0:0:0:
145,334,20355,1,2,0:0:0:0:
385,334,20537,2,0,L|385:213,1,100,2|0,0:0|0:0,0:0:0:0:
223,234,20901,2,0,L|223:97,1,100,10|0,0:0|0:0,0:0:0:0:
483,134,21264,6,0,P|477:58|363:13,1,200,6|10,0:0|0:0,0:0:0:0:
112,10,21810,2,0,L|323:10,1,200,6|2,0:0|0:0,0:0:0:0:
151,10,22355,1,10,0:0:0:0:
431,10,22537,6,0,P|494:71|422:143,1,200,6|0,0:0|0:0,0:0:0:0:
273,142,23082,2,0,L|152:142,3,100,10|0|0|0,0:0|0:0|0:0|0:0,0:0:0:0:
414,142,23810,2,8,L|493:142,1,50,10|8,0:0|0:0,0:0:0:0:
303,142,23991,2,8,L|253:142,1,50
466,138,24173,6,0,P|466:221|346:266,1,200,6|10,0:0|0:0,0:0:0:0:
211,272,24719,2,0,L|211:378,1,100,2|0,0:0|0:0,0:0:0:0:
50,372,25082,2,0,L|50:272,1,100,2|8,0:0|0:0,0:0:0:0:
311,272,25446,6,0,L|425:272,1,100,2|0,0:0|0:0,0:0:0:0:
249,272,25810,2,0,L|135:272,1,100,2|8,0:0|0:0,0:0:0:0:
309,272,26173,1,2,0:0:0:0:
68,272,26355,2,0,L|68:166,1,100,10|0,0:0|0:0,0:0:0:0:
229,172,26719,1,2,0:0:0:0:
68,172,26901,1,8,0:0:0:0:
326,172,27082,6,0,P|391:124|314:60,1,200,6|10,0:0|0:0,0:0:0:0:
162,57,27628,2,0,L|284:57,1,100,2|0,0:0|0:0,0:0:0:0:
422,57,27991,2,0,L|422:184,1,100,2|8,0:0|0:0,0:0:0:0:
140,157,28355,6,0,L|362:157,1,200,6|0,0:0|0:0,0:0:0:0:
178,157,28901,1,10,0:0:0:0:
337,157,29082,1,0,0:0:0:0:
70,157,29264,2,0,P|55:231|155:269,1,200,10|2,0:0|0:0,0:0:0:0:
312,269,29810,1,8,0:0:0:0:
33,269,29991,6,0,L|275:269,1,200,6|10,0:0|0:0,0:0:0:0:
71,269,30537,2,0,L|70:138,1,100,2|0,0:0|0:0,0:0:0:0:
170,168,30901,1,2,0:0:0:0:
71,169,31082,1,8,0:0:0:0:
311,169,31264,6,0,L|432:169,1,100,2|0,0:0|0:0,0:0:0:0:
249,169,31628,2,0,L|128:169,1,100,2|8,0:0|0:0,0:0:0:0:
309,169,31991,1,2,0:0:0:0:
68,169,32173,2,0,L|180:169,1,100,2|0,0:0|0:0,0:0:0:0:
329,169,32537,2,0,L|182:169,1,100,10|0,0:0|0:0,0:0:0:0:
490,169,32901,6,0,P|466:273|374:295,1,200,6|10,0:0|0:0,0:0:0:0:
125,297,33446,2,0,P|132:214|234:169,1,200,6|2,0:0|0:0,0:0:0:0:
68,168,33991,1,10,0:0:0:0:
348,168,34173,6,0,L|118:168,1,200,6|0,0:0|0:0,0:0:0:0:
309,168,34719,1,10,0:0:0:0:
148,168,34901,1,0,0:0:0:0:
386,168,35082,2,0,L|499:168,1,100,8|0,0:0|0:0,0:0:0:0:
244,168,35446,1,10,0:0:0:0:
408,171,35628,1,8,0:0:0:0:
168,168,35810,6,0,P|102:109|183:56,1,200,4|10,0:0|0:0,0:0:0:0:
329,52,36355,2,0,L|329:163,1,100,2|0,0:0|0:0,0:0:0:0:
228,152,36719,1,2,0:0:0:0:
327,152,36901,1,8,0:0:0:0:
68,152,37082,6,0,L|68:273,1,100,2|0,0:0|0:0,0:0:0:0:
168,252,37446,1,2,0:0:0:0:
68,252,37628,1,8,0:0:0:0:
308,252,37810,2,0,P|383:252|452:144,1,200,2|0,0:0|0:0,0:0:0:0:
291,158,38355,1,10,0:0:0:0:
451,158,38537,1,0,0:0:0:0:
190,158,38719,6,0,L|410:158,1,200,6|10,0:0|0:0,0:0:0:0:
229,158,39264,2,0,L|114:158,1,100,2|0,0:0|0:0,0:0:0:0:
290,158,39628,2,0,L|405:158,1,100,2|8,0:0|0:0,0:0:0:0:
129,158,39991,6,0,P|61:109|137:54,1,200,6|0,0:0|0:0,0:0:0:0:
290,51,40537,1,10,0:0:0:0:
129,51,40719,1,0,0:0:0:0:
393,51,40901,2,0,P|399:150|299:161,1,200,8|2,0:0|0:0,0:0:0:0:
477,166,41446,1,8,0:0:0:0:
196,166,41628,6,0,P|128:215|205:273,1,200,6|10,0:0|0:0,0:0:0:0:
355,275,42173,2,0,L|355:380,1,100,2|0,0:0|0:0,0:0:0:0:
195,375,42537,2,0,L|195:275,1,100,2|8,0:0|0:0,0:0:0:0:
456,275,42901,6,0,L|456:165,1,100,2|0,0:0|0:0,0:0:0:0:
355,175,43264,1,2,0:0:0:0:
455,175,43446,1,8,0:0:0:0:
214,175,43628,2,0,L|0:175,1,200,2|0,0:0|0:0,0:0:0:0:
174,175,44173,1,10,0:0:0:0:
13,175,44355,1,0,0:0:0:0:
273,175,44537,6,0,L|497:175,1,200,6|10,0:0|0:0,0:0:0:0:
212,175,45082,2,0,P|216:114|337:57,1,200,6|2,0:0|0:0,0:0:0:0:
167,54,45628,1,10,0:0:0:0:
427,54,45810,6,0,P|493:117|418:170,1,200,6|0,0:0|0:0,0:0:0:0:
186,171,46355,2,0,L|79:171,1,100,10|0,0:0|0:0,0:0:0:0:
245,171,46719,2,0,L|365:171,1,100,2|0,0:0|0:0,0:0:0:0:
104,171,47082,2,8,L|36:171,1,50,10|8,0:0|0:0,0:0:0:0:
215,171,47264,2,8,L|283:171,1,50
34,171,47446,6,0,P|39:108|150:45,1,200,6|10,0:0|0:0,0:0:0:0:
308,44,47991,2,0,L|195:44,1,100,2|0,0:0|0:0,0:0:0:0:
46,44,48355,2,0,L|168:44,1,100,2|8,0:0|0:0,0:0:0:0:
407,44,48719,6,0,L|407:151,1,100,2|0,0:0|0:0,0:0:0:0:
246,144,49082,2,0,L|130:144,1,100,2|8,0:0|0:0,0:0:0:0:
387,144,49446,2,0,P|455:199|378:246,1,200,2|0,0:0|0:0,0:0:0:0:
225,248,49991,1,10,0:0:0:0:
385,248,50173,1,0,0:0:0:0:
124,248,50355,6,0,L|353:248,1,200,6|10,0:0|0:0,0:0:0:0:
162,248,50901,2,0,L|28:248,1,100,2|0,0:0|0:0,0:0:0:0:
222,248,51264,2,0,L|88:248,1,100,2|8,0:0|0:0,0:0:0:0:
403,248,51628,5,6,0:0:0:0:
256,192,51810,12,0,56173,0:0:0:0:
