osu file format v14

[General]
AudioFilename: How Much.mp3
AudioLeadIn: 0
PreviewTime: 1761
Countdown: 0
SampleSet: Soft
StackLeniency: 0.7
Mode: 0
LetterboxInBreaks: 0
WidescreenStoryboard: 0

[Editor]
DistanceSpacing: 0.8
BeatDivisor: 4
GridSize: 4
TimelineZoom: 1

[Metadata]
Title:How much?
TitleUnicode:How much?
Artist:Meguro Shoji
ArtistUnicode:目黒将司
Creator:reiSevia
Version:What will it be?
Source:Persona 4
Tags:shin megami tensei golden atlus ultimate japanese video game shop theme instrumental loop
BeatmapID:2516148
BeatmapSetID:1208396

[Difficulty]
HPDrainRate:5
CircleSize:4
OverallDifficulty:8
ApproachRate:8.5
SliderMultiplier:1.6
SliderTickRate:1

[Events]
//Background and Video events
0,0,"BG.png",0,0
//Break Periods
//Storyboard Layer 0 (Background)
//Storyboard Layer 1 (Fail)
//Storyboard Layer 2 (Pass)
//Storyboard Layer 3 (Foreground)
//Storyboard Layer 4 (Overlay)
//Storyboard Sound Samples

[TimingPoints]
555,535.714285714285,4,2,1,55,1,0
1895,535.714285714285,4,2,1,55,1,0
2698,-83.3333333333333,4,2,1,55,0,0
3100,-83.3333333333333,4,2,1,5,0,0
3234,-83.3333333333333,4,2,1,55,0,0
7386,-83.3333333333333,4,2,1,5,0,0
7519,-83.3333333333333,4,2,1,55,0,0
11671,-83.3333333333333,4,2,1,5,0,0
11805,-83.3333333333333,4,2,1,55,0,0
15957,-83.3333333333333,4,2,1,5,0,0
16091,-83.3333333333333,4,2,1,55,0,0
16627,-133.333333333333,4,2,1,55,0,0
17028,-133.333333333333,4,2,1,5,0,0
17162,-133.333333333333,4,2,1,55,0,0
17430,-83.3333333333333,4,2,1,55,0,0
20912,-100,4,2,1,55,0,0
36180,-83.3333333333333,4,2,1,55,0,0
39127,-200,4,2,1,55,0,0

[Colours]
Combo1 : 235,192,45
Combo2 : 161,40,17
Combo3 : 198,199,103
Combo4 : 64,83,96
Combo5 : 152,135,128
SliderBorder : 199,184,167
SliderTrackOverride : 39,27,16

[HitObjects]
48,156,555,5,0,3:0:0:0:
48,156,688,1,0,3:0:0:0:
48,156,822,1,8,2:0:0:0:
167,317,1090,1,8,3:0:0:0:
167,317,1224,1,0,3:2:0:0:
167,317,1358,2,0,L|180:259,1,40.5759999999999,8|8,2:0|2:0,2:0:0:0:
228,68,1626,1,0,3:2:0:0:
288,260,1895,5,6,3:2:0:0:
388,48,2162,1,2,2:0:0:0:
170,125,2430,1,10,2:0:0:0:
460,184,2698,2,0,P|388:164|292:168,1,144.281595605469,2|0,3:2|2:0,2:0:0:0:
281,171,3234,1,0,3:2:0:0:
402,338,3502,1,8,2:0:0:0:
203,238,3769,1,2,2:0:0:0:
174,244,3903,1,2,2:0:0:0:
152,262,4037,5,2,3:2:0:0:
44,376,4305,1,2,2:0:0:0:
96,156,4573,1,10,2:0:0:0:
240,344,4841,1,2,3:2:0:0:
240,344,4975,1,2,2:0:0:0:
240,344,5109,1,0,2:0:0:0:
280,156,5377,1,0,3:2:0:0:
87,32,5644,2,0,P|97:106|102:147,1,96.3071970703125,8|0,2:0|2:0,2:0:0:0:
96,156,6046,1,2,2:3:0:0:
86,183,6180,5,2,3:2:0:0:
280,156,6448,1,2,2:0:0:0:
435,306,6716,1,10,2:0:0:0:
376,48,6984,2,0,B|368:102|368:102|388:146|388:146|380:202,1,144.281595605469,2|0,3:2|2:0,2:0:0:0:
371,223,7519,1,0,3:2:0:0:
264,80,7787,2,0,P|216:48|160:50,1,96.3071970703125,8|0,2:0|3:2,2:0:0:0:
155,62,8189,1,0,2:0:0:0:
136,84,8323,5,2,3:2:0:0:
53,297,8591,1,2,3:2:0:0:
176,176,8859,1,10,2:0:0:0:
272,360,9127,2,0,L|264:252,1,96.3071970703125,2|0,3:2|2:0,2:0:0:0:
244,66,9662,5,0,3:2:0:0:
244,66,9796,1,0,3:2:0:0:
244,66,9930,1,8,2:0:0:0:
415,164,10198,1,0,3:2:0:0:
400,188,10332,1,8,2:0:0:0:
378,206,10466,5,6,3:2:0:0:
216,46,10734,1,2,2:0:0:0:
476,100,11002,1,10,2:0:0:0:
232,224,11269,2,0,P|152:208|80:188,1,144.281595605469,2|0,3:2|2:0,2:0:0:0:
56,176,11805,1,0,3:2:0:0:
173,342,12073,1,8,2:0:0:0:
304,188,12341,1,2,2:0:0:0:
310,159,12475,1,2,2:0:0:0:
316,131,12609,5,2,3:2:0:0:
360,312,12877,1,2,2:0:0:0:
232,104,13144,1,10,2:0:0:0:
452,240,13412,1,2,2:0:0:0:
452,240,13546,1,2,2:0:0:0:
452,240,13680,1,0,2:0:0:0:
420,44,13948,1,0,3:2:0:0:
300,216,14216,2,0,P|239:207|185:199,1,96.3071970703125,8|0,2:0|2:0,2:0:0:0:
177,193,14618,1,2,2:3:0:0:
148,186,14752,5,2,3:2:0:0:
200,328,15019,1,2,2:0:0:0:
288,104,15287,1,10,2:0:0:0:
440,328,15555,2,0,P|372:304|276:284,1,144.281595605469,2|0,3:2|2:0,2:0:0:0:
263,284,16091,1,2,2:0:0:0:
420,184,16359,1,10,2:0:0:0:
272,88,16627,2,0,P|334:79|372:104,1,90.1760034332276,2|0,3:2|2:0,2:0:0:0:
383,119,17162,1,0,3:2:0:0:
248,64,17430,2,0,P|196:44|144:60,1,96.3071970703125,8|0,2:0|2:0,2:0:0:0:
63,323,17966,5,10,2:0:0:0:
184,152,18234,1,0,3:2:0:0:
184,152,18368,1,0,3:2:0:0:
184,152,18502,1,10,2:0:0:0:
242,371,18769,1,0,3:2:0:0:
242,371,18903,1,8,2:0:0:0:
242,371,19037,5,6,3:2:0:0:
327,358,19305,1,0,2:0:0:0:
412,348,19573,1,8,2:0:0:0:
497,336,19841,1,0,3:2:0:0:
384,144,20109,5,2,2:0:0:0:
327,358,20377,1,0,2:0:0:0:
312,60,20644,1,10,2:0:0:0:
371,274,20912,2,0,L|378:227,1,40.2773333333333,0|2,3:2|2:3,2:0:0:0:
411,39,21180,5,2,3:2:0:0:
370,115,21448,1,0,2:0:0:0:
291,151,21716,1,8,2:0:0:0:
205,138,21984,1,0,2:0:0:0:
143,76,22252,5,2,2:0:0:0:
72,268,22519,1,0,3:2:0:0:
205,138,22787,1,10,2:0:0:0:
276,330,23055,2,0,L|239:301,1,40.2773333333333,0|2,2:0|2:3,2:0:0:0:
87,182,23323,5,2,3:2:0:0:
224,56,23591,1,2,2:0:0:0:
72,200,23859,1,8,2:0:0:0:
328,148,24127,5,2,3:2:0:0:
328,148,24394,1,0,2:0:0:0:
200,300,24662,1,2,2:0:0:0:
200,300,24930,1,8,2:0:0:0:
112,88,25198,1,2,3:2:0:0:
46,333,25466,5,2,3:2:0:0:
168,130,25734,1,2,3:2:0:0:
46,333,26002,1,10,2:0:0:0:
152,156,26269,1,2,2:0:0:0:
232,280,26537,5,2,2:0:0:0:
322,151,26805,1,0,3:2:0:0:
322,151,26939,1,0,3:2:0:0:
322,151,27073,1,10,2:0:0:0:
424,364,27341,1,0,3:2:0:0:
424,364,27475,1,8,2:0:0:0:
424,364,27609,5,6,3:2:0:0:
343,326,27877,1,0,2:0:0:0:
263,288,28144,1,8,2:0:0:0:
182,251,28412,1,0,3:2:0:0:
228,60,28680,5,2,2:0:0:0:
348,236,28948,1,0,2:0:0:0:
292,16,29216,1,10,2:0:0:0:
196,232,29484,2,0,L|216:188,1,40.2773333333333,0|2,3:2|2:3,2:0:0:0:
392,76,29752,5,2,3:2:0:0:
343,146,30019,1,0,2:0:0:0:
324,230,30287,1,8,2:0:0:0:
348,312,30555,1,0,2:0:0:0:
417,363,30823,5,2,2:0:0:0:
228,268,31091,1,0,3:2:0:0:
343,146,31359,1,10,2:0:0:0:
140,260,31627,2,0,L|127:216,1,40.2773333333333,0|2,3:2|2:3,2:0:0:0:
84,33,31894,5,2,3:2:0:0:
170,37,32162,1,0,2:0:0:0:
256,41,32430,1,8,2:0:0:0:
342,45,32698,1,0,3:2:0:0:
228,268,32966,5,2,2:0:0:0:
342,45,33234,1,2,2:0:0:0:
296,336,33502,1,10,2:0:0:0:
256,41,33769,1,2,3:2:0:0:
376,204,34037,5,0,3:2:0:0:
294,232,34305,1,0,2:0:0:0:
181,141,34573,1,10,2:0:0:0:
98,166,34841,1,0,3:2:0:0:
317,299,35109,5,2,2:0:0:0:
116,184,35377,1,0,3:2:0:0:
344,112,35644,1,8,2:0:0:0:
176,352,35912,1,0,3:2:0:0:
176,352,36046,1,8,2:0:0:0:
176,352,36180,6,0,P|152:296|156:256,1,96.3071970703125,2|0,3:2|2:0,2:0:0:0:
227,135,36716,1,8,2:0:0:0:
319,319,36984,2,0,P|346:265|345:227,1,96.3071970703125,0|0,3:2|2:0,2:0:0:0:
204,56,37519,1,0,2:0:0:0:
264,252,37787,5,8,2:0:0:0:
348,32,38055,1,0,2:0:0:0:
107,155,38323,5,10,2:0:0:0:
107,155,38591,1,8,2:0:0:0:
44,240,39127,6,0,L|12:244,2,20.064,0|0|2,3:2|2:0|2:3,2:0:0:0:
164,356,39662,1,0,3:2:0:0:
328,332,39930,2,0,L|277:341,1,40.1279999999999,8|0,2:0|3:2,2:0:0:0:
256,72,40466,5,4,3:2:0:0:
