osu file format v14

[General]
AudioFilename: How Much.mp3
AudioLeadIn: 0
PreviewTime:1761
Countdown: 0
SampleSet: Soft
StackLeniency: 0.7
Mode: 0
LetterboxInBreaks: 0
WidescreenStoryboard: 1

[Editor]
DistanceSpacing: 1
BeatDivisor: 4
GridSize: 16
TimelineZoom: 1

[Metadata]
Title:How much?
TitleUnicode:How much?
Artist:Meguro Shoji
ArtistUnicode:目黒将司
Creator:reiSevia
Version:Normal?
Source:Persona 4
Tags:shin megami tensei golden atlus ultimate japanese video game shop theme instrumental loop
BeatmapID:2516147
BeatmapSetID:1208396

[Difficulty]
HPDrainRate:3
CircleSize:3.4
OverallDifficulty:4
ApproachRate:4.5
SliderMultiplier:1
SliderTickRate:1

[Events]
//Background and Video events
0,0,"BG.png"
//Break Periods
//Storyboard Layer 0 (Background)
//Storyboard Layer 1 (Fail)
//Storyboard Layer 2 (Pass)
//Storyboard Layer 3 (Foreground)
//Storyboard Layer 4 (Overlay)
//Storyboard Sound Samples

[TimingPoints]
555,535.714285714285,4,2,1,55,1,0
1895,535.714285714285,4,2,1,55,1,0
19037,-90.9090909090909,4,2,1,55,0,0

[Colours]
Combo1 : 235,192,45
Combo2 : 161,40,17
Combo3 : 198,199,103
Combo4 : 64,83,96
Combo5 : 152,135,128
SliderBorder : 199,184,167
SliderTrackOverride : 39,27,16

[HitObjects]
485,236,1895,6,0,P|437:229|381:269,1,100,6|10,3:2|2:0,2:0:0:0:
358,287,2698,2,0,L|244:277,1,100,2|0,3:2|3:2,2:0:0:0:
209,267,3502,1,8,2:0:0:0:
109,253,4037,6,0,L|103:309,2,50,2|2|10,3:2|2:0|2:0,2:0:0:0:
115,203,4841,2,0,L|124:99,1,100,2|0,3:2|3:2,2:0:0:0:
131,53,5644,1,8,2:0:0:0:
206,120,6180,6,0,P|262:136|302:104,1,100,2|10,3:2|2:0,2:0:0:0:
326,76,6984,2,0,P|382:60|422:92,1,100,2|0,3:2|3:2,2:0:0:0:
451,114,7787,1,8,2:0:0:0:
440,213,8323,6,0,L|434:266,2,50,2|2|10,3:2|3:2|2:0,2:0:0:0:
399,183,9127,2,0,P|334:176|294:208,1,100,2|0,3:2|3:2,2:0:0:0:
281,236,9930,1,8,2:0:0:0:
318,328,10466,6,0,L|420:345,1,100,6|10,3:2|2:0,2:0:0:0:
465,334,11269,2,0,P|452:283|468:223,1,100,2|0,3:2|3:2,2:0:0:0:
495,200,12073,1,8,2:0:0:0:
423,130,12609,6,0,L|425:76,2,50,2|2|10,3:2|2:0|2:0,2:0:0:0:
396,172,13412,2,0,L|297:165,1,100,2|0,2:0|3:2,2:0:0:0:
247,155,14216,1,8,2:0:0:0:
160,104,14752,6,0,P|130:144|127:201,1,100,2|10,3:2|2:0,2:0:0:0:
160,228,15555,2,0,P|190:268|193:325,1,100,2|2,3:2|2:0,2:0:0:0:
160,352,16359,1,10,2:0:0:0:
160,352,16627,2,0,P|221:344|315:331,1,150,2|8,3:2|2:0,2:0:0:0:
408,325,17966,2,0,L|417:257,1,50,10|0,2:0|3:2,2:0:0:0:
448,238,18502,1,10,2:0:0:0:
390,144,19037,6,0,P|334:112|286:128,1,110,6|8,3:2|2:0,2:0:0:0:
234,216,20109,1,2,2:0:0:0:
157,137,20644,1,10,2:0:0:0:
88,223,21180,6,0,L|97:335,1,110,2|8,3:2|2:0,2:0:0:0:
200,370,22252,1,2,2:0:0:0:
307,347,22787,1,10,2:0:0:0:
415,329,23323,6,0,L|422:386,2,55,2|2|8,3:2|2:0|2:0,2:0:0:0:
407,274,24127,2,0,L|393:153,1,110,2|2,3:2|2:0,2:0:0:0:
378,55,25198,1,2,3:2:0:0:
378,55,25466,2,0,P|402:51|433:46,2,55,2|2|10,3:2|3:2|2:0,2:0:0:0:
326,73,26269,1,2,2:0:0:0:
326,73,26537,2,0,L|205:92,1,110,2|10,2:0|2:0,2:0:0:0:
107,104,27609,6,0,P|133:141|133:214,1,110,6|8,3:2|2:0,2:0:0:0:
64,287,28680,1,2,2:0:0:0:
142,363,29216,1,10,2:0:0:0:
215,281,29752,6,0,L|331:299,1,110,2|8,3:2|2:0,2:0:0:0:
416,239,30823,1,2,2:0:0:0:
347,153,31359,1,10,2:0:0:0:
279,66,31894,6,0,B|172:26|172:138|60:106,1,220,2|2,3:2|2:0,2:0:0:0:
25,81,33234,1,2,2:0:0:0:
25,81,33502,2,0,L|20:142,1,55,10|2,2:0|3:2,2:0:0:0:
19,190,34037,1,0,3:2:0:0:
19,302,34573,6,0,P|77:285|125:293,1,110,10|2,2:0|2:0,2:0:0:0:
167,377,35644,1,8,2:0:0:0:
256,192,36180,12,10,38323,2:0:0:0:
256,192,40466,5,4,3:2:0:0:
