osu file format v14

[General]
AudioFilename: How Much.mp3
AudioLeadIn: 0
PreviewTime:1761
Countdown: 0
SampleSet: Soft
StackLeniency: 0.7
Mode: 0
LetterboxInBreaks: 0
WidescreenStoryboard: 1

[Editor]
DistanceSpacing: 0.9
BeatDivisor: 4
GridSize: 16
TimelineZoom: 1

[Metadata]
Title:How much?
TitleUnicode:How much?
Artist:Meguro Shoji
ArtistUnicode:目黒将司
Creator:reiSevia
Version:Insane?
Source:Persona 4
Tags:shin megami tensei golden atlus ultimate japanese video game shop theme instrumental loop
BeatmapID:2516146
BeatmapSetID:1208396

[Difficulty]
HPDrainRate:4.5
CircleSize:3.8
OverallDifficulty:7.5
ApproachRate:8
SliderMultiplier:1.4
SliderTickRate:1

[Events]
//Background and Video events
0,0,"BG.png"
//Break Periods
//Storyboard Layer 0 (Background)
//Storyboard Layer 1 (Fail)
//Storyboard Layer 2 (Pass)
//Storyboard Layer 3 (Foreground)
//Storyboard Layer 4 (Overlay)
//Storyboard Sound Samples

[TimingPoints]
555,535.714285714285,4,2,1,55,1,0
1895,535.714285714285,4,2,1,55,1,0
2698,-83.3333333333333,4,2,1,55,0,0
19037,-76.9230769230769,4,2,1,55,0,0
36180,-83.3333333333333,4,2,1,55,0,0
39127,-200,4,2,1,55,0,0

[Colours]
Combo1 : 235,192,45
Combo2 : 161,40,17
Combo3 : 198,199,103
Combo4 : 64,83,96
Combo5 : 152,135,128
SliderBorder : 199,184,167
SliderTrackOverride : 39,27,16

[HitObjects]
96,96,555,6,0,L|94:145,1,35,0|0,3:0|3:0,2:0:0:0:
92,212,822,1,8,2:0:0:0:
220,84,1090,1,8,3:0:0:0:
220,84,1224,1,0,3:2:0:0:
220,84,1358,2,0,L|224:32,2,35,8|8|0,2:0|2:0|3:2,2:0:0:0:
396,264,1895,5,6,3:2:0:0:
320,160,2162,1,2,2:0:0:0:
224,289,2430,1,10,2:0:0:0:
88,156,2698,2,0,B|189:147|153:211|253:201,1,168,2|0,3:2|3:2,2:0:0:0:
383,103,3502,1,8,2:0:0:0:
477,215,3769,1,2,2:0:0:0:
477,215,3903,1,2,2:0:0:0:
477,215,4037,6,0,P|467:268|461:307,1,84,2|2,3:2|2:0,2:0:0:0:
470,380,4573,1,10,2:0:0:0:
360,240,4841,2,0,B|296:224|296:224|256:240|256:240|184:224,1,168,2|0,3:2|3:2,2:0:0:0:
88,104,5644,2,0,P|94:157|99:192,1,84,8|0,2:0|2:0,2:0:0:0:
88,328,6180,5,2,3:2:0:0:
198,227,6448,1,2,2:0:0:0:
198,227,6716,1,10,2:0:0:0:
300,368,6984,2,0,P|293:314|277:186,1,168,2|0,3:2|3:2,2:0:0:0:
329,67,7787,2,0,P|277:93|241:91,1,84,8|0,2:0|3:2,2:0:0:0:
64,40,8323,5,2,3:2:0:0:
155,160,8591,1,2,3:2:0:0:
208,24,8859,1,10,2:0:0:0:
60,132,9127,2,0,P|68:205|80:312,1,168,2|0,3:2|3:2,2:0:0:0:
77,337,9796,1,0,3:2:0:0:
77,337,9930,1,8,2:0:0:0:
192,224,10198,1,0,3:2:0:0:
192,224,10332,1,8,2:0:0:0:
192,224,10466,6,0,P|232:202|278:208,1,84,6|2,3:2|2:0,2:0:0:0:
338,284,11002,1,10,2:0:0:0:
459,150,11269,2,0,B|427:182|427:182|453:311,1,168,2|0,3:2|3:2,2:0:0:0:
384,376,12073,1,8,2:0:0:0:
256,287,12341,1,2,2:0:0:0:
256,287,12475,1,2,2:0:0:0:
256,287,12609,6,0,P|185:295|158:298,1,84,2|2,3:2|2:0,2:0:0:0:
112,352,13144,1,10,2:0:0:0:
32,168,13412,2,0,B|120:160|104:216|200:208,1,168,2|0,2:0|3:2,2:0:0:0:
336,128,14216,2,0,P|256:138|233:140,1,84,8|0,2:0|2:0,2:0:0:0:
384,232,14752,5,2,3:2:0:0:
419,81,15019,1,2,2:0:0:0:
419,81,15287,1,10,2:0:0:0:
376,248,15555,2,0,P|352:296|440:320,1,168,2|2,3:2|2:0,2:0:0:0:
474,249,16359,1,10,2:0:0:0:
320,184,16627,2,0,B|255:173|255:173|209:190|209:190|153:182,1,168,2|0,3:2|3:2,2:0:0:0:
16,160,17430,1,8,2:0:0:0:
16,160,17698,1,0,2:0:0:0:
71,347,17966,6,0,P|78:284|81:250,1,84,10|0,2:0|3:2,2:0:0:0:
82,225,18368,1,0,3:2:0:0:
82,225,18502,1,10,2:0:0:0:
196,316,18769,1,0,3:2:0:0:
196,316,18903,1,8,2:0:0:0:
196,316,19037,6,0,B|312:328|264:264|384:280,1,182,6|8,3:2|2:0,2:0:0:0:
458,342,19841,1,0,3:2:0:0:
446,130,20109,2,0,P|432:208|428:230,1,91,2|0,2:0|2:0,2:0:0:0:
272,80,20644,2,0,P|286:158|290:180,1,91,10|0,2:0|3:2,2:0:0:0:
152,32,21180,6,0,P|144:120|136:224,1,182,2|8,3:2|2:0,2:0:0:0:
126,323,21984,1,0,2:0:0:0:
309,231,22252,2,0,P|246:218|211:209,1,91,2|0,2:0|3:2,2:0:0:0:
360,344,22787,2,0,P|297:357|262:366,1,91,10|0,2:0|2:0,2:0:0:0:
416,200,23323,5,2,3:2:0:0:
456,368,23591,1,2,2:0:0:0:
406,175,23859,1,8,2:0:0:0:
320,352,24127,2,0,P|298:305|302:257,1,91,2|0,3:2|2:0,2:0:0:0:
416,144,24662,2,0,P|415:189|395:229,1,91,2|8,2:0|2:0,2:0:0:0:
260,123,25198,1,2,3:2:0:0:
318,271,25466,5,2,3:2:0:0:
259,113,25734,1,2,3:2:0:0:
209,313,26002,1,10,2:0:0:0:
209,313,26269,1,2,2:0:0:0:
313,183,26537,1,2,2:0:0:0:
395,314,26805,1,0,3:2:0:0:
395,314,26939,1,0,3:2:0:0:
395,314,27073,1,10,2:0:0:0:
477,207,27341,1,0,3:2:0:0:
477,207,27475,1,8,2:0:0:0:
477,207,27609,6,0,P|486:138|502:16,1,182,6|8,3:2|2:0,2:0:0:0:
390,99,28412,1,0,3:2:0:0:
256,8,28680,2,0,P|319:18|358:24,1,91,2|0,2:0|2:0,2:0:0:0:
208,160,29216,2,0,P|271:150|310:144,1,91,10|0,2:0|3:2,2:0:0:0:
88,48,29752,6,0,P|120:112|88:216,1,182,2|8,3:2|2:0,2:0:0:0:
15,277,30555,1,0,2:0:0:0:
152,360,30823,2,0,P|144:303|139:255,1,91,2|0,2:0|3:2,2:0:0:0:
297,145,31359,2,0,P|291:190|285:235,1,91,10|0,2:0|3:2,2:0:0:0:
384,360,31894,6,0,P|500:301|495:244,2,182,2|8|2,3:2|2:0|2:0,2:0:0:0:
285,235,33234,1,2,2:0:0:0:
176,360,33502,2,0,P|181:296|184:264,1,91,10|2,2:0|3:2,2:0:0:0:
32,136,34037,6,0,P|67:168|187:131,1,182,0|10,3:2|2:0,2:0:0:0:
234,43,34841,1,0,3:2:0:0:
311,242,35109,1,2,2:0:0:0:
416,93,35377,1,0,3:2:0:0:
295,256,35644,1,8,2:0:0:0:
505,133,35912,1,0,3:2:0:0:
505,133,36046,1,8,2:0:0:0:
505,133,36180,6,0,B|387:110|464:178|321:149,1,168,2|8,3:2|2:0,2:0:0:0:
183,269,36984,2,0,P|192:196|201:85,1,168,0|0,3:2|2:0,2:0:0:0:
329,256,37787,2,0,P|320:183|316:149,1,84,8|0,2:0|2:0,2:0:0:0:
81,366,38323,1,10,2:0:0:0:
81,366,38591,1,8,2:0:0:0:
24,272,39127,6,0,L|28:305,2,17.5,0|0|2,3:2|2:0|2:3,2:0:0:0:
133,223,39662,1,0,3:2:0:0:
133,223,39930,2,0,L|128:262,1,35,8|0,2:0|3:2,2:0:0:0:
40,40,40466,5,4,3:2:0:0:
