osu file format v14

[General]
AudioFilename: How Much.mp3
AudioLeadIn: 0
PreviewTime:1761
Countdown: 0
SampleSet: Soft
StackLeniency: 0.7
Mode: 0
LetterboxInBreaks: 0
WidescreenStoryboard: 1

[Editor]
DistanceSpacing: 1.2
BeatDivisor: 4
GridSize: 8
TimelineZoom: 1

[Metadata]
Title:How much?
TitleUnicode:How much?
Artist:Meguro Shoji
ArtistUnicode:目黒将司
Creator:reiSevia
Version:Hard?
Source:Persona 4
Tags:shin megami tensei golden atlus ultimate japanese video game shop theme instrumental loop
BeatmapID:2516145
BeatmapSetID:1208396

[Difficulty]
HPDrainRate:4
CircleSize:3.6
OverallDifficulty:6.5
ApproachRate:7.5
SliderMultiplier:1.4
SliderTickRate:1

[Events]
//Background and Video events
0,0,"BG.png"
//Break Periods
//Storyboard Layer 0 (Background)
//Storyboard Layer 1 (Fail)
//Storyboard Layer 2 (Pass)
//Storyboard Layer 3 (Foreground)
//Storyboard Layer 4 (Overlay)
//Storyboard Sound Samples

[TimingPoints]
555,535.714285714285,4,2,1,55,1,0
1895,535.714285714285,4,2,1,55,1,0
19037,-90.9090909090909,4,2,1,55,0,0

[Colours]
Combo1 : 235,192,45
Combo2 : 161,40,17
Combo3 : 198,199,103
Combo4 : 64,83,96
Combo5 : 152,135,128
SliderBorder : 199,184,167
SliderTrackOverride : 39,27,16

[HitObjects]
72,72,1895,6,0,P|108:52|152:56,1,70,6|2,3:2|2:0,2:0:0:0:
198,107,2430,1,10,2:0:0:0:
198,107,2698,2,0,P|267:97|361:83,1,140,2|0,3:2|3:2,2:0:0:0:
432,16,3502,2,0,P|416:66|419:101,1,70,8|2,2:0|2:0,2:0:0:0:
428,123,3903,1,2,2:0:0:0:
428,123,4037,6,0,P|444:173|440:211,1,70,2|2,3:2|2:0,2:0:0:0:
396,260,4573,1,10,2:0:0:0:
396,260,4841,2,0,B|315:239|331:303|243:279,1,140,2|0,3:2|3:2,2:0:0:0:
176,344,5644,2,0,P|186:295|172:265,1,70,8|0,2:0|2:0,2:0:0:0:
112,226,6180,6,0,L|16:234,2,70,2|2|10,3:2|2:0|2:0,2:0:0:0:
174,169,6984,2,0,P|226:147|290:203,1,140,2|0,3:2|3:2,2:0:0:0:
312,273,7787,1,8,2:0:0:0:
383,120,8323,6,0,L|479:112,2,70,2|2|10,3:2|3:2|2:0,2:0:0:0:
311,75,9127,2,0,B|216:88|216:88|184:72|176:48,1,140,2|0,3:2|3:2,2:0:0:0:
169,20,9796,1,0,3:2:0:0:
169,20,9930,2,0,P|123:1|96:7,1,70,8|0,2:0|3:2,2:0:0:0:
24,112,10466,6,0,L|32:192,1,70,6|2,3:2|2:0,2:0:0:0:
95,235,11002,1,10,2:0:0:0:
95,235,11269,2,0,B|176:216|160:280|256:256,1,140,2|0,3:2|3:2,2:0:0:0:
298,214,12073,2,0,P|307:150|310:128,1,70,8|2,2:0|2:0,2:0:0:0:
314,102,12475,1,2,2:0:0:0:
314,102,12609,6,0,P|354:109|404:94,1,70,2|2,3:2|2:0,2:0:0:0:
436,40,13144,1,10,2:0:0:0:
436,40,13412,2,0,P|411:99|447:192,1,140,2|0,2:0|3:2,2:0:0:0:
476,239,14216,2,0,P|492:286|488:318,1,70,8|0,2:0|2:0,2:0:0:0:
416,377,14752,6,0,L|337:368,2,70,2|2|10,3:2|2:0|2:0,2:0:0:0:
339,284,15555,2,0,P|276:255|214:296,1,140,2|2,3:2|2:0,2:0:0:0:
137,369,16359,1,10,2:0:0:0:
137,369,16627,2,0,B|144:314|144:314|128:290|128:290|136:234,1,140,2|0,3:2|3:2,2:0:0:0:
48,168,17430,2,0,L|135:157,1,70,8|0,2:0|2:0,2:0:0:0:
201,150,17966,1,10,2:0:0:0:
284,139,18234,2,0,L|280:97,2,35,0|0|10,3:2|3:2|2:0,2:0:0:0:
377,141,18769,1,0,3:2:0:0:
377,141,18903,1,8,2:0:0:0:
377,141,19037,6,0,P|392:217|409:299,2,154,6|8|2,3:2|2:0|2:0,2:0:0:0:
459,98,20377,1,0,2:0:0:0:
405,23,20644,2,0,P|371:5|323:9,1,77,10|0,2:0|3:2,2:0:0:0:
268,71,21180,6,0,P|185:65|97:57,1,154,2|8,3:2|2:0,2:0:0:0:
40,114,21984,1,0,2:0:0:0:
96,184,22252,2,0,P|136:168|176:176,1,77,2|0,2:0|3:2,2:0:0:0:
225,246,22787,2,0,P|262:250|297:234,1,77,10|0,2:0|2:0,2:0:0:0:
355,162,23323,5,2,3:2:0:0:
417,229,23591,2,0,P|411:288|407:318,1,77,2|8,2:0|2:0,2:0:0:0:
325,346,24127,2,0,B|208:312|208:312|168:336,1,154,2|2,3:2|2:0,2:0:0:0:
94,363,24930,2,0,P|48:374|17:362,1,77,8|2,2:0|3:2,2:0:0:0:
5,277,25466,5,2,3:2:0:0:
5,277,25734,1,2,3:2:0:0:
56,200,26002,2,0,P|51:141|49:108,1,77,10|2,2:0|2:0,2:0:0:0:
30,32,26537,6,0,L|114:39,1,77,2|0,2:0|3:2,2:0:0:0:
153,42,26939,1,0,3:2:0:0:
153,42,27073,2,0,L|246:49,1,77,10|0,2:0|3:2,2:0:0:0:
281,124,27609,6,0,B|288:152|272:184|272:184|288:216|288:216|272:248|277:286,2,154,6|8|2,3:2|2:0|2:0,2:0:0:0:
344,56,28948,1,0,2:0:0:0:
417,111,29216,2,0,P|437:150|436:195,1,77,10|0,2:0|3:2,2:0:0:0:
509,242,29752,6,0,P|441:220|380:295,1,154,2|8,3:2|2:0,2:0:0:0:
332,346,30555,1,0,2:0:0:0:
277,271,30823,2,0,P|231:242|201:242,1,77,2|0,2:0|3:2,2:0:0:0:
139,301,31359,2,0,P|107:323|70:327,1,77,10|0,2:0|3:2,2:0:0:0:
22,248,31894,6,0,P|48:184|27:81,1,154,2|8,3:2|2:0,2:0:0:0:
27,13,32698,1,0,3:2:0:0:
27,13,32966,2,0,P|63:18|111:26,1,77,2|2,2:0|2:0,2:0:0:0:
185,96,33502,1,10,2:0:0:0:
185,96,33769,1,2,3:2:0:0:
304,24,34037,6,0,P|271:75|298:171,2,154,0|10|2,3:2|2:0|2:0,2:0:0:0:
390,58,35377,1,0,3:2:0:0:
476,88,35644,2,0,P|471:135|467:171,1,77,8|0,2:0|3:2,2:0:0:0:
455,265,36180,1,2,3:2:0:0:
256,192,36314,12,10,38323,2:0:0:0:
256,192,40466,5,4,3:2:0:0:
