osu file format v14

[General]
AudioFilename: audio.mp3
AudioLeadIn: 0
PreviewTime: 49
Countdown: 0
SampleSet: None
StackLeniency: 0.7
Mode: 3
LetterboxInBreaks: 0
SpecialStyle: 0
WidescreenStoryboard: 1

[Editor]
DistanceSpacing: 1.3
BeatDivisor: 3
GridSize: 4
TimelineZoom: 4.999997

[Metadata]
Title:Kocchi Muite Megumin Explosion
TitleUnicode:Kocchi Muite Megumin Explosion
Artist:Megumin (CV: Rie Takahashi)
ArtistUnicode:Megumin (CV: Rie Takahashi)
Creator:leqek
Version:4K HD
Source:この素晴らしい世界に祝福を!
Tags:Kono Subarashii Sekai ni Syukufuku wo! konosuba God's blessing on this wonderful world!
BeatmapID:1632186
BeatmapSetID:735760

[Difficulty]
HPDrainRate:7.4
CircleSize:4
OverallDifficulty:6.9
ApproachRate:5
SliderMultiplier:1.4
SliderTickRate:1

[Events]
//Background and Video events
0,0,"BG.jpg",0,0
//Break Periods
//Storyboard Layer 0 (Background)
//Storyboard Layer 1 (Fail)
//Storyboard Layer 2 (Pass)
//Storyboard Layer 3 (Foreground)
//Storyboard Sound Samples

[TimingPoints]
110,364.188163884674,4,2,0,22,1,0

[HitObjects]
64,192,110,5,0,0:0:0:0:
448,192,110,1,0,0:0:0:0:
320,192,352,1,0,0:0:0:0:
192,192,474,1,0,0:0:0:0:
64,192,474,1,0,0:0:0:0:
64,192,716,1,0,0:0:0:0:
448,192,838,1,0,0:0:0:0:
320,192,1081,1,0,0:0:0:0:
192,192,1202,1,0,0:0:0:0:
64,192,1202,1,0,0:0:0:0:
192,192,1445,1,0,0:0:0:0:
320,192,1566,1,0,0:0:0:0:
448,192,1809,1,0,0:0:0:0:
192,192,1930,1,0,0:0:0:0:
320,192,1930,1,0,0:0:0:0:
64,192,2173,1,0,0:0:0:0:
448,192,2295,1,0,0:0:0:0:
192,192,2537,1,0,0:0:0:0:
64,192,2659,1,0,0:0:0:0:
320,192,2659,1,0,0:0:0:0:
192,192,2902,1,0,0:0:0:0:
448,192,3023,1,0,0:0:0:0:
320,192,3266,1,0,0:0:0:0:
192,192,3387,1,0,0:0:0:0:
64,192,3387,1,0,0:0:0:0:
320,192,3630,1,0,0:0:0:0:
448,192,3751,1,0,0:0:0:0:
192,192,3994,1,0,0:0:0:0:
320,192,4116,1,0,0:0:0:0:
64,192,4116,1,0,0:0:0:0:
192,192,4358,1,0,0:0:0:0:
320,192,4480,1,0,0:0:0:0:
448,192,4723,1,0,0:0:0:0:
320,192,4844,1,0,0:0:0:0:
64,192,4844,1,0,0:0:0:0:
192,192,5087,1,0,0:0:0:0:
320,192,5208,1,0,0:0:0:0:
448,192,5208,128,0,5937:0:0:0:0:
64,192,5572,1,0,0:0:0:0:
192,192,5694,1,0,0:0:0:0:
320,192,5815,1,0,0:0:0:0:
192,192,5937,128,0,6665:0:0:0:0:
448,192,6179,1,0,0:0:0:0:
320,192,6301,1,0,0:0:0:0:
64,192,6543,1,0,0:0:0:0:
448,192,6665,1,0,0:0:0:0:
320,192,6908,1,0,0:0:0:0:
192,192,7029,1,0,0:0:0:0:
64,192,7029,1,0,0:0:0:0:
192,192,7272,1,0,0:0:0:0:
320,192,7393,1,0,0:0:0:0:
448,192,7636,1,0,0:0:0:0:
320,192,7757,1,0,0:0:0:0:
64,192,7757,1,0,0:0:0:0:
192,192,8000,1,0,0:0:0:0:
448,192,8122,128,0,8486:0:0:0:0:
64,192,8258,128,0,8486:0:0:0:0:
320,192,8486,1,0,0:0:0:0:
192,192,8486,1,0,0:0:0:0:
448,192,8729,1,0,0:0:0:0:
192,192,8850,1,0,0:0:0:0:
64,192,8850,128,0,9214:0:0:0:0:
320,192,9214,1,0,0:0:0:0:
448,192,9214,1,0,0:0:0:0:
448,192,9457,1,0,0:0:0:0:
192,192,9578,1,0,0:0:0:0:
320,192,9821,128,0,9943:0:0:0:0:
64,192,9943,1,0,0:0:0:0:
192,192,9943,1,0,0:0:0:0:
192,192,10185,1,0,0:0:0:0:
448,192,10307,1,0,0:0:0:0:
64,192,10307,128,0,11035:0:0:0:0:
192,192,10550,1,0,0:0:0:0:
448,192,10671,1,0,0:0:0:0:
320,192,10914,1,0,0:0:0:0:
192,192,11035,1,0,0:0:0:0:
448,192,11035,1,0,0:0:0:0:
320,192,11157,1,0,0:0:0:0:
192,192,11278,1,0,0:0:0:0:
64,192,11339,1,0,0:0:0:0:
448,192,11399,128,0,11764:0:0:0:0:
320,192,11399,1,0,0:0:0:0:
192,192,11764,128,0,12128:0:0:0:0:
64,192,11764,1,0,0:0:0:0:
64,192,12128,1,0,0:0:0:0:
448,192,12128,1,0,0:0:0:0:
320,192,12219,1,0,0:0:0:0:
192,192,12310,1,0,0:0:0:0:
64,192,12401,1,0,0:0:0:0:
320,192,12492,1,0,0:0:0:0:
448,192,12492,1,0,0:0:0:0:
64,192,12583,1,0,0:0:0:0:
192,192,12674,1,0,0:0:0:0:
320,192,12765,1,0,0:0:0:0:
448,192,12856,1,0,0:0:0:0:
64,192,12856,1,0,0:0:0:0:
192,192,12947,1,0,0:0:0:0:
320,192,13038,1,0,0:0:0:0:
448,192,13129,1,0,0:0:0:0:
192,192,13220,1,0,0:0:0:0:
64,192,13220,1,0,0:0:0:0:
320,192,13311,1,0,0:0:0:0:
448,192,13402,1,0,0:0:0:0:
64,192,13493,1,0,0:0:0:0:
192,192,13584,1,0,0:0:0:0:
320,192,13584,1,0,0:0:0:0:
448,192,13676,1,0,0:0:0:0:
192,192,13767,1,0,0:0:0:0:
64,192,13827,1,0,0:0:0:0:
448,192,13949,1,0,0:0:0:0:
320,192,13949,1,0,0:0:0:0:
192,192,14040,1,0,0:0:0:0:
64,192,14131,1,0,0:0:0:0:
320,192,14222,1,0,0:0:0:0:
448,192,14313,1,0,0:0:0:0:
64,192,14313,1,0,0:0:0:0:
192,192,14404,1,0,0:0:0:0:
320,192,14495,1,0,0:0:0:0:
192,192,14556,1,0,0:0:0:0:
448,192,14586,1,0,0:0:0:0:
64,192,14677,1,0,0:0:0:0:
320,192,14677,1,0,0:0:0:0:
448,192,15284,1,0,0:0:0:0:
192,192,15405,1,0,0:0:0:0:
320,192,15648,1,0,0:0:0:0:
64,192,15770,1,0,0:0:0:0:
192,192,16012,1,0,0:0:0:0:
64,192,16134,1,0,0:0:0:0:
320,192,16134,128,0,16862:0:0:0:0:
448,192,16134,128,0,16862:0:0:0:0:
192,192,16862,128,0,17469:0:0:0:0:
64,192,16862,128,0,17469:0:0:0:0:
448,192,17591,5,0,0:0:0:0:
64,192,17591,1,0,0:0:0:0:
192,192,17833,1,0,0:0:0:0:
320,192,17955,1,0,0:0:0:0:
448,192,17955,1,0,0:0:0:0:
448,192,18198,1,0,0:0:0:0:
64,192,18319,1,0,0:0:0:0:
192,192,18562,1,0,0:0:0:0:
320,192,18683,1,0,0:0:0:0:
448,192,18683,1,0,0:0:0:0:
320,192,18926,1,0,0:0:0:0:
192,192,19047,1,0,0:0:0:0:
64,192,19290,1,0,0:0:0:0:
320,192,19411,1,0,0:0:0:0:
192,192,19411,1,0,0:0:0:0:
448,192,19654,1,0,0:0:0:0:
64,192,19776,1,0,0:0:0:0:
320,192,20018,1,0,0:0:0:0:
448,192,20140,1,0,0:0:0:0:
192,192,20140,1,0,0:0:0:0:
320,192,20383,1,0,0:0:0:0:
64,192,20504,1,0,0:0:0:0:
192,192,20747,1,0,0:0:0:0:
320,192,20868,1,0,0:0:0:0:
448,192,20868,1,0,0:0:0:0:
192,192,21111,1,0,0:0:0:0:
64,192,21232,1,0,0:0:0:0:
320,192,21475,1,0,0:0:0:0:
192,192,21597,1,0,0:0:0:0:
448,192,21597,1,0,0:0:0:0:
320,192,21839,1,0,0:0:0:0:
192,192,21961,1,0,0:0:0:0:
64,192,22204,1,0,0:0:0:0:
192,192,22325,1,0,0:0:0:0:
448,192,22325,1,0,0:0:0:0:
320,192,22568,1,0,0:0:0:0:
192,192,22689,1,0,0:0:0:0:
64,192,22689,128,0,23418:0:0:0:0:
448,192,23053,1,0,0:0:0:0:
320,192,23175,1,0,0:0:0:0:
192,192,23296,1,0,0:0:0:0:
320,192,23418,128,0,24146:0:0:0:0:
64,192,23660,1,0,0:0:0:0:
192,192,23782,1,0,0:0:0:0:
448,192,24025,1,0,0:0:0:0:
64,192,24146,1,0,0:0:0:0:
192,192,24389,1,0,0:0:0:0:
320,192,24510,1,0,0:0:0:0:
448,192,24510,1,0,0:0:0:0:
320,192,24753,1,0,0:0:0:0:
192,192,24874,1,0,0:0:0:0:
64,192,25117,1,0,0:0:0:0:
192,192,25238,1,0,0:0:0:0:
448,192,25238,1,0,0:0:0:0:
320,192,25481,1,0,0:0:0:0:
64,192,25603,128,0,25967:0:0:0:0:
448,192,25739,128,0,25967:0:0:0:0:
192,192,25967,1,0,0:0:0:0:
320,192,25967,1,0,0:0:0:0:
64,192,26210,1,0,0:0:0:0:
320,192,26331,1,0,0:0:0:0:
448,192,26331,128,0,26695:0:0:0:0:
192,192,26695,1,0,0:0:0:0:
64,192,26695,1,0,0:0:0:0:
64,192,26938,1,0,0:0:0:0:
320,192,27059,1,0,0:0:0:0:
192,192,27302,128,0,27424:0:0:0:0:
448,192,27424,1,0,0:0:0:0:
320,192,27424,1,0,0:0:0:0:
320,192,27666,1,0,0:0:0:0:
64,192,27788,1,0,0:0:0:0:
448,192,27788,128,0,28516:0:0:0:0:
320,192,28031,1,0,0:0:0:0:
64,192,28152,1,0,0:0:0:0:
192,192,28395,1,0,0:0:0:0:
320,192,28516,1,0,0:0:0:0:
64,192,28516,1,0,0:0:0:0:
192,192,28638,1,0,0:0:0:0:
320,192,28759,1,0,0:0:0:0:
448,192,28820,1,0,0:0:0:0:
64,192,28880,128,0,29245:0:0:0:0:
192,192,28880,1,0,0:0:0:0:
320,192,29245,128,0,29609:0:0:0:0:
448,192,29245,1,0,0:0:0:0:
448,192,29609,1,0,0:0:0:0:
64,192,29609,1,0,0:0:0:0:
192,192,29700,1,0,0:0:0:0:
320,192,29791,1,0,0:0:0:0:
448,192,29882,1,0,0:0:0:0:
192,192,29973,1,0,0:0:0:0:
64,192,29973,1,0,0:0:0:0:
448,192,30064,1,0,0:0:0:0:
320,192,30155,1,0,0:0:0:0:
192,192,30246,1,0,0:0:0:0:
64,192,30337,1,0,0:0:0:0:
448,192,30337,1,0,0:0:0:0:
320,192,30428,1,0,0:0:0:0:
192,192,30519,1,0,0:0:0:0:
64,192,30610,1,0,0:0:0:0:
320,192,30701,1,0,0:0:0:0:
448,192,30701,1,0,0:0:0:0:
192,192,30792,1,0,0:0:0:0:
64,192,30883,1,0,0:0:0:0:
448,192,30974,1,0,0:0:0:0:
320,192,31065,1,0,0:0:0:0:
192,192,31065,1,0,0:0:0:0:
64,192,31157,1,0,0:0:0:0:
320,192,31248,1,0,0:0:0:0:
448,192,31308,1,0,0:0:0:0:
64,192,31430,1,0,0:0:0:0:
192,192,31430,1,0,0:0:0:0:
320,192,31521,1,0,0:0:0:0:
448,192,31612,1,0,0:0:0:0:
192,192,31703,1,0,0:0:0:0:
64,192,31794,1,0,0:0:0:0:
448,192,31794,1,0,0:0:0:0:
320,192,31885,1,0,0:0:0:0:
192,192,31976,1,0,0:0:0:0:
320,192,32037,1,0,0:0:0:0:
64,192,32067,1,0,0:0:0:0:
448,192,32158,1,0,0:0:0:0:
192,192,32158,1,0,0:0:0:0:
64,192,32765,1,0,0:0:0:0:
320,192,32886,1,0,0:0:0:0:
192,192,33129,1,0,0:0:0:0:
448,192,33251,1,0,0:0:0:0:
320,192,33493,1,0,0:0:0:0:
448,192,33615,1,0,0:0:0:0:
192,192,33615,128,0,34343:0:0:0:0:
64,192,33615,128,0,34343:0:0:0:0:
320,192,34343,128,0,34950:0:0:0:0:
448,192,34343,128,0,34950:0:0:0:0:
192,192,35072,1,0,0:0:0:0:
448,192,35072,1,0,0:0:0:0:
448,192,35314,1,0,0:0:0:0:
320,192,35436,1,0,0:0:0:0:
64,192,35436,1,0,0:0:0:0:
192,192,35679,1,0,0:0:0:0:
448,192,35800,1,0,0:0:0:0:
448,192,36043,1,0,0:0:0:0:
320,192,36164,1,0,0:0:0:0:
64,192,36164,1,0,0:0:0:0:
192,192,36407,1,0,0:0:0:0:
448,192,36528,1,0,0:0:0:0:
448,192,36771,1,0,0:0:0:0:
320,192,36893,1,0,0:0:0:0:
64,192,36893,1,0,0:0:0:0:
192,192,37135,1,0,0:0:0:0:
448,192,37257,128,0,37985:0:0:0:0:
320,192,37499,1,0,0:0:0:0:
64,192,37621,1,0,0:0:0:0:
192,192,37864,1,0,0:0:0:0:
320,192,37985,1,0,0:0:0:0:
64,192,37985,1,0,0:0:0:0:
64,192,38228,1,0,0:0:0:0:
192,192,38349,1,0,0:0:0:0:
448,192,38349,1,0,0:0:0:0:
320,192,38592,1,0,0:0:0:0:
64,192,38713,1,0,0:0:0:0:
64,192,38956,1,0,0:0:0:0:
192,192,39078,1,0,0:0:0:0:
448,192,39078,1,0,0:0:0:0:
320,192,39320,1,0,0:0:0:0:
64,192,39442,1,0,0:0:0:0:
64,192,39685,1,0,0:0:0:0:
192,192,39806,1,0,0:0:0:0:
448,192,39806,1,0,0:0:0:0:
320,192,40049,1,0,0:0:0:0:
448,192,40170,128,0,40413:0:0:0:0:
64,192,40170,128,0,40413:0:0:0:0:
448,192,40534,1,0,0:0:0:0:
64,192,40534,1,0,0:0:0:0:
192,192,40656,1,0,0:0:0:0:
320,192,40656,1,0,0:0:0:0:
448,192,40777,1,0,0:0:0:0:
64,192,40777,1,0,0:0:0:0:
320,192,40899,128,0,41627:0:0:0:0:
448,192,41870,1,0,0:0:0:0:
192,192,41991,1,0,0:0:0:0:
64,192,42234,1,0,0:0:0:0:
320,192,42355,1,0,0:0:0:0:
448,192,42598,1,0,0:0:0:0:
192,192,42720,1,0,0:0:0:0:
64,192,42962,1,0,0:0:0:0:
320,192,43084,128,0,43448:0:0:0:0:
448,192,43691,1,0,0:0:0:0:
192,192,43812,128,0,44176:0:0:0:0:
448,192,44419,1,0,0:0:0:0:
64,192,44540,1,0,0:0:0:0:
448,192,44783,1,0,0:0:0:0:
192,192,44905,1,0,0:0:0:0:
320,192,45147,1,0,0:0:0:0:
64,192,45269,1,0,0:0:0:0:
192,192,45633,1,0,0:0:0:0:
448,192,45997,128,0,46726:0:0:0:0:
