osu file format v14

[General]
AudioFilename: audio.mp3
AudioLeadIn: 0
PreviewTime: 47602
Countdown: 0
SampleSet: Soft
StackLeniency: 0.5
Mode: 0
LetterboxInBreaks: 0
WidescreenStoryboard: 0

[Editor]
Bookmarks: 6039,87044
DistanceSpacing: 0.8
BeatDivisor: 4
GridSize: 4
TimelineZoom: 2.7

[Metadata]
Title:Watashi no Sekai
TitleUnicode:ワタシノセカイ
Artist:Megumi Nakajima
ArtistUnicode:中島愛
Creator:Hikan
Version:Insane
Source:風夏
Tags:Fuuka Ending Ed Tv Size Mamegu
BeatmapID:1183577
BeatmapSetID:559644

[Difficulty]
HPDrainRate:6
CircleSize:4
OverallDifficulty:8
ApproachRate:9
SliderMultiplier:1.6
SliderTickRate:1

[Events]
//Background and Video events
0,0,"Fuuka.jpg",0,0
Video,-200,"WatashiNoSekai.avi"
//Break Periods
2,71185,76032
//Storyboard Layer 0 (Background)
//Storyboard Layer 1 (Fail)
//Storyboard Layer 2 (Pass)
//Storyboard Layer 3 (Foreground)
//Storyboard Sound Samples

[TimingPoints]
397,352.941176470588,4,2,8,25,1,0
397,-166.666666666667,4,2,8,25,0,0
11691,-125,4,2,8,25,0,0
21396,-125,4,2,8,40,0,0
22985,-100,4,2,8,40,0,0
34279,-100,4,2,8,35,0,0
42749,-100,4,2,8,20,0,0
43985,-166.666666666667,4,2,8,20,0,0
45573,-166.666666666667,4,2,8,40,0,0
48396,-100,4,2,8,50,0,1
56867,-83.3333333333333,4,2,8,50,0,1
59691,-100,4,2,8,50,0,1
70102,-142.857142857143,4,2,8,50,0,1
70985,-100,4,2,8,40,0,0
76632,-166.666666666667,4,2,8,20,0,0
87044,-166.666666666667,4,2,69,5,0,0

[Colours]
Combo1 : 61,203,150
Combo2 : 51,165,219
Combo3 : 223,98,111

[HitObjects]
57,79,6044,6,0,B|105:51|160:80|160:80|208:102|258:69,1,191.999994140625,0|0,1:0|0:0,0:0:0:0:
415,98,7455,2,0,P|449:68|387:87,1,191.999994140625,0|0,1:0|0:0,0:0:0:0:
333,260,8867,6,0,B|383:264|405:321|405:321|405:256|447:230,1,191.999994140625,0|0,1:0|0:0,0:0:0:0:
313,339,10279,2,0,P|248:316|159:329,1,143.999995605469,0|0,1:0|0:0,0:0:0:0:
164,327,10896,1,0,0:0:0:0:
154,334,10984,1,0,0:0:0:0:
60,361,11161,1,0,0:0:0:0:
0,276,11338,2,0,L|58:282,1,47.9999985351563
146,238,11691,6,0,P|149:173|149:102,1,128,0|0,1:0|0:0,0:0:0:0:
175,14,12220,2,0,P|208:1|255:2,1,64
340,11,12573,1,0,0:0:0:0:
289,142,12749,2,0,P|279:90|289:57,1,64
429,38,13102,6,0,L|421:170,1,128,0|0,1:0|0:0,0:0:0:0:
369,253,13632,1,0,0:0:0:0:
461,318,13808,2,0,L|457:240,1,64
401,159,14161,1,0,0:0:0:0:
411,173,14514,6,0,L|483:177,1,64,0|0,1:0|0:0,0:0:0:0:
300,145,14867,1,0,0:0:0:0:
289,261,15044,2,0,L|225:264,1,64
103,302,15396,1,0,0:0:0:0:
164,197,15573,2,0,P|172:147|162:112,1,64
22,208,15926,6,0,P|23:284|29:351,1,128,0|0,1:0|0:0,0:0:0:0:
128,367,16455,1,0,0:0:0:0:
128,367,16632,2,0,P|131:327|131:282,1,64
156,176,16985,1,0,0:0:0:0:
256,266,17161,1,0,0:0:0:0:
256,266,17249,1,0,0:0:0:0:
256,266,17338,6,0,L|401:270,1,128,0|0,1:0|0:0,0:0:0:0:
430,183,17867,1,0,0:0:0:0:
320,189,18044,2,0,L|240:193,1,64
256,266,18396,1,0,0:0:0:0:
402,215,18573,1,0,0:0:0:0:
269,107,18749,6,0,P|210:101|156:166,1,128,0|0,1:0|0:0,0:0:0:0:
136,252,19279,1,0,0:0:0:0:
202,371,19455,2,0,L|195:280,1,64
231,193,19808,1,0,0:0:0:0:
124,265,19985,1,0,0:0:0:0:
273,332,20161,6,0,P|314:314|339:275,1,64,0|0,1:0|0:0,0:0:0:0:
350,128,20514,2,0,P|344:172|365:213,1,64
488,297,20867,2,0,P|452:270|405:267,1,64
327,301,21220,1,2,0:0:0:0:
335,78,21396,5,12,0:0:0:0:
351,83,21749,5,2,0:0:0:0:
396,258,21926,1,2,0:0:0:0:
221,209,22102,1,12,0:0:0:0:
234,217,22455,5,8,0:0:0:0:
261,201,22543,1,8,0:0:0:0:
280,175,22631,1,8,0:0:0:0:
288,144,22719,1,8,0:0:0:0:
284,113,22807,1,8,0:0:0:0:
267,86,22896,1,8,0:0:0:0:
241,67,22985,6,0,B|185:42|185:42|99:71,1,120,6|0,0:0|0:0,0:0:0:0:
89,86,23338,2,0,L|98:178,1,80,8|2,0:0|0:0,0:0:0:0:
151,223,23602,1,8,0:0:0:0:
151,223,23691,2,0,P|107:245|51:232,1,80,2|2,0:0|0:0,0:0:0:0:
16,186,24044,1,8,0:0:0:0:
194,146,24220,1,2,0:0:0:0:
194,146,24308,1,2,0:0:0:0:
194,146,24396,6,0,L|189:318,1,160,2|8,0:0|0:0,0:0:0:0:
325,285,24926,2,0,L|262:289,1,40,2|8,0:0|0:0,0:0:0:0:
207,334,25102,1,2,0:0:0:0:
358,359,25279,1,2,0:0:0:0:
292,207,25455,1,8,0:0:0:0:
488,295,25808,6,0,P|500:223|463:155,1,120,2|0,0:0|0:0,0:0:0:0:
451,159,26161,2,0,L|340:162,1,80,8|2,0:0|0:0,0:0:0:0:
296,234,26426,1,8,0:0:0:0:
296,234,26514,2,0,L|407:237,1,80,2|2,0:0|0:0,0:0:0:0:
314,324,26867,1,8,0:0:0:0:
166,302,27044,1,2,0:0:0:0:
166,302,27132,1,2,0:0:0:0:
166,302,27220,6,0,P|163:240|167:202,1,80,2|2,0:0|0:0,0:0:0:0:
225,65,27573,1,8,0:0:0:0:
83,154,27749,1,2,0:0:0:0:
83,154,27838,1,8,0:0:0:0:
83,154,27926,2,0,L|33:158,2,40,2|8|2,0:0|0:0|0:0,0:0:0:0:
133,74,28279,2,0,L|230:77,1,80,8|0,0:0|0:0,0:0:0:0:
326,152,28632,6,0,P|295:82|308:34,1,120,2|0,0:0|0:0,0:0:0:0:
320,22,28985,2,0,P|384:24|429:22,1,80,8|2,0:0|0:0,0:0:0:0:
479,9,29249,1,8,0:0:0:0:
479,9,29338,2,0,P|504:43|502:109,1,80,2|2,0:0|0:0,0:0:0:0:
389,207,29691,2,0,P|405:168|464:137,1,80,8|0,0:0|0:0,0:0:0:0:
512,295,30044,6,0,L|397:291,1,80,2|0,0:0|0:0,0:0:0:0:
284,347,30396,1,8,0:0:0:0:
340,261,30573,2,0,L|342:207,1,40,2|8,0:0|0:0,0:0:0:0:
344,77,30749,1,2,0:0:0:0:
257,192,30926,1,2,0:0:0:0:
396,150,31102,1,8,0:0:0:0:
256,104,31279,1,2,0:0:0:0:
256,104,31367,1,2,0:0:0:0:
256,104,31455,6,0,L|165:111,1,80,2|0,0:0|0:0,0:0:0:0:
70,105,31808,1,8,0:0:0:0:
130,2,31985,2,0,L|128:75,1,40,2|8,0:0|0:0,0:0:0:0:
120,171,32161,1,2,0:0:0:0:
20,39,32338,1,2,0:0:0:0:
176,110,32514,1,10,0:0:0:0:
97,267,32691,5,8,0:0:0:0:
78,269,32779,1,10,0:0:0:0:
59,271,32867,1,2,0:0:0:0:
265,340,33044,2,0,L|268:236,1,80,12|0,0:0|0:0,0:0:0:0:
332,124,33396,1,2,0:0:0:0:
350,261,33573,1,8,0:0:0:0:
254,177,33749,5,2,0:0:0:0:
221,158,33837,1,2,0:0:0:0:
182,156,33925,1,10,0:0:0:0:
153,167,34014,1,2,0:0:0:0:
119,188,34102,1,2,0:0:0:0:
81,188,34190,1,2,0:0:0:0:
50,176,34279,6,0,L|57:72,1,80,12|0,0:0|0:0,0:0:0:0:
172,0,34632,1,2,0:0:0:0:
182,156,34808,2,0,L|175:52,1,80,12|2,0:0|0:0,0:0:0:0:
55,96,35161,1,2,0:0:0:0:
178,233,35338,1,8,0:0:0:0:
207,228,35426,1,2,0:0:0:0:
233,213,35514,1,2,0:0:0:0:
250,189,35602,1,2,0:0:0:0:
257,160,35691,6,0,P|307:185|357:174,1,80,12|0,0:0|0:0,0:0:0:0:
429,146,36044,1,2,0:0:0:0:
298,25,36220,2,0,P|301:80|335:118,1,80,12|2,0:0|0:0,0:0:0:0:
382,41,36573,1,2,0:0:0:0:
257,160,36749,1,8,0:0:0:0:
227,161,36837,1,2,0:0:0:0:
197,162,36925,1,2,0:0:0:0:
167,164,37013,1,2,0:0:0:0:
137,165,37102,6,0,L|47:162,1,80,12|0,0:0|0:0,0:0:0:0:
192,68,37455,1,2,0:0:0:0:
167,257,37632,2,0,L|77:254,1,80,12|0,0:0|0:0,0:0:0:0:
223,151,37985,1,2,0:0:0:0:
308,312,38161,1,8,0:0:0:0:
308,282,38249,1,2,0:0:0:0:
309,252,38337,1,2,0:0:0:0:
310,222,38425,1,2,0:0:0:0:
311,192,38514,6,0,P|371:205|417:186,1,80,12|0,0:0|0:0,0:0:0:0:
472,104,38867,1,2,0:0:0:0:
432,284,39044,2,0,P|473:238|479:189,1,80,12|0,0:0|0:0,0:0:0:0:
430,27,39396,1,8,0:0:0:0:
400,10,39484,1,8,0:0:0:0:
367,8,39572,1,8,0:0:0:0:
336,19,39661,1,8,0:0:0:0:
305,31,39749,1,8,0:0:0:0:
272,29,39837,1,8,0:0:0:0:
244,13,39926,5,6,0:0:0:0:
112,46,40102,1,2,0:0:0:0:
250,105,40279,2,0,P|272:150|265:209,1,80,8|2,0:0|0:0,0:0:0:0:
137,221,40632,2,0,P|115:176|122:117,1,80,8|2,0:0|0:0,0:0:0:0:
188,293,40985,6,0,P|140:310|83:290,1,80,8|2,0:0|0:0,0:0:0:0:
309,244,41338,2,0,P|356:226|413:246,1,80,8|2,0:0|0:0,0:0:0:0:
331,366,41691,6,0,L|246:374,1,80,8|2,0:0|0:0,0:0:0:0:
191,172,42044,2,0,L|276:180,1,80,8|2,0:0|0:0,0:0:0:0:
316,15,42396,1,8,0:0:0:0:
172,87,42573,5,2,1:2:0:0:
172,87,42661,1,2,1:2:0:0:
172,87,42749,1,2,1:2:0:0:
214,318,43985,2,0,L|215:288,2,23.9999992675781,0|0|0,1:0|1:0|1:0,0:0:0:0:
230,324,44691,1,0,1:0:0:0:
247,325,45220,1,0,1:0:0:0:
170,361,45573,5,8,0:0:0:0:
200,194,45749,1,2,0:0:0:0:
328,302,45926,1,2,0:0:0:0:
104,286,46102,5,8,0:0:0:0:
309,301,46279,1,8,0:0:0:0:
108,188,46455,5,8,0:0:0:0:
235,378,46632,1,2,0:0:0:0:
324,92,46808,5,12,0:0:0:0:
338,103,47161,5,8,0:0:0:0:
324,70,47337,1,8,0:0:0:0:
305,97,47514,1,8,0:0:0:0:
297,78,48396,6,0,P|253:58|192:74,1,80,6|0,0:0|0:0,0:0:0:0:
130,125,48749,1,8,0:0:0:0:
259,228,48926,1,2,0:0:0:0:
265,204,49014,1,8,0:0:0:0:
264,180,49102,1,2,0:0:0:0:
257,158,49190,1,2,0:0:0:0:
244,137,49278,1,2,0:0:0:0:
176,195,49455,1,8,0:0:0:0:
349,163,49632,1,0,0:0:0:0:
288,333,49808,6,0,P|276:279|295:228,1,80,2|2,0:0|0:0,0:0:0:0:
362,288,50161,1,8,0:0:0:0:
193,338,50338,1,2,0:0:0:0:
193,338,50426,1,8,0:0:0:0:
193,338,50514,2,0,P|143:346|93:318,1,80,2|2,0:0|0:0,0:0:0:0:
29,233,50867,1,8,0:0:0:0:
156,186,51044,1,2,0:0:0:0:
156,186,51132,1,8,0:0:0:0:
156,186,51220,6,0,P|157:238|154:295,1,80,2|2,0:0|0:0,0:0:0:0:
54,221,51573,1,8,0:0:0:0:
110,117,51749,1,2,0:0:0:0:
110,117,51838,1,8,0:0:0:0:
110,117,51926,2,0,P|178:106|230:153,1,120,2|0,0:0|0:0,0:0:0:0:
236,167,52279,2,0,P|225:115|251:61,1,80,8|0,0:0|0:0,0:0:0:0:
304,40,52544,1,2,0:0:0:0:
304,40,52632,6,0,L|401:42,1,80,2|2,0:0|0:0,0:0:0:0:
477,93,52985,1,8,0:0:0:0:
314,124,53161,1,0,0:0:0:0:
482,190,53338,1,2,0:0:0:0:
482,190,53426,1,8,0:0:0:0:
482,190,53514,2,0,L|478:286,1,80,2|8,0:0|0:0,0:0:0:0:
339,216,53867,1,2,0:0:0:0:
339,216,53955,1,8,0:0:0:0:
339,216,54044,6,0,L|348:371,1,120,6|0,0:0|0:0,0:0:0:0:
333,357,54396,1,8,0:0:0:0:
168,329,54573,1,2,0:0:0:0:
168,329,54661,1,8,0:0:0:0:
168,329,54749,2,0,L|266:322,1,80,2|2,0:0|0:0,0:0:0:0:
187,201,55102,2,0,L|89:194,1,80,8|2,0:0|0:0,0:0:0:0:
37,263,55455,5,2,0:0:0:0:
203,213,55632,1,2,0:0:0:0:
141,76,55808,2,0,P|90:70|36:100,1,80,8|2,0:0|0:0,0:0:0:0:
221,115,56161,2,0,P|227:64|197:10,1,80,2|2,0:0|0:0,0:0:0:0:
147,164,56514,1,8,0:0:0:0:
306,72,56691,1,8,0:0:0:0:
306,72,56779,1,8,0:0:0:0:
306,72,56867,6,0,L|320:210,1,95.9999970703126,6|2,0:0|0:0,0:0:0:0:
394,29,57220,1,8,0:0:0:0:
484,96,57396,6,0,L|473:226,1,95.9999970703126,6|0,0:0|0:0,0:0:0:0:
461,276,57749,1,2,0:0:0:0:
399,110,57926,1,8,0:0:0:0:
445,291,58102,6,0,P|397:317|332:300,1,95.9999970703126,6|0,0:0|0:0,0:0:0:0:
261,227,58455,1,2,0:0:0:0:
210,377,58632,2,0,P|263:385|319:346,1,95.9999970703126,12|0,0:0|0:0,0:0:0:0:
391,182,58985,6,0,L|305:194,1,47.9999985351563,2|2,0:0|0:0,0:0:0:0:
255,116,59161,2,0,L|262:44,1,47.9999985351563,10|2,0:0|0:0,0:0:0:0:
256,274,59338,2,0,L|260:226,1,47.9999985351563,10|2,0:0|0:0,0:0:0:0:
171,153,59514,2,0,L|124:160,1,47.9999985351563,2|2,0:0|0:0,0:0:0:0:
45,313,59691,6,0,B|86:320|86:320|136:303,1,80,6|0,0:0|0:0,0:0:0:0:
192,226,60044,1,8,0:0:0:0:
54,131,60220,1,2,0:0:0:0:
46,160,60308,1,8,0:0:0:0:
48,189,60396,1,2,0:0:0:0:
59,217,60484,1,2,0:0:0:0:
77,241,60572,1,2,0:0:0:0:
267,208,60749,1,8,0:0:0:0:
131,175,60926,1,2,0:0:0:0:
181,317,61102,6,0,L|264:309,1,80,2|2,0:0|0:0,0:0:0:0:
370,333,61455,1,8,0:0:0:0:
438,204,61632,1,2,0:0:0:0:
438,204,61720,1,8,0:0:0:0:
438,204,61808,2,0,P|451:251|432:303,1,80,2|2,0:0|0:0,0:0:0:0:
334,178,62161,1,8,0:0:0:0:
405,96,62338,1,2,0:0:0:0:
405,96,62426,1,8,0:0:0:0:
405,96,62514,6,0,L|516:101,1,80,2|2,0:0|0:0,0:0:0:0:
360,0,62867,1,8,0:0:0:0:
279,139,63043,1,2,0:0:0:0:
279,139,63132,1,8,0:0:0:0:
279,139,63220,2,0,P|350:142|402:95,1,120,2|0,0:0|0:0,0:0:0:0:
405,96,63573,2,0,P|396:147|417:196,1,80,8|0,0:0|0:0,0:0:0:0:
456,236,63838,1,8,0:0:0:0:
456,236,63926,6,0,L|450:336,1,80,2|2,0:0|0:0,0:0:0:0:
360,258,64279,1,8,0:0:0:0:
475,133,64455,1,2,0:0:0:0:
345,50,64632,1,2,0:0:0:0:
345,50,64720,1,8,0:0:0:0:
345,50,64808,2,0,L|258:48,1,80,2|8,0:0|0:0,0:0:0:0:
103,90,65161,1,2,0:0:0:0:
103,90,65249,1,8,0:0:0:0:
103,90,65338,6,0,L|186:83,1,80,6|2,0:0|0:0,0:0:0:0:
229,188,65691,1,8,0:0:0:0:
66,164,65867,1,0,0:0:0:0:
254,191,66044,2,0,L|340:182,1,80,2|2,0:0|0:0,0:0:0:0:
428,234,66396,1,8,0:0:0:0:
270,113,66573,6,0,P|343:88|410:128,1,160,6|2,0:0|0:0,0:0:0:0:
333,182,67102,1,8,0:0:0:0:
194,157,67279,6,0,P|190:75|257:23,1,160,6|2,0:0|0:0,0:0:0:0:
257,221,67808,1,8,0:0:0:0:
232,237,67896,1,2,0:0:0:0:
203,244,67984,1,2,0:0:0:0:
173,242,68072,1,2,0:0:0:0:
146,229,68161,6,0,L|153:337,1,80,12|2,0:0|0:0,0:0:0:0:
296,370,68514,2,0,L|302:291,1,80,8|2,0:0|0:0,0:0:0:0:
115,373,68867,2,0,P|167:383|217:347,1,80,8|2,0:0|0:0,0:0:0:0:
232,237,69220,1,8,0:0:0:0:
64,155,69396,2,0,L|61:195,1,40,2|2,0:0|0:0,0:0:0:0:
71,282,69573,5,14,0:0:0:0:
38,74,69749,1,10,0:0:0:0:
89,294,70102,6,0,P|152:311|184:300,1,83.9999974365235,12|0,0:0|0:0,0:0:0:0:
190,297,70455,1,2,0:0:0:0:
207,290,70543,1,2,0:0:0:0:
225,287,70631,1,8,0:0:0:0:
244,287,70719,1,8,0:0:0:0:
262,291,70807,1,8,0:0:0:0:
279,299,70896,1,8,0:0:0:0:
294,310,70985,5,6,0:0:0:0:
334,240,76632,5,4,1:2:0:0:
300,159,76808,1,0,1:0:0:0:
240,233,76985,2,0,L|244:285,1,47.9999985351563,0|0,1:0|1:0,0:0:0:0:
225,99,77337,1,0,1:0:0:0:
166,174,77514,2,0,L|51:185,1,95.9999970703126,0|0,1:0|1:0,0:0:0:0:
8,272,78044,6,0,L|70:276,1,47.9999985351563,0|0,1:0|0:0,0:0:0:0:
144,359,78396,2,0,L|82:363,1,47.9999985351563,0|0,1:0|0:0,0:0:0:0:
226,286,78749,2,0,L|233:348,1,47.9999985351563,0|0,1:0|0:0,0:0:0:0:
335,359,79102,2,0,L|342:297,1,47.9999985351563,0|0,1:0|0:0,0:0:0:0:
297,242,79455,5,0,1:0:0:0:
388,249,79632,1,0,1:0:0:0:
346,161,79808,2,0,L|280:155,1,47.9999985351563,0|0,1:0|1:0,0:0:0:0:
477,208,80161,1,0,1:0:0:0:
435,119,80338,2,0,L|448:19,1,95.9999970703126,0|0,1:0|1:0,0:0:0:0:
337,43,80867,2,0,L|339:76,2,23.9999992675781,0|0|0,1:0|1:0|1:0,0:0:0:0:
256,192,81132,12,0,87044,0:0:0:0:
