osu file format v14

[General]
AudioFilename: audio.mp3
AudioLeadIn: 0
PreviewTime: -1
Countdown: 0
SampleSet: Normal
StackLeniency: 0.7
Mode: 0
LetterboxInBreaks: 0
WidescreenStoryboard: 0

[Editor]
Bookmarks: 8507,14701,51886,64273,69112,76660,82854
DistanceSpacing: 2
BeatDivisor: 4
GridSize: 4
TimelineZoom: 1.4

[Metadata]
Title:Saturday Night Question
TitleUnicode:サタデー・ナイト・クエスチョン
Artist:Megumi Nakajima
ArtistUnicode:中島愛
Creator:UselessXD
Version:Game
Source:
Tags:net juu no susume op opening anime game manga tv size
BeatmapID:1462043
BeatmapSetID:690901

[Difficulty]
HPDrainRate:5
CircleSize:4
OverallDifficulty:7
ApproachRate:9
SliderMultiplier:1.6
SliderTickRate:1

[Events]
//Background and Video events
0,0,"PxRLdmZ.jpg",0,0
//Break Periods
//Storyboard Layer 0 (Background)
//Storyboard Layer 1 (Fail)
//Storyboard Layer 2 (Pass)
//Storyboard Layer 3 (Foreground)
//Storyboard Sound Samples

[TimingPoints]
2338,387.096774193548,4,1,0,70,1,0
8918,-80,4,1,0,70,0,0
12305,-80,4,1,0,5,0,0
12402,-80,4,1,0,70,0,0
13079,-80,4,1,0,5,0,0
13176,-80,4,1,0,70,0,0
14337,-80,4,1,0,5,0,0
14531,-80,4,1,0,70,0,0
14701,-100,4,1,0,70,0,0
15015,-100,4,1,0,5,0,0
15112,-100,4,1,0,70,0,0
15402,-100,4,1,0,5,0,0
15499,-100,4,1,0,70,0,0
17821,-100,4,1,0,5,0,0
18015,-100,4,1,0,70,0,0
25830,-100,4,1,0,5,0,0
25926,-100,4,1,0,70,0,0
30184,-100,4,1,0,70,0,0
30378,-100,4,1,0,70,0,0
38241,-100,4,1,0,5,0,0
38337,-100,4,1,0,70,0,0
38628,-100,4,1,0,5,0,0
38725,-100,4,1,0,70,0,0
48886,-100,4,1,0,5,0,0
48983,-100,4,1,0,70,0,0
51886,-71.4285714285714,4,1,0,70,0,1
52176,-71.4285714285714,4,1,0,5,0,1
52273,-71.4285714285714,4,1,0,70,0,1
56531,-71.4285714285714,4,1,0,5,0,1
56725,-71.4285714285714,4,1,0,70,0,1
57499,-71.4285714285714,4,1,0,70,0,0
60692,-71.4285714285714,4,1,0,5,0,0
60789,-71.4285714285714,4,1,0,70,0,0
64273,-71.4285714285714,4,1,0,70,0,1
64467,-71.4285714285714,4,1,0,5,0,1
64660,-71.4285714285714,4,1,0,70,0,1
66789,-71.4285714285714,4,1,0,5,0,1
66983,-71.4285714285714,4,1,0,70,0,1
67757,-71.4285714285714,4,1,0,5,0,1
67950,-71.4285714285714,4,1,0,70,0,1
68918,-71.4285714285714,4,1,0,70,0,0
69596,-71.4285714285714,4,1,0,5,0,0
69692,-71.4285714285714,4,1,0,70,0,0
70176,-71.4285714285714,4,1,0,5,0,0
70273,-71.4285714285714,4,1,0,70,0,0
71821,-100,4,1,0,70,0,0
72402,-71.4285714285714,4,1,0,70,0,0
72596,-71.4285714285714,4,1,0,5,0,0
72789,-100,4,1,0,70,0,0
75789,-100,4,1,0,5,0,0
75886,-100,4,1,0,70,0,0
76176,-100,4,1,0,5,0,0
76273,-100,4,1,0,70,0,0
76563,-100,4,1,0,5,0,0
76660,-100,4,1,0,70,0,1
79273,-100,4,1,0,5,0,1
79370,-83.3333333333333,4,1,0,70,0,1
79757,-83.3333333333333,4,1,0,30,0,1
79950,-83.3333333333333,4,1,0,40,0,1
80144,-83.3333333333333,4,1,0,50,0,1
80337,-83.3333333333333,4,1,0,60,0,1
80531,-83.3333333333333,4,1,0,70,0,1
81692,-83.3333333333333,4,1,0,70,0,0

[Colours]
Combo1 : 255,128,66
Combo2 : 125,125,255
Combo3 : 104,179,240
Combo4 : 123,215,137

[HitObjects]
128,252,2338,6,0,L|140:192,2,40
252,152,2725,1,0,0:0:0:0:
376,292,3112,6,0,L|364:232,2,40
252,192,3499,1,0,0:0:0:0:
416,119,3886,6,0,P|407:172|363:211,1,80
261,201,4273,2,0,P|270:148|314:109,1,80
395,193,4660,6,0,L|311:253,1,80
259,202,5047,2,0,L|201:283,1,80
108,320,5434,6,0,L|88:256,2,40
76,200,5822,1,0,0:0:0:0:
244,156,6208,6,0,L|224:220,2,40
212,276,6596,1,0,0:0:0:0:
120,196,6983,6,0,L|68:96,1,80
204,84,7370,1,0,0:0:0:0:
212,212,7563,1,0,0:0:0:0:
304,124,7757,2,0,L|355:78,1,40
316,219,7950,2,0,L|265:265,1,40
411,207,8144,1,0,0:0:0:0:
420,245,8241,1,0,0:0:0:0:
418,284,8337,1,0,0:0:0:0:
399,319,8434,1,0,0:0:0:0:
367,343,8531,2,0,P|311:366|296:363,2,40
349,206,8918,6,0,L|442:259,1,100
316,335,9305,2,0,L|261:284,1,50
208,238,9499,1,0,0:0:0:0:
350,207,9692,2,0,L|307:113,1,100
196,59,10079,6,0,P|139:92|116:141,1,100
167,253,10467,1,0,0:0:0:0:
265,127,10660,1,0,0:0:0:0:
86,103,10854,1,0,0:0:0:0:
168,284,11047,1,0,0:0:0:0:
277,115,11241,1,0,0:0:0:0:
77,102,11434,1,0,0:0:0:0:
107,239,11628,6,0,P|96:287|69:304,1,50
22,349,11821,1,0,0:0:0:0:
160,372,12015,6,0,P|225:370|291:308,1,150
203,261,12402,6,0,P|214:213|241:196,1,50
288,151,12595,1,0,0:0:0:0:
387,122,12789,6,0,P|347:55|247:55,1,150
213,106,13176,6,0,L|259:143,1,50
151,213,13370,2,0,L|210:211,1,50
188,336,13563,2,0,L|232:297,1,50
319,217,13757,1,0,0:0:0:0:
398,331,13950,6,0,P|431:289|431:262,1,50
363,252,14144,2,0,L|339:154,1,100
251,57,14531,5,0,0:0:0:0:
251,57,14628,1,0,0:0:0:0:
251,57,14725,2,0,P|201:75|183:145,1,120
265,165,15112,2,0,P|256:229|187:276,1,120
144,326,15499,2,0,L|99:243,1,80
174,214,15886,2,0,L|200:122,1,80
332,56,16467,6,0,P|375:52|418:80,1,80
392,162,16854,2,0,P|424:186|428:254,1,80
341,238,17241,1,0,0:0:0:0:
402,311,17434,1,0,0:0:0:0:
307,328,17628,2,0,P|238:269|239:261,1,80
277,203,18015,5,0,0:0:0:0:
283,192,18112,1,0,0:0:0:0:
289,181,18208,2,0,L|230:104,1,80
180,169,18596,2,0,L|85:132,1,80
59,201,18983,2,0,L|-3:209,1,40
110,285,19176,2,0,P|69:322|91:368,1,80
214,342,19563,5,0,0:0:0:0:
214,342,19757,2,0,P|271:293|274:258,1,80
339,164,20144,1,0,0:0:0:0:
183,198,20337,1,0,0:0:0:0:
260,39,20531,1,0,0:0:0:0:
174,211,20725,1,0,0:0:0:0:
48,68,21112,5,0,0:0:0:0:
48,68,21305,2,0,L|48:173,1,80
124,137,21692,2,0,L|182:223,1,80
97,234,22079,2,0,L|122:328,1,80
246,342,22660,5,0,0:0:0:0:
246,342,22853,2,0,L|351:342,1,80
315,266,23240,2,0,L|401:208,1,80
412,293,23627,2,0,L|481:277,1,40
457,204,23821,2,0,B|524:151|524:151|521:114|437:67|437:67|403:108|403:108|395:85|329:51|260:81,1,400
175,120,25176,6,0,P|138:198|234:354,1,280
279,288,25950,2,0,P|223:258|213:210,1,80
251,90,26337,5,0,0:0:0:0:
286,96,26434,1,0,0:0:0:0:
319,109,26531,1,0,0:0:0:0:
349,128,26628,1,0,0:0:0:0:
376,150,26725,1,0,0:0:0:0:
349,282,26918,5,0,0:0:0:0:
314,272,27015,1,0,0:0:0:0:
279,262,27112,2,0,L|241:218,1,40
193,293,27306,2,0,L|140:280,1,40
141,366,27499,2,0,P|87:364|59:334,1,80
85,235,27886,5,0,0:0:0:0:
95,200,27983,1,0,0:0:0:0:
105,166,28079,2,0,P|153:118|185:112,1,80
272,141,28467,1,0,0:0:0:0:
209,233,28660,1,0,0:0:0:0:
165,110,28854,2,0,L|122:87,2,40
295,172,29241,5,0,0:0:0:0:
418,246,29434,1,0,0:0:0:0:
295,320,29628,1,0,0:0:0:0:
172,246,29821,1,0,0:0:0:0:
295,172,30015,1,0,0:0:0:0:
420,102,30208,6,0,L|451:141,1,40
375,201,30402,1,0,0:0:0:0:
278,90,30596,1,0,0:0:0:0:
256,248,30789,1,0,0:0:0:0:
159,137,30983,2,0,L|191:55,1,80
260,134,31370,2,0,L|195:222,1,80
200,216,31660,1,0,0:0:0:0:
188,232,31757,1,0,0:0:0:0:
271,329,31950,6,0,L|334:326,1,40
314,249,32144,2,0,L|348:213,1,40
405,268,32337,2,0,L|457:253,1,40
398,136,32531,1,0,0:0:0:0:
512,165,32725,1,0,0:0:0:0:
362,114,32918,1,0,0:0:0:0:
512,165,33112,1,0,0:0:0:0:
419,274,33305,5,0,0:0:0:0:
408,285,33402,1,0,0:0:0:0:
395,295,33499,2,0,B|365:322|365:322|289:322,1,80,0|0,0:0|0:0,0:0:0:0:
285,183,33886,1,0,0:0:0:0:
217,155,34079,2,0,P|216:220|244:240,1,80
291,262,34467,2,0,P|248:298|197:298,1,80
82,303,34854,1,0,0:0:0:0:
111,162,35047,6,0,L|152:192,1,40
238,246,35241,1,0,0:0:0:0:
195,101,35434,6,0,L|207:150,1,40
238,246,35628,1,0,0:0:0:0:
299,107,35821,6,0,L|276:152,1,40
238,246,36015,1,0,0:0:0:0:
372,296,36208,2,0,B|464:208|464:208|344:200|364:120|364:120|308:112|256:168,1,400
140,268,37950,6,0,P|216:228|268:248,1,120
240,204,38337,2,0,P|168:196|128:248,1,120
108,192,38725,2,0,P|184:152|236:172,1,120
249,174,39112,5,0,0:0:0:0:
281,196,39208,1,0,0:0:0:0:
306,226,39305,1,0,0:0:0:0:
319,263,39402,1,0,0:0:0:0:
317,303,39499,2,0,P|318:361|380:322,2,160
452,184,40467,1,0,0:0:0:0:
302,238,40660,1,0,0:0:0:0:
223,377,40854,1,0,0:0:0:0:
223,377,41047,2,0,B|162:356|175:308|175:308|117:348,2,160
370,322,42015,6,0,L|407:278,1,40
426,201,42208,2,0,L|354:195,1,40
312,243,42402,2,0,L|260:252,1,40
320,149,42596,2,0,P|393:130|363:179,1,160
281,270,43176,1,0,0:0:0:0:
250,280,43273,1,0,0:0:0:0:
218,283,43370,2,0,P|154:266|137:243,1,80
250,166,43757,2,0,P|314:183|331:206,1,80
374,338,44144,2,0,B|386:286|429:288|429:288|418:231|481:214,2,160
229,318,45305,5,0,0:0:0:0:
165,225,45499,1,0,0:0:0:0:
275,211,45692,2,0,P|317:256|313:299,1,80
165,225,46079,5,0,0:0:0:0:
229,318,46273,1,0,0:0:0:0:
119,332,46466,2,0,P|77:287|81:244,1,80
165,225,46854,5,0,0:0:0:0:
101,132,47048,1,0,0:0:0:0:
211,118,47241,2,0,P|253:163|249:206,1,80
165,225,47628,6,0,L|215:268,1,40
252,193,47821,2,0,P|312:191|364:102,1,160
182,86,48596,6,0,P|216:142|175:210,1,120
186,209,48983,1,0,0:0:0:0:
91,245,49176,1,0,0:0:0:0:
177,288,49563,5,0,0:0:0:0:
334,96,49950,1,0,0:0:0:0:
324,261,50337,5,0,0:0:0:0:
192,138,50531,1,0,0:0:0:0:
188,261,50725,5,0,0:0:0:0:
320,138,50919,1,0,0:0:0:0:
250,197,51305,5,0,0:0:0:0:
250,197,51499,1,0,0:0:0:0:
250,197,51692,1,0,0:0:0:0:
360,76,51886,6,0,P|392:136|360:272,1,167.999994873047
308,172,52273,2,0,P|256:228|172:180,1,167.999994873047
208,64,52660,1,0,0:0:0:0:
320,204,52854,1,0,0:0:0:0:
164,292,53047,1,0,0:0:0:0:
140,160,53241,1,0,0:0:0:0:
248,236,53434,1,0,0:0:0:0:
320,96,53628,1,0,0:0:0:0:
420,272,53821,1,0,0:0:0:0:
212,184,54015,2,0,L|144:152,1,55.9999982910157
128,256,54208,2,0,L|52:272,1,55.9999982910157
172,344,54402,2,0,L|136:388,1,55.9999982910157
280,360,54596,2,0,P|344:368|312:328,1,111.999996582031
376,244,54983,5,0,0:0:0:0:
404,260,55079,1,0,0:0:0:0:
432,276,55176,2,0,B|432:188|432:188|400:208,2,111.999996582031
268,344,55757,1,0,0:0:0:0:
112,260,55950,1,0,0:0:0:0:
152,84,56144,1,0,0:0:0:0:
152,84,56337,2,0,B|192:88|192:88|216:120|216:120|248:124,1,111.999996582031
120,260,56725,5,0,0:0:0:0:
312,160,56918,1,0,0:0:0:0:
76,88,57112,1,0,0:0:0:0:
76,88,57305,1,0,0:0:0:0:
16,256,57499,5,0,0:0:0:0:
26,293,57596,1,0,0:0:0:0:
53,321,57693,1,0,0:0:0:0:
89,336,57790,1,0,0:0:0:0:
127,333,57886,2,0,L|186:286,1,55.9999982910157
240,233,58079,2,0,L|166:207,1,55.9999982910157
310,286,58273,2,0,L|239:329,1,55.9999982910157
359,212,58467,2,0,L|283:180,1,55.9999982910157
422,264,58660,2,0,L|377:314,1,55.9999982910157
444,179,58854,2,0,L|413:119,1,55.9999982910157
375,41,59047,5,0,0:0:0:0:
272,160,59241,1,0,0:0:0:0:
102,216,59434,1,0,0:0:0:0:
53,88,59628,5,0,0:0:0:0:
85,79,59725,1,0,0:0:0:0:
117,85,59821,1,0,0:0:0:0:
145,103,59918,1,0,0:0:0:0:
166,129,60015,1,0,0:0:0:0:
178,160,60112,1,0,0:0:0:0:
185,192,60208,1,0,0:0:0:0:
203,219,60305,1,0,0:0:0:0:
230,237,60402,2,0,P|280:267|217:328,1,167.999994873047
141,288,60789,6,0,L|110:232,1,55.9999982910157
203,219,60983,2,0,P|208:168|248:144,1,55.9999982910157
280,96,61176,2,0,P|348:120|336:192,1,111.999996582031
280,228,61563,2,0,P|268:280|248:296,1,55.9999982910157
196,348,61757,2,0,P|128:360|64:288,1,167.999994873047
144,248,62144,2,0,L|144:132,1,111.999996582031
227,64,62531,5,0,0:0:0:0:
340,218,62725,2,0,L|249:219,1,55.9999982910157
131,149,62918,2,0,L|193:215,1,55.9999982910157
301,295,63112,2,0,L|210:296,1,55.9999982910157
92,226,63305,2,0,L|153:292,1,55.9999982910157
195,357,63499,2,0,L|275:377,1,55.9999982910157
392,342,63692,5,0,0:0:0:0:
399,333,63789,1,0,0:0:0:0:
406,324,63886,1,0,0:0:0:0:
406,290,63983,1,0,0:0:0:0:
407,256,64079,1,0,0:0:0:0:
408,222,64176,1,0,0:0:0:0:
409,188,64273,2,0,P|366:135|294:145,1,111.999996582031
227,175,64660,1,0,0:0:0:0:
263,191,64757,1,0,0:0:0:0:
289,220,64854,1,0,0:0:0:0:
299,256,64950,1,0,0:0:0:0:
293,295,65047,6,0,L|202:260,1,55.9999982910157
77,209,65241,2,0,L|144:179,1,55.9999982910157
307,106,65434,2,0,L|274:183,1,55.9999982910157
216,305,65628,2,0,L|283:374,2,55.9999982910157
368,338,66015,5,0,0:0:0:0:
368,338,66208,1,0,0:0:0:0:
368,338,66402,2,0,B|434:296|401:234|401:234|326:241|341:151,1,223.999993164063
475,152,66983,5,0,0:0:0:0:
451,120,67079,1,0,0:0:0:0:
414,104,67176,1,0,0:0:0:0:
374,104,67273,1,0,0:0:0:0:
339,123,67370,2,0,B|256:139|287:215|287:215|193:176,1,223.999993164063
96,52,67950,6,0,L|137:112,1,55.9999982910157
198,202,68144,1,0,0:0:0:0:
305,67,68337,1,0,0:0:0:0:
400,245,68531,1,0,0:0:0:0:
178,211,68725,1,0,0:0:0:0:
401,222,68918,1,0,0:0:0:0:
338,355,69112,5,0,0:0:0:0:
320,320,69208,1,0,0:0:0:0:
311,281,69305,1,0,0:0:0:0:
311,241,69402,1,0,0:0:0:0:
321,203,69499,2,0,L|293:129,1,55.9999982910157
414,82,69692,5,0,0:0:0:0:
437,113,69789,1,0,0:0:0:0:
448,150,69886,1,0,0:0:0:0:
448,189,69983,1,0,0:0:0:0:
436,226,70079,2,0,P|395:270|368:274,1,55.9999982910157
277,325,70273,5,0,0:0:0:0:
262,288,70370,1,0,0:0:0:0:
245,252,70467,2,0,B|225:187|282:138|282:138|340:171|340:171|302:202,1,223.999993164063
173,288,71047,5,0,0:0:0:0:
156,211,71241,1,0,0:0:0:0:
254,231,71434,2,0,L|201:283,1,55.9999982910157
119,342,71628,2,0,L|119:236,1,55.9999982910157
118,134,71821,2,0,B|169:146|190:82|190:82|256:82|256:82|285:93|306:192|205:192,1,320
279,266,73176,6,0,P|321:278|355:232,1,80
303,195,73563,2,0,P|365:141|411:205,1,160
410,271,74144,1,0,0:0:0:0:
403,368,74337,2,0,L|324:312,1,80
156,268,74918,1,0,0:0:0:0:
156,268,75112,2,0,L|235:212,1,80
320,157,75499,1,0,0:0:0:0:
276,268,75692,1,0,0:0:0:0:
276,268,75886,2,0,B|319:291|364:280|364:280|398:248,1,120
456,148,76273,2,0,L|317:182,1,120
226,205,76660,5,0,0:0:0:0:
149,147,76854,1,0,0:0:0:0:
120,271,77047,1,0,0:0:0:0:
250,208,77241,1,0,0:0:0:0:
194,58,77434,1,0,0:0:0:0:
144,227,77628,1,0,0:0:0:0:
295,109,77821,1,0,0:0:0:0:
403,305,78015,1,0,0:0:0:0:
181,337,78208,1,0,0:0:0:0:
217,115,78402,1,0,0:0:0:0:
350,295,78596,1,0,0:0:0:0:
123,217,78789,1,0,0:0:0:0:
359,170,78983,2,0,P|401:144|404:70,1,120
337,99,79370,6,0,P|292:67|213:97,1,143.999995605469
278,180,79757,1,0,0:0:0:0:
286,184,79854,1,0,0:0:0:0:
300,196,79950,1,0,0:0:0:0:
312,222,80047,1,0,0:0:0:0:
307,255,80144,1,0,0:0:0:0:
281,283,80241,1,0,0:0:0:0:
239,293,80337,1,0,0:0:0:0:
199,274,80434,1,0,0:0:0:0:
179,235,80531,1,0,0:0:0:0:
140,214,80628,1,0,0:0:0:0:
97,207,80725,2,0,L|41:210,1,47.9999985351563
111,301,80918,2,0,L|69:340,1,47.9999985351563
203,322,81112,2,0,L|189:369,1,47.9999985351563
336,332,81305,5,0,0:0:0:0:
336,160,81499,1,0,0:0:0:0:
436,300,82854,6,0,L|476:360,2,47.9999985351563
312,284,83241,1,0,0:0:0:0:
76,300,83628,6,0,L|36:360,2,47.9999985351563
200,284,84015,1,0,0:0:0:0:
120,196,84402,6,0,P|68:164|24:184,1,95.9999970703126
192,136,84789,2,0,P|175:77|129:61,1,95.9999970703126
319,135,85176,6,0,P|326:89|364:62,1,95.9999970703126
392,195,85563,2,0,P|427:166|474:172,1,95.9999970703126
436,84,85950,6,0,L|476:24,2,47.9999985351563
312,100,86337,1,0,0:0:0:0:
76,84,86724,6,0,L|36:24,2,47.9999985351563
200,100,87111,1,0,0:0:0:0:
192,248,87499,6,0,P|175:306|129:322,1,95.9999970703126
319,248,87886,2,0,P|326:294|364:321,1,95.9999970703126
380,192,88273,5,0,0:0:0:0:
132,192,88467,1,0,0:0:0:0:
