osu file format v14

[General]
AudioFilename: audio.mp3
AudioLeadIn: 0
PreviewTime: 50911
Countdown: 0
SampleSet: None
StackLeniency: 0.3
Mode: 0
LetterboxInBreaks: 0
WidescreenStoryboard: 1

[Editor]
DistanceSpacing: 0.8
BeatDivisor: 4
GridSize: 4
TimelineZoom: 2.7

[Metadata]
Title:Saturday Night Question
TitleUnicode:サタデー・ナイト・クエスチョン
Artist:Megumi Nakajima
ArtistUnicode:中島愛
Creator:Hikan
Version:Lie
Source:ネト充のススメ
Tags:Net-juu no Susume Recovery of an MMO Junkie
BeatmapID:1467377
BeatmapSetID:686360

[Difficulty]
HPDrainRate:3.8
CircleSize:4.5
OverallDifficulty:8
ApproachRate:9.5
SliderMultiplier:1.4
SliderTickRate:1

[Events]
//Background and Video events
0,0,"ghj.jpg",0,0
//Break Periods
//Storyboard Layer 0 (Background)
//Storyboard Layer 1 (Fail)
//Storyboard Layer 2 (Pass)
//Storyboard Layer 3 (Foreground)
//Storyboard Sound Samples

[TimingPoints]
1750,387.096774193548,4,1,1,40,1,0
7943,-71.4285714285714,4,1,1,40,0,0
14137,-200,4,1,1,40,0,0
14524,-66.6666666666667,4,1,1,40,0,0
14911,-200,4,1,1,40,0,0
15298,-66.6666666666667,4,1,1,40,0,0
15685,-200,4,1,1,40,0,0
16072,-66.6666666666667,4,1,1,40,0,0
16459,-100,4,1,1,40,0,0
17233,-200,4,1,1,40,0,0
17620,-66.6666666666667,4,1,1,40,0,0
18008,-200,4,1,1,40,0,0
18395,-66.6666666666667,4,1,1,40,0,0
18782,-200,4,1,1,40,0,0
19169,-66.6666666666667,4,1,1,40,0,0
19556,-100,4,1,1,40,0,0
20330,-200,4,1,1,40,0,0
20717,-66.6666666666667,4,1,1,40,0,0
21104,-200,4,1,1,40,0,0
21491,-66.6666666666667,4,1,1,40,0,0
21879,-200,4,1,1,40,0,0
22266,-66.6666666666667,4,1,1,40,0,0
22653,-100,4,1,1,40,0,0
23427,-200,4,1,1,40,0,0
23814,-66.6666666666667,4,1,1,40,0,0
24201,-133.333333333333,4,1,1,40,0,0
24588,-66.6666666666667,4,1,1,40,0,0
24975,-133.333333333333,4,1,1,40,0,0
25362,-66.6666666666667,4,1,1,40,0,0
26524,-76.9230769230769,4,1,1,40,0,0
38911,-100,4,1,1,40,0,0
44717,-75.0018750468762,4,1,1,40,0,0
45104,-90.9090909090909,4,1,1,40,0,0
50717,-52.6315789473684,4,1,1,40,0,0
51298,-62.5,4,1,1,40,0,1
52846,-71.4285714285714,4,1,1,40,0,1
54395,-62.5,4,1,1,40,0,1
55943,-71.4285714285714,4,1,1,40,0,1
57491,-62.5,4,1,1,40,0,1
59040,-71.4285714285714,4,1,1,40,0,1
62137,-50,4,1,1,40,0,1
62717,-58.8235294117647,4,1,1,40,0,1
63685,-62.5,4,1,1,40,0,1
68330,-83.3333333333333,4,1,1,40,0,1
79362,-66.6666666666667,4,1,1,40,0,1
82266,-83.3333333333333,4,1,1,40,0,0

[Colours]
Combo1 : 170,182,158
Combo2 : 115,140,242
Combo3 : 96,214,223

[HitObjects]
37,303,1750,6,0,L|97:312,1,35
337,269,1943,1,0,0:0:0:0:
180,216,2137,1,0,0:0:0:0:
180,216,2524,6,0,L|240:225,1,35
478,182,2717,1,0,0:0:0:0:
337,269,2911,1,0,0:0:0:0:
337,269,3298,5,0,0:0:0:0:
367,23,3491,1,0,0:0:0:0:
347,187,3685,1,0,0:0:0:0:
357,105,3879,1,0,0:0:0:0:
327,351,4072,5,0,0:0:0:0:
367,23,4266,1,0,0:0:0:0:
337,269,4459,1,0,0:0:0:0:
357,105,4653,1,0,0:0:0:0:
63,248,4846,6,0,P|102:257|127:250,1,35
290,56,5040,1,0,0:0:0:0:
132,99,5233,1,0,0:0:0:0:
132,99,5620,6,0,P|150:134|171:149,1,35
424,149,5814,1,0,0:0:0:0:
290,56,6007,1,0,0:0:0:0:
290,56,6395,5,0,0:0:0:0:
27,86,6588,1,0,0:0:0:0:
245,212,6782,5,0,0:0:0:0:
104,199,6975,1,0,0:0:0:0:
463,338,7169,6,0,L|466:284,1,35
245,212,7362,1,0,0:0:0:0:
210,269,7556,5,0,0:0:0:0:
268,275,7652,1,0,0:0:0:0:
310,232,7749,1,0,0:0:0:0:
301,173,7846,1,0,0:0:0:0:
250,144,7943,6,0,P|282:141|307:126,1,48.9999985046387
346,71,8137,1,0,0:0:0:0:
210,269,8330,2,0,B|299:253|258:321|370:299,1,146.999995513916
241,382,8717,6,0,P|230:349|234:321,1,48.9999985046387
329,236,8911,1,0,0:0:0:0:
156,317,9104,2,0,P|137:268|195:199,1,146.999995513916,0|0,0:0|2:0,0:0:0:0:
76,122,9491,6,0,P|109:154|119:180,1,48.9999985046387,0|0,0:0|2:0,0:0:0:0:
215,50,9685,2,0,P|196:101|196:112,1,48.9999985046387,0|0,0:0|2:0,0:0:0:0:
292,125,9879,2,0,P|311:74|311:63,1,48.9999985046387,0|0,0:0|2:0,0:0:0:0:
333,214,10072,2,0,P|357:208|382:210,1,48.9999985046387,0|0,0:0|2:0,0:0:0:0:
298,300,10266,6,0,P|240:294|203:261,1,97.9999970092774
363,329,10653,2,0,B|275:313|303:367|202:348,1,146.999995513916
59,311,11040,6,0,P|18:313|-11:326,1,48.9999985046387
120,374,11233,1,0,0:0:0:0:
62,213,11427,2,0,P|114:234|144:332,1,146.999995513916
155,219,11814,6,0,P|170:201|191:188,1,48.9999985046387
269,221,12008,1,0,0:0:0:0:
15,89,12201,2,0,B|45:132|45:132|175:117,1,146.999995513916,0|0,0:0|2:0,0:0:0:0:
217,69,12588,6,0,L|238:24,1,48.9999985046387,0|0,0:0|2:0,0:0:0:0:
301,133,12782,2,0,L|305:84,1,48.9999985046387,0|0,0:0|2:0,0:0:0:0:
483,108,12975,6,0,L|448:73,1,48.9999985046387,0|0,0:0|2:0,0:0:0:0:
425,196,13169,2,0,L|403:151,1,48.9999985046387,0|0,0:0|2:0,0:0:0:0:
330,328,13362,5,0,0:0:0:0:
330,328,13556,2,0,L|351:372,1,48.9999985046387
425,196,13749,5,0,0:0:0:0:
425,196,13943,2,0,L|403:151,1,48.9999985046387
330,328,14137,6,0,P|369:338|384:336,1,52.5,0|0,0:0|2:0,0:0:0:0:
395,193,14524,2,0,B|350:162|350:162|365:279,1,157.500006008148,0|0,0:0|2:0,0:0:0:0:
263,357,14911,6,0,P|223:363|208:360,1,52.5,0|0,0:0|2:0,0:0:0:0:
110,262,15298,2,0,P|177:240|233:300,1,157.500006008148,0|0,0:0|2:0,0:0:0:0:
126,201,15685,6,0,P|110:222|104:247,1,52.5,0|0,0:0|2:0,0:0:0:0:
291,282,16072,2,0,P|278:207|213:167,1,157.500006008148,0|0,0:0|2:0,0:0:0:0:
132,109,16459,5,0,0:0:0:0:
199,261,16653,1,0,0:0:0:0:
199,261,16846,6,0,L|173:202,1,35
132,109,17040,1,0,0:0:0:0:
209,253,17233,6,0,L|183:312,1,52.5,0|0,0:0|2:0,0:0:0:0:
26,349,17620,2,0,B|15:304|15:304|134:356,1,157.500006008148,0|0,0:0|2:0,0:0:0:0:
300,365,18008,6,0,L|274:306,1,52.5,0|0,0:0|2:0,0:0:0:0:
447,265,18395,2,0,P|391:214|319:236,1,157.500006008148,0|0,0:0|2:0,0:0:0:0:
154,201,18782,6,0,P|189:181|215:180,1,52.5,0|0,0:0|2:0,0:0:0:0:
75,140,19169,2,0,P|75:99|178:57,1,157.500006008148,0|0,0:0|2:0,0:0:0:0:
295,151,19556,5,0,0:0:0:0:
147,121,19749,1,0,0:0:0:0:
147,121,19943,6,0,L|212:134,1,35
295,151,20137,1,0,0:0:0:0:
44,257,20330,6,0,L|109:244,1,52.5,0|0,0:0|2:0,0:0:0:0:
210,348,20717,2,0,B|316:370|316:370|368:326,1,157.500006008148,0|0,0:0|2:0,0:0:0:0:
133,315,21104,6,0,P|127:340|129:367,1,52.5,0|0,0:0|2:0,0:0:0:0:
352,267,21491,2,0,B|295:258|295:258|257:278|257:278|159:263,1,157.500006008148,0|0,0:0|2:0,0:0:0:0:
231,149,21879,6,0,P|237:174|235:200,1,52.5,0|0,0:0|2:0,0:0:0:0:
304,106,22266,2,0,P|239:65|158:101,1,157.500006008148,0|0,0:0|2:0,0:0:0:0:
100,178,22653,5,0,0:0:0:0:
80,11,22846,1,0,0:0:0:0:
80,11,23040,6,0,L|88:74,1,35
100,178,23233,1,0,0:0:0:0:
245,169,23427,6,0,P|226:150|217:115,1,52.5,0|0,0:0|2:0,0:0:0:0:
371,57,23814,2,0,P|380:136|306:190,1,157.500006008148
230,268,24201,6,0,P|211:287|202:322,1,52.5000020027161
356,380,24588,2,0,P|365:301|291:247,1,157.500006008148
179,265,24975,6,0,P|195:285|202:310,1,52.5000020027161
376,203,25362,2,0,P|313:169|237:218,1,157.500006008148
71,284,25749,5,0,0:0:0:0:
103,263,25845,1,0,0:0:0:0:
143,261,25942,1,0,0:0:0:0:
178,278,26039,1,0,0:0:0:0:
201,309,26136,1,0,0:0:0:0:
143,261,26330,5,0,0:0:0:0:
178,278,26427,1,0,0:0:0:0:
201,309,26524,2,0,L|195:249,1,45.4999979171754
242,206,26717,1,0,0:0:0:0:
305,332,26911,2,0,L|314:212,1,90.9999958343508
382,276,27201,1,0,0:0:0:0:
375,202,27298,6,0,L|372:157,1,45.4999979171754
242,206,27491,1,0,0:0:0:0:
443,133,27685,2,0,L|298:122,1,136.499993751526,0|0,0:0|2:0,0:0:0:0:
251,57,28072,6,0,L|178:62,1,45.4999979171754
350,50,28266,1,0,0:0:0:0:
143,115,28459,2,0,P|112:47|162:-3,1,136.499993751526
148,115,28846,6,0,P|131:157|101:172,1,45.4999979171754
36,133,29040,1,0,0:0:0:0:
186,222,29233,2,0,P|136:241|56:200,1,136.499993751526,0|0,0:0|2:0,0:0:0:0:
7,326,29620,6,0,P|44:305|80:309,1,45.4999979171754
126,340,29814,1,0,0:0:0:0:
186,222,30008,2,0,P|181:244|230:310,1,90.9999958343508
253,244,30298,1,0,0:0:0:0:
284,311,30395,6,0,P|260:358|234:373,1,45.4999979171754
126,340,30588,1,0,0:0:0:0:
253,244,30782,2,0,P|316:242|359:305,1,136.499993751526,0|0,0:0|2:0,0:0:0:0:
419,343,31169,6,0,P|434:303|433:278,1,45.4999979171754
347,373,31362,1,0,0:0:0:0:
511,273,31556,2,0,P|447:219|385:234,1,136.499993751526
242,257,31943,6,0,L|238:184,1,45.4999979171754
234,120,32137,1,0,0:0:0:0:
340,252,32330,2,0,L|331:90,1,136.499993751526,0|0,0:0|2:0,0:0:0:0:
365,45,32717,6,0,P|400:77|406:108,1,45.4999979171754
406,156,32911,1,0,0:0:0:0:
247,104,33104,2,0,P|313:103|352:151,1,90.9999958343508
178,65,33395,1,0,0:0:0:0:
173,139,33491,6,0,P|186:157|205:171,1,45.4999979171754
332,115,33685,1,0,0:0:0:0:
191,267,33879,2,0,P|278:241|325:239,1,136.499993751526,0|0,0:0|2:0,0:0:0:0:
393,328,34266,6,0,P|349:315|326:314,1,45.4999979171754
467,281,34459,1,0,0:0:0:0:
249,313,34653,2,0,B|327:294|301:359|400:339,1,136.499993751526
188,361,35040,6,0,P|175:341|170:319,1,45.4999979171754
209,245,35233,1,0,0:0:0:0:
364,267,35427,2,0,P|373:196|327:153,1,136.499993751526,0|0,0:0|2:0,0:0:0:0:
199,122,35814,6,0,P|236:128|260:122,1,45.4999979171754
311,76,36008,1,0,0:0:0:0:
178,15,36201,2,0,L|183:121,1,90.9999958343508
96,165,36491,1,0,0:0:0:0:
100,91,36588,6,0,L|102:45,1,45.4999979171754
257,61,36782,1,0,0:0:0:0:
96,165,36975,2,0,L|245:158,1,136.499993751526,0|0,0:0|2:0,0:0:0:0:
295,236,37362,6,0,L|249:233,1,45.4999979171754
335,152,37556,1,0,0:0:0:0:
396,366,37749,2,0,L|389:217,1,136.499993751526,0|0,0:0|2:0,0:0:0:0:
337,106,38137,2,0,L|333:180,1,45.4999979171754,0|0,0:0|2:0,0:0:0:0:
246,305,38330,5,0,0:0:0:0:
203,290,38426,1,0,0:0:0:0:
178,253,38523,1,0,0:0:0:0:
178,253,38717,5,0,0:0:0:0:
188,273,38813,1,0,0:0:0:0:
203,290,38911,2,0,P|246:223|220:154,1,140
232,168,39685,5,0,0:0:0:0:
317,198,39879,1,0,0:0:0:0:
147,138,40072,2,0,L|225:134,1,70
323,37,40459,2,0,L|245:33,1,70
216,134,40846,2,0,L|365:126,1,140
428,70,41427,1,0,0:0:0:0:
386,204,41620,2,0,P|394:245|444:299,1,105,0|0,0:0|2:0,0:0:0:0:
385,204,42008,6,0,P|450:212|459:277,1,140
104,346,42782,6,0,L|30:342,1,70
251,355,43169,2,0,L|177:351,1,70
76,263,43556,5,0,0:0:0:0:
104,346,43749,1,0,0:0:0:0:
76,263,43943,2,0,P|119:223|196:242,1,140
288,195,44524,1,0,0:0:0:0:
246,309,44717,2,0,P|289:349|366:330,1,139.9964966697
305,130,45104,6,0,L|312:303,1,154.000004699707
311,283,45879,1,0,0:0:0:0:
343,183,46072,1,0,0:0:0:0:
246,309,46266,1,0,0:0:0:0:
246,309,46653,6,0,B|306:304|306:304|337:330|337:330|410:326,1,154.000004699707
390,327,47427,1,0,0:0:0:0:
342,180,47620,1,0,0:0:0:0:
441,266,47814,1,0,0:0:0:0:
96,102,48008,5,0,0:0:0:0:
96,102,48395,6,0,L|164:100,1,38.5000011749268,0|0,0:0|2:0,0:0:0:0:
342,180,48588,1,0,0:0:0:0:
441,266,48975,1,0,0:0:0:0:
383,21,49362,1,0,0:0:0:0:
383,21,49749,6,0,L|377:72,1,38.5000011749268,0|0,0:0|2:0,0:0:0:0:
441,266,49943,1,0,0:0:0:0:
342,180,50137,1,0,0:0:0:0:
96,102,50330,1,0,0:0:0:0:
96,102,50717,6,0,P|106:54|127:15,1,66.4999982242585,0|0,0:0|2:0,0:0:0:0:
61,204,50911,2,0,P|91:193|124:187,1,66.4999982242585,0|0,0:0|2:0,0:0:0:0:
231,166,51104,2,0,P|210:140|185:120,1,66.4999982242585,0|0,0:0|2:0,0:0:0:0:
2,314,51298,6,0,B|94:287|61:365|173:335,1,168
268,258,51685,2,0,P|186:228|130:276,1,168
316,379,52072,6,0,L|320:308,1,56,0|0,0:0|2:0,0:0:0:0:
295,172,52266,1,0,0:0:0:0:
429,315,52459,2,0,L|422:193,1,112
306,156,52846,5,0,0:0:0:0:
329,364,53040,1,0,0:0:0:0:
122,262,53233,2,0,P|95:221|63:185,1,97.9999970092774
316,147,53620,5,0,0:0:0:0:
140,266,53814,1,0,0:0:0:0:
339,356,54007,2,0,P|436:343|476:346,1,97.9999970092774
228,174,54395,6,0,P|301:231|382:214,1,168
352,72,54782,2,0,B|328:64|300:40|300:40|321:105|312:185,1,168,0|0,0:0|2:0,0:0:0:0:
154,195,55169,6,0,P|161:140|182:117,1,56,0|0,0:0|2:0,0:0:0:0:
240,62,55362,1,0,0:0:0:0:
204,245,55556,2,0,P|258:245|300:209,1,112
409,353,55943,5,0,0:0:0:0:
214,319,56137,1,0,0:0:0:0:
446,189,56330,2,0,L|457:286,1,97.9999970092774
214,319,56717,1,0,0:0:0:0:
436,202,56911,5,0,0:0:0:0:
440,238,57007,1,0,0:0:0:0:
444,275,57104,1,0,0:0:0:0:
217,252,57298,5,0,0:0:0:0:
212,288,57394,1,0,0:0:0:0:
208,325,57491,2,0,P|150:346|79:252,1,168
189,177,57879,2,0,B|239:164|275:198|275:198|306:154|365:157,1,168
217,252,58266,5,0,0:0:0:0:
308,91,58459,1,0,0:0:0:0:
111,162,58653,6,0,P|130:124|160:105,1,56,0|0,0:0|2:0,0:0:0:0:
345,241,58846,1,0,0:0:0:0:
37,204,59040,6,0,P|45:120|77:78,1,97.9999970092774
227,73,59427,1,0,0:0:0:0:
111,162,59620,1,0,0:0:0:0:
207,64,59814,6,0,P|283:28|336:35,1,97.9999970092774
415,163,60201,1,0,0:0:0:0:
280,107,60394,1,0,0:0:0:0:
412,141,60588,6,0,P|480:189|501:238,1,97.9999970092774
431,370,60975,1,0,0:0:0:0:
345,320,61169,2,0,P|380:243|373:190,1,97.9999970092774
243,313,61556,5,0,0:0:0:0:
412,141,61749,1,0,0:0:0:0:
251,223,61943,1,0,0:0:0:0:
334,37,62137,6,0,B|352:35|370:24|370:24|363:44|367:74,1,70
252,96,62330,2,0,B|241:81|222:71|222:71|243:67|267:48,1,70
345,138,62524,2,0,B|337:154|338:175|338:175|324:159|296:148,1,70
143,72,62717,6,0,L|148:-15,1,59.5000011348725
354,66,62911,2,0,L|359:153,1,59.5000011348725
171,312,63104,5,0,0:0:0:0:
218,277,63200,1,0,0:0:0:0:
277,275,63297,1,0,0:0:0:0:
329,317,63395,5,0,0:0:0:0:
375,350,63491,1,0,0:0:0:0:
435,353,63588,1,0,0:0:0:0:
512,305,63685,6,0,B|447:308|447:308|415:340|415:340|322:347,1,168
348,183,64072,2,0,B|388:151|388:151|380:283,1,168
233,363,64459,6,0,L|224:292,1,56,0|0,0:0|2:0,0:0:0:0:
263,148,64653,1,0,0:0:0:0:
143,303,64846,2,0,P|174:243|256:234,1,112
275,143,65233,5,0,0:0:0:0:
245,352,65427,1,0,0:0:0:0:
441,274,65620,2,0,P|375:264|322:234,1,112
16,149,66008,5,0,0:0:0:0:
182,18,66201,1,0,0:0:0:0:
212,227,66395,2,0,P|146:237|93:267,1,112
197,27,66782,5,0,0:0:0:0:
228,236,66975,1,0,0:0:0:0:
28,158,67169,2,0,B|125:136|91:214|216:186,1,168
265,66,67556,6,0,P|266:131|283:163,1,56,0|0,0:0|2:0,0:0:0:0:
342,234,67749,1,0,0:0:0:0:
156,109,67943,1,0,0:0:0:0:
371,212,68137,1,0,0:0:0:0:
111,314,68330,5,0,0:0:0:0:
111,314,68524,6,0,P|111:270|121:249,1,41.9999987182618
200,253,68717,2,0,P|219:244|235:231,1,41.9999987182618
262,60,68911,1,0,0:0:0:0:
262,60,69104,6,0,P|303:86|327:88,1,41.9999987182618
426,110,69298,2,0,P|407:119|392:133,1,41.9999987182618
406,344,69491,1,0,0:0:0:0:
406,344,69685,6,0,P|410:311|407:294,1,41.9999987182618
200,253,69879,6,0,B|246:245|283:271|283:271|330:277|377:214,1,167.999994873047
354,240,70653,1,0,0:0:0:0:
223,330,70846,1,0,0:0:0:0:
339,166,71040,2,0,P|404:181|426:222,1,83.9999974365235
147,357,71427,6,0,P|165:277|253:258,1,167.999994873047
239,254,72201,1,0,0:0:0:0:
381,332,72395,1,0,0:0:0:0:
172,208,72588,2,0,P|204:182|262:179,1,83.9999974365235
447,384,72975,6,0,P|463:346|460:305,1,83.9999974365235
191,314,73362,1,0,0:0:0:0:
315,226,73556,2,0,P|321:266|295:318,1,83.9999974365235
245,175,73943,1,0,0:0:0:0:
163,333,74137,1,0,0:0:0:0:
146,231,74330,1,0,0:0:0:0:
310,380,74524,6,0,P|253:358|235:329,1,83.9999974365235
78,257,74911,2,0,P|82:197|154:158,1,125.999996154785
426,187,75298,6,0,P|378:225|344:226,1,83.9999974365235
203,326,75685,2,0,P|152:291|145:230,1,125.999996154785
188,130,76072,5,0,0:0:0:0:
214,254,76266,1,0,0:0:0:0:
214,254,76459,1,0,0:0:0:0:
308,15,76653,5,0,0:0:0:0:
297,182,76846,1,0,0:0:0:0:
297,182,77040,1,0,0:0:0:0:
123,123,77233,5,0,0:0:0:0:
364,105,77427,1,0,0:0:0:0:
123,123,77620,1,0,0:0:0:0:
435,163,77814,5,0,0:0:0:0:
468,374,78008,1,0,0:0:0:0:
468,374,78201,1,0,0:0:0:0:
310,76,78395,5,0,0:0:0:0:
299,218,78588,1,0,0:0:0:0:
478,35,78782,5,0,0:0:0:0:
196,57,78975,1,0,0:0:0:0:
507,306,79169,5,0,0:0:0:0:
507,306,79362,6,0,P|512:275|504:245,1,52.5000020027161
334,347,79556,1,0,0:0:0:0:
334,347,79749,6,0,P|358:355|379:371,1,52.5000020027161
268,289,79943,2,0,P|287:271|312:262,1,52.5000020027161
460,186,80137,6,0,P|440:168|415:159,1,52.5000020027161
388,71,80330,2,0,P|363:79|342:95,1,52.5000020027161
128,15,80524,6,0,P|152:23|173:39,1,52.5000020027161
202,110,80717,5,0,0:0:0:0:
460,84,80911,1,0,0:0:0:0:
460,84,82266,6,0,L|452:158,1,41.9999987182618
486,268,82459,1,0,0:0:0:0:
386,217,82653,1,0,0:0:0:0:
386,217,83040,6,0,L|457:215,1,41.9999987182618
512,338,83233,1,0,0:0:0:0:
416,378,83427,1,0,0:0:0:0:
416,378,83814,5,0,0:0:0:0:
280,325,84008,1,0,0:0:0:0:
359,312,84201,5,0,0:0:0:0:
258,327,84395,1,0,0:0:0:0:
154,245,84588,5,0,0:0:0:0:
375,310,84782,1,0,0:0:0:0:
418,206,84975,5,0,0:0:0:0:
387,323,85169,1,0,0:0:0:0:
232,202,85362,6,0,L|228:143,1,41.9999987182618
258,13,85556,1,0,0:0:0:0:
313,89,85749,1,0,0:0:0:0:
313,89,86137,6,0,L|309:148,1,41.9999987182618
340,269,86330,1,0,0:0:0:0:
232,202,86524,1,0,0:0:0:0:
232,202,86911,5,0,0:0:0:0:
444,197,87104,1,0,0:0:0:0:
345,245,87298,5,0,0:0:0:0:
340,147,87491,1,0,0:0:0:0:
204,328,87685,5,0,0:0:0:0:
488,315,87879,1,0,0:0:0:0:
