osu file format v14

[General]
AudioFilename: audio.mp3
AudioLeadIn: 0
PreviewTime: 51367
Countdown: 0
SampleSet: None
StackLeniency: 0.7
Mode: 3
LetterboxInBreaks: 0
SpecialStyle: 0
WidescreenStoryboard: 1

[Editor]
DistanceSpacing: 1
BeatDivisor: 8
GridSize: 32
TimelineZoom: 1

[Metadata]
Title:Saturday Night Question [TV Size]
TitleUnicode:サタデー・ナイト・クエスチョン
Artist:Megumi Nakajima
ArtistUnicode:Megumi Nakajima
Creator:Sweeboo
Version:NM
Source:Net-juu no Susume
Tags:net juu no susume saturday night question megumi nakajima
BeatmapID:1523418
BeatmapSetID:721457

[Difficulty]
HPDrainRate:7
CircleSize:4
OverallDifficulty:5
ApproachRate:5
SliderMultiplier:1.4
SliderTickRate:1

[Events]
//Background and Video events
Video,0,"NJNSOP.mp4"
0,0,"883188.jpg",0,0
//Break Periods
//Storyboard Layer 0 (Background)
//Storyboard Layer 1 (Fail)
//Storyboard Layer 2 (Pass)
//Storyboard Layer 3 (Foreground)
//Storyboard Sound Samples

[TimingPoints]
0.0170985786369551,386.224654007081,4,3,0,100,1,0

[HitObjects]
192,192,2317,5,0,0:0:0:0:
448,192,2317,1,0,0:0:0:0:
64,192,2317,1,0,0:0:0:0:
192,192,2446,1,0,0:0:0:0:
320,192,2446,1,0,0:0:0:0:
64,192,2639,1,0,0:0:0:0:
320,192,2832,1,0,0:0:0:0:
448,192,3089,1,0,0:0:0:0:
64,192,3089,1,0,0:0:0:0:
192,192,3218,1,0,0:0:0:0:
320,192,3218,1,0,0:0:0:0:
64,192,3411,1,0,0:0:0:0:
448,192,3604,1,0,0:0:0:0:
320,192,3862,1,0,0:0:0:0:
64,192,3862,1,0,0:0:0:0:
192,192,3991,1,0,0:0:0:0:
448,192,3991,1,0,0:0:0:0:
320,192,4184,1,0,0:0:0:0:
192,192,4377,1,0,0:0:0:0:
64,192,4634,1,0,0:0:0:0:
448,192,4634,1,0,0:0:0:0:
320,192,4763,1,0,0:0:0:0:
192,192,4763,1,0,0:0:0:0:
64,192,4956,1,0,0:0:0:0:
448,192,5149,1,0,0:0:0:0:
192,192,5407,1,0,0:0:0:0:
320,192,5407,1,0,0:0:0:0:
448,192,5535,1,0,0:0:0:0:
64,192,5535,1,0,0:0:0:0:
320,192,5729,1,0,0:0:0:0:
192,192,5922,1,0,0:0:0:0:
64,192,6179,1,0,0:0:0:0:
320,192,6179,1,0,0:0:0:0:
192,192,6308,1,0,0:0:0:0:
448,192,6308,1,0,0:0:0:0:
320,192,6501,1,0,0:0:0:0:
64,192,6694,1,0,0:0:0:0:
192,192,6952,1,0,0:0:0:0:
448,192,6952,1,0,0:0:0:0:
64,192,7080,1,0,0:0:0:0:
320,192,7080,1,0,0:0:0:0:
192,192,7338,1,0,0:0:0:0:
448,192,7467,1,0,0:0:0:0:
64,192,7724,128,0,8110:0:0:0:0:
192,192,8239,1,0,0:0:0:0:
320,192,8368,1,0,0:0:0:0:
64,192,8496,1,0,0:0:0:0:
448,192,8496,1,0,0:0:0:0:
320,192,8818,1,0,0:0:0:0:
64,192,9011,1,0,0:0:0:0:
192,192,9269,1,0,0:0:0:0:
448,192,9269,1,0,0:0:0:0:
64,192,9655,1,0,0:0:0:0:
320,192,9655,1,0,0:0:0:0:
448,192,9655,1,0,0:0:0:0:
192,192,10041,1,0,0:0:0:0:
448,192,10041,1,0,0:0:0:0:
320,192,10428,1,0,0:0:0:0:
64,192,10428,1,0,0:0:0:0:
448,192,10814,1,0,0:0:0:0:
64,192,10814,1,0,0:0:0:0:
192,192,10814,1,0,0:0:0:0:
320,192,11200,1,0,0:0:0:0:
192,192,11200,1,0,0:0:0:0:
192,192,11586,1,0,0:0:0:0:
448,192,11586,1,0,0:0:0:0:
64,192,11972,1,0,0:0:0:0:
320,192,11972,1,0,0:0:0:0:
192,192,12359,1,0,0:0:0:0:
320,192,12359,1,0,0:0:0:0:
448,192,12745,1,0,0:0:0:0:
192,192,12745,1,0,0:0:0:0:
64,192,13131,1,0,0:0:0:0:
320,192,13131,1,0,0:0:0:0:
192,192,13517,1,0,0:0:0:0:
64,192,13904,1,0,0:0:0:0:
192,192,14032,1,0,0:0:0:0:
320,192,14161,1,0,0:0:0:0:
448,192,14290,1,0,0:0:0:0:
64,192,14676,1,0,0:0:0:0:
448,192,14676,1,0,0:0:0:0:
192,192,14676,1,0,0:0:0:0:
320,192,15062,128,0,15449:0:0:0:0:
192,192,15062,1,0,0:0:0:0:
448,192,15449,1,0,0:0:0:0:
64,192,15835,128,0,16221:0:0:0:0:
448,192,15835,1,0,0:0:0:0:
192,192,16221,1,0,0:0:0:0:
320,192,16607,128,0,16993:0:0:0:0:
448,192,16607,1,0,0:0:0:0:
192,192,16993,1,0,0:0:0:0:
192,192,17380,128,0,17766:0:0:0:0:
64,192,17380,1,0,0:0:0:0:
448,192,17766,1,0,0:0:0:0:
448,192,18152,128,0,18538:0:0:0:0:
320,192,18152,1,0,0:0:0:0:
192,192,18538,1,0,0:0:0:0:
320,192,18925,128,0,19311:0:0:0:0:
192,192,18925,1,0,0:0:0:0:
448,192,19311,1,0,0:0:0:0:
192,192,19697,128,0,20083:0:0:0:0:
448,192,19697,1,0,0:0:0:0:
64,192,20083,1,0,0:0:0:0:
64,192,20469,128,0,20856:0:0:0:0:
192,192,20469,1,0,0:0:0:0:
448,192,20856,1,0,0:0:0:0:
320,192,21242,128,0,21628:0:0:0:0:
448,192,21242,1,0,0:0:0:0:
192,192,21628,1,0,0:0:0:0:
448,192,22014,128,0,22401:0:0:0:0:
192,192,22014,1,0,0:0:0:0:
320,192,22401,1,0,0:0:0:0:
192,192,22787,128,0,23173:0:0:0:0:
320,192,22787,1,0,0:0:0:0:
448,192,23173,1,0,0:0:0:0:
320,192,23559,128,0,23945:0:0:0:0:
64,192,23559,1,0,0:0:0:0:
448,192,23945,1,0,0:0:0:0:
64,192,24332,128,0,24718:0:0:0:0:
192,192,24332,1,0,0:0:0:0:
448,192,24718,1,0,0:0:0:0:
448,192,25104,128,0,25490:0:0:0:0:
192,192,25104,1,0,0:0:0:0:
320,192,25490,1,0,0:0:0:0:
320,192,25877,1,0,0:0:0:0:
192,192,25877,1,0,0:0:0:0:
448,192,26263,1,0,0:0:0:0:
320,192,26392,1,0,0:0:0:0:
192,192,26520,1,0,0:0:0:0:
64,192,26649,1,0,0:0:0:0:
192,192,26778,1,0,0:0:0:0:
320,192,26907,1,0,0:0:0:0:
64,192,27035,1,0,0:0:0:0:
448,192,27035,1,0,0:0:0:0:
192,192,27164,1,0,0:0:0:0:
320,192,27164,1,0,0:0:0:0:
320,192,27421,1,0,0:0:0:0:
192,192,27421,1,0,0:0:0:0:
192,192,27808,1,0,0:0:0:0:
448,192,27808,1,0,0:0:0:0:
64,192,27936,1,0,0:0:0:0:
320,192,27936,1,0,0:0:0:0:
64,192,28194,1,0,0:0:0:0:
320,192,28194,1,0,0:0:0:0:
320,192,28580,1,0,0:0:0:0:
192,192,28580,1,0,0:0:0:0:
448,192,28709,1,0,0:0:0:0:
64,192,28709,1,0,0:0:0:0:
448,192,28966,1,0,0:0:0:0:
64,192,28966,1,0,0:0:0:0:
64,192,29353,1,0,0:0:0:0:
320,192,29353,1,0,0:0:0:0:
320,192,29739,1,0,0:0:0:0:
448,192,30125,1,0,0:0:0:0:
192,192,30125,1,0,0:0:0:0:
320,192,30254,1,0,0:0:0:0:
64,192,30254,1,0,0:0:0:0:
64,192,30511,1,0,0:0:0:0:
192,192,30897,1,0,0:0:0:0:
320,192,30897,1,0,0:0:0:0:
448,192,31026,1,0,0:0:0:0:
64,192,31026,1,0,0:0:0:0:
320,192,31284,1,0,0:0:0:0:
192,192,31670,1,0,0:0:0:0:
448,192,31670,1,0,0:0:0:0:
320,192,31799,1,0,0:0:0:0:
64,192,31799,1,0,0:0:0:0:
320,192,32056,1,0,0:0:0:0:
64,192,32442,1,0,0:0:0:0:
448,192,32442,1,0,0:0:0:0:
64,192,32829,1,0,0:0:0:0:
192,192,33215,1,0,0:0:0:0:
448,192,33215,1,0,0:0:0:0:
320,192,33344,1,0,0:0:0:0:
64,192,33344,1,0,0:0:0:0:
320,192,33601,1,0,0:0:0:0:
192,192,33987,1,0,0:0:0:0:
320,192,33987,1,0,0:0:0:0:
448,192,34116,1,0,0:0:0:0:
64,192,34116,1,0,0:0:0:0:
192,192,34374,1,0,0:0:0:0:
448,192,34760,1,0,0:0:0:0:
64,192,34760,1,0,0:0:0:0:
320,192,34888,1,0,0:0:0:0:
192,192,34888,1,0,0:0:0:0:
320,192,35146,1,0,0:0:0:0:
192,192,35532,1,0,0:0:0:0:
64,192,35918,1,0,0:0:0:0:
192,192,36305,1,0,0:0:0:0:
64,192,36305,1,0,0:0:0:0:
448,192,36433,1,0,0:0:0:0:
320,192,36433,1,0,0:0:0:0:
64,192,36691,1,0,0:0:0:0:
448,192,37077,1,0,0:0:0:0:
320,192,37077,1,0,0:0:0:0:
192,192,37206,1,0,0:0:0:0:
64,192,37206,1,0,0:0:0:0:
192,192,37463,1,0,0:0:0:0:
64,192,37850,1,0,0:0:0:0:
320,192,37850,1,0,0:0:0:0:
192,192,37978,1,0,0:0:0:0:
448,192,37978,1,0,0:0:0:0:
448,192,38236,1,0,0:0:0:0:
448,192,38622,1,0,0:0:0:0:
192,192,38815,1,0,0:0:0:0:
448,192,38815,1,0,0:0:0:0:
64,192,38944,1,0,0:0:0:0:
192,192,38944,1,0,0:0:0:0:
320,192,39008,1,0,0:0:0:0:
448,192,39105,1,0,0:0:0:0:
192,192,39298,1,0,0:0:0:0:
64,192,39394,1,0,0:0:0:0:
448,192,39394,1,0,0:0:0:0:
320,192,39781,1,0,0:0:0:0:
192,192,39781,1,0,0:0:0:0:
448,192,40167,1,0,0:0:0:0:
320,192,40360,1,0,0:0:0:0:
192,192,40553,1,0,0:0:0:0:
64,192,40553,1,0,0:0:0:0:
448,192,40939,1,0,0:0:0:0:
320,192,41326,1,0,0:0:0:0:
448,192,41326,1,0,0:0:0:0:
64,192,41712,1,0,0:0:0:0:
320,192,41905,1,0,0:0:0:0:
448,192,42098,1,0,0:0:0:0:
192,192,42098,1,0,0:0:0:0:
320,192,42484,1,0,0:0:0:0:
192,192,42870,1,0,0:0:0:0:
64,192,42870,1,0,0:0:0:0:
448,192,43257,1,0,0:0:0:0:
192,192,43450,1,0,0:0:0:0:
64,192,43643,1,0,0:0:0:0:
320,192,44029,1,0,0:0:0:0:
448,192,44415,1,0,0:0:0:0:
64,192,44415,1,0,0:0:0:0:
320,192,44802,1,0,0:0:0:0:
192,192,44995,1,0,0:0:0:0:
64,192,45188,1,0,0:0:0:0:
448,192,45188,1,0,0:0:0:0:
320,192,45574,1,0,0:0:0:0:
192,192,45574,1,0,0:0:0:0:
64,192,45960,1,0,0:0:0:0:
448,192,45960,1,0,0:0:0:0:
320,192,46346,1,0,0:0:0:0:
64,192,46540,1,0,0:0:0:0:
192,192,46540,1,0,0:0:0:0:
448,192,46733,1,0,0:0:0:0:
320,192,47215,1,0,0:0:0:0:
64,192,47505,1,0,0:0:0:0:
448,192,47505,1,0,0:0:0:0:
320,192,47891,1,0,0:0:0:0:
64,192,48084,1,0,0:0:0:0:
192,192,48278,1,0,0:0:0:0:
320,192,48278,1,0,0:0:0:0:
64,192,48471,1,0,0:0:0:0:
448,192,48471,1,0,0:0:0:0:
192,192,48857,1,0,0:0:0:0:
320,192,48857,1,0,0:0:0:0:
64,192,49050,1,0,0:0:0:0:
448,192,49050,1,0,0:0:0:0:
192,192,49436,1,0,0:0:0:0:
320,192,49436,1,0,0:0:0:0:
192,192,49919,1,0,0:0:0:0:
320,192,49919,1,0,0:0:0:0:
320,192,50305,1,0,0:0:0:0:
192,192,50305,1,0,0:0:0:0:
64,192,50692,1,0,0:0:0:0:
448,192,50692,1,0,0:0:0:0:
320,192,50885,1,0,0:0:0:0:
192,192,50885,1,0,0:0:0:0:
64,192,51367,1,0,0:0:0:0:
192,192,51367,1,0,0:0:0:0:
448,192,51561,1,0,0:0:0:0:
320,192,51561,1,0,0:0:0:0:
192,192,51754,1,0,0:0:0:0:
64,192,51754,1,0,0:0:0:0:
64,192,52236,1,0,0:0:0:0:
320,192,52236,1,0,0:0:0:0:
448,192,52623,1,0,0:0:0:0:
64,192,52816,1,0,0:0:0:0:
192,192,53009,1,0,0:0:0:0:
320,192,53009,1,0,0:0:0:0:
64,192,53395,1,0,0:0:0:0:
192,192,53588,1,0,0:0:0:0:
448,192,53781,1,0,0:0:0:0:
320,192,53781,1,0,0:0:0:0:
192,192,54168,1,0,0:0:0:0:
320,192,54361,1,0,0:0:0:0:
448,192,54554,1,0,0:0:0:0:
64,192,54554,1,0,0:0:0:0:
320,192,54940,1,0,0:0:0:0:
64,192,55326,1,0,0:0:0:0:
448,192,55712,1,0,0:0:0:0:
192,192,55906,1,0,0:0:0:0:
320,192,56099,1,0,0:0:0:0:
448,192,56099,1,0,0:0:0:0:
192,192,56485,1,0,0:0:0:0:
64,192,56871,1,0,0:0:0:0:
320,192,56871,1,0,0:0:0:0:
320,192,57257,1,0,0:0:0:0:
448,192,57740,1,0,0:0:0:0:
320,192,57837,1,0,0:0:0:0:
192,192,57933,1,0,0:0:0:0:
64,192,58030,1,0,0:0:0:0:
448,192,58030,1,0,0:0:0:0:
64,192,58416,1,0,0:0:0:0:
448,192,58802,1,0,0:0:0:0:
320,192,58995,1,0,0:0:0:0:
64,192,59188,1,0,0:0:0:0:
192,192,59188,1,0,0:0:0:0:
320,192,59575,1,0,0:0:0:0:
192,192,59768,1,0,0:0:0:0:
448,192,59961,1,0,0:0:0:0:
192,192,59961,1,0,0:0:0:0:
320,192,60347,1,0,0:0:0:0:
448,192,60540,1,0,0:0:0:0:
64,192,60733,1,0,0:0:0:0:
320,192,60733,1,0,0:0:0:0:
448,192,61120,1,0,0:0:0:0:
64,192,61506,1,0,0:0:0:0:
320,192,61506,1,0,0:0:0:0:
448,192,61892,1,0,0:0:0:0:
192,192,62278,1,0,0:0:0:0:
64,192,62278,1,0,0:0:0:0:
320,192,62664,1,0,0:0:0:0:
192,192,62664,1,0,0:0:0:0:
448,192,63051,1,0,0:0:0:0:
320,192,63051,1,0,0:0:0:0:
64,192,63437,1,0,0:0:0:0:
192,192,63727,1,0,0:0:0:0:
320,192,63823,1,0,0:0:0:0:
448,192,63920,1,0,0:0:0:0:
320,192,64016,1,0,0:0:0:0:
192,192,64113,1,0,0:0:0:0:
64,192,64209,1,0,0:0:0:0:
448,192,64209,1,0,0:0:0:0:
192,192,64596,1,0,0:0:0:0:
448,192,64982,1,0,0:0:0:0:
64,192,65175,1,0,0:0:0:0:
192,192,65368,1,0,0:0:0:0:
320,192,65368,1,0,0:0:0:0:
448,192,65754,1,0,0:0:0:0:
320,192,66140,1,0,0:0:0:0:
192,192,66140,1,0,0:0:0:0:
64,192,66527,1,0,0:0:0:0:
448,192,66720,1,0,0:0:0:0:
192,192,66913,1,0,0:0:0:0:
320,192,66913,1,0,0:0:0:0:
320,192,67299,1,0,0:0:0:0:
448,192,67685,1,0,0:0:0:0:
192,192,67685,1,0,0:0:0:0:
192,192,68072,1,0,0:0:0:0:
320,192,68265,1,0,0:0:0:0:
64,192,68458,1,0,0:0:0:0:
192,192,68458,1,0,0:0:0:0:
448,192,68844,1,0,0:0:0:0:
448,192,69182,1,0,0:0:0:0:
320,192,69279,1,0,0:0:0:0:
192,192,69375,1,0,0:0:0:0:
64,192,69472,1,0,0:0:0:0:
448,192,69472,1,0,0:0:0:0:
64,192,69713,1,0,0:0:0:0:
192,192,69810,1,0,0:0:0:0:
320,192,69906,1,0,0:0:0:0:
448,192,70003,1,0,0:0:0:0:
64,192,70003,1,0,0:0:0:0:
192,192,70196,1,0,0:0:0:0:
320,192,70292,1,0,0:0:0:0:
448,192,70389,1,0,0:0:0:0:
64,192,70389,1,0,0:0:0:0:
192,192,70775,1,0,0:0:0:0:
320,192,71161,1,0,0:0:0:0:
64,192,71355,1,0,0:0:0:0:
192,192,71548,1,0,0:0:0:0:
320,192,71548,1,0,0:0:0:0:
448,192,71934,1,0,0:0:0:0:
192,192,72320,1,0,0:0:0:0:
320,192,72320,1,0,0:0:0:0:
64,192,72706,1,0,0:0:0:0:
192,192,72899,1,0,0:0:0:0:
448,192,73093,1,0,0:0:0:0:
64,192,73093,1,0,0:0:0:0:
192,192,73479,1,0,0:0:0:0:
64,192,73672,1,0,0:0:0:0:
320,192,73865,1,0,0:0:0:0:
448,192,73865,1,0,0:0:0:0:
64,192,74251,1,0,0:0:0:0:
320,192,74444,1,0,0:0:0:0:
448,192,74637,1,0,0:0:0:0:
192,192,74637,1,0,0:0:0:0:
192,192,75024,1,0,0:0:0:0:
64,192,75217,1,0,0:0:0:0:
320,192,75410,1,0,0:0:0:0:
192,192,75410,1,0,0:0:0:0:
448,192,75796,1,0,0:0:0:0:
192,192,75989,1,0,0:0:0:0:
320,192,76182,1,0,0:0:0:0:
64,192,76182,1,0,0:0:0:0:
64,192,76569,1,0,0:0:0:0:
448,192,76569,1,0,0:0:0:0:
448,192,76762,1,0,0:0:0:0:
448,192,76955,1,0,0:0:0:0:
64,192,77148,1,0,0:0:0:0:
320,192,77148,1,0,0:0:0:0:
448,192,77148,1,0,0:0:0:0:
320,192,77341,1,0,0:0:0:0:
320,192,77534,1,0,0:0:0:0:
448,192,77727,1,0,0:0:0:0:
192,192,77727,1,0,0:0:0:0:
320,192,77727,1,0,0:0:0:0:
192,192,77920,1,0,0:0:0:0:
192,192,78113,1,0,0:0:0:0:
64,192,78307,1,0,0:0:0:0:
320,192,78307,1,0,0:0:0:0:
192,192,78307,1,0,0:0:0:0:
320,192,78500,1,0,0:0:0:0:
320,192,78693,1,0,0:0:0:0:
192,192,78886,1,0,0:0:0:0:
448,192,78886,1,0,0:0:0:0:
320,192,78886,1,0,0:0:0:0:
64,192,79272,1,0,0:0:0:0:
448,192,79272,1,0,0:0:0:0:
320,192,79658,1,0,0:0:0:0:
192,192,79658,1,0,0:0:0:0:
448,192,80238,1,0,0:0:0:0:
320,192,80334,1,0,0:0:0:0:
192,192,80431,1,0,0:0:0:0:
64,192,80527,1,0,0:0:0:0:
192,192,80624,1,0,0:0:0:0:
320,192,80720,1,0,0:0:0:0:
448,192,80817,1,0,0:0:0:0:
320,192,80914,1,0,0:0:0:0:
192,192,81010,1,0,0:0:0:0:
64,192,81107,1,0,0:0:0:0:
320,192,81203,1,0,0:0:0:0:
192,192,81203,1,0,0:0:0:0:
64,192,81396,1,0,0:0:0:0:
448,192,81396,1,0,0:0:0:0:
192,192,82748,1,0,0:0:0:0:
320,192,82748,1,0,0:0:0:0:
448,192,82748,128,0,88348:0:0:0:0:
64,192,82893,1,0,0:0:0:0:
192,192,82893,1,0,0:0:0:0:
192,192,83521,1,0,0:0:0:0:
64,192,83521,1,0,0:0:0:0:
192,192,83665,1,0,0:0:0:0:
320,192,83665,1,0,0:0:0:0:
64,192,84293,1,0,0:0:0:0:
320,192,84293,1,0,0:0:0:0:
192,192,84438,1,0,0:0:0:0:
64,192,84438,1,0,0:0:0:0:
64,192,85065,1,0,0:0:0:0:
192,192,85065,1,0,0:0:0:0:
320,192,85210,1,0,0:0:0:0:
192,192,85210,1,0,0:0:0:0:
192,192,85838,1,0,0:0:0:0:
320,192,85838,1,0,0:0:0:0:
64,192,85983,1,0,0:0:0:0:
192,192,85983,1,0,0:0:0:0:
192,192,86610,1,0,0:0:0:0:
320,192,86610,1,0,0:0:0:0:
64,192,86755,1,0,0:0:0:0:
320,192,86755,1,0,0:0:0:0:
64,192,87383,1,0,0:0:0:0:
192,192,87383,1,0,0:0:0:0:
320,192,87528,1,0,0:0:0:0:
192,192,87528,1,0,0:0:0:0:
64,192,88155,1,0,0:0:0:0:
320,192,88155,1,0,0:0:0:0:
192,192,88155,1,0,0:0:0:0:
192,192,88348,1,0,0:0:0:0:
320,192,88348,1,0,0:0:0:0:
