osu file format v14

[General]
AudioFilename: audio.mp3
AudioLeadIn: 0
PreviewTime: 51367
Countdown: 0
SampleSet: None
StackLeniency: 0.7
Mode: 3
LetterboxInBreaks: 0
SpecialStyle: 0
WidescreenStoryboard: 1

[Editor]
DistanceSpacing: 1
BeatDivisor: 6
GridSize: 32
TimelineZoom: 1.7

[Metadata]
Title:Saturday Night Question [TV Size]
TitleUnicode:サタデー・ナイト・クエスチョン
Artist:Megumi Nakajima
ArtistUnicode:Megumi Nakajima
Creator:Sweeboo
Version:Insane
Source:Net-juu no Susume
Tags:net juu no susume saturday night question megumi nakajima
BeatmapID:1523417
BeatmapSetID:721457

[Difficulty]
HPDrainRate:10
CircleSize:4
OverallDifficulty:5
ApproachRate:5
SliderMultiplier:1.4
SliderTickRate:1

[Events]
//Background and Video events
Video,0,"NJNSOP.mp4"
0,0,"883188.jpg",0,0
//Break Periods
//Storyboard Layer 0 (Background)
//Storyboard Layer 1 (Fail)
//Storyboard Layer 2 (Pass)
//Storyboard Layer 3 (Foreground)
//Storyboard Sound Samples

[TimingPoints]
0.0170985786369551,386.224654007081,4,3,0,100,1,0
81364,-200,4,3,0,100,0,0
82845,-100,4,3,0,100,0,0

[HitObjects]
64,192,2317,5,0,0:0:0:0:
320,192,2317,1,0,0:0:0:0:
192,192,2381,1,0,0:0:0:0:
448,192,2446,1,0,0:0:0:0:
64,192,2446,1,0,0:0:0:0:
320,192,2703,128,0,2896:0:0:0:0:
64,192,2896,128,0,3089:0:0:0:0:
192,192,3089,1,0,0:0:0:0:
448,192,3089,1,0,0:0:0:0:
320,192,3154,1,0,0:0:0:0:
64,192,3218,1,0,0:0:0:0:
448,192,3218,1,0,0:0:0:0:
320,192,3476,128,0,3669:0:0:0:0:
192,192,3669,128,0,3862:0:0:0:0:
448,192,3862,1,0,0:0:0:0:
64,192,3862,1,0,0:0:0:0:
192,192,3926,1,0,0:0:0:0:
320,192,3991,1,0,0:0:0:0:
64,192,3991,1,0,0:0:0:0:
192,192,4248,128,0,4441:0:0:0:0:
320,192,4441,128,0,4634:0:0:0:0:
192,192,4634,1,0,0:0:0:0:
448,192,4634,1,0,0:0:0:0:
320,192,4699,1,0,0:0:0:0:
448,192,4763,1,0,0:0:0:0:
64,192,4763,1,0,0:0:0:0:
192,192,5020,128,0,5214:0:0:0:0:
448,192,5214,128,0,5407:0:0:0:0:
320,192,5407,1,0,0:0:0:0:
64,192,5407,1,0,0:0:0:0:
192,192,5471,1,0,0:0:0:0:
64,192,5535,1,0,0:0:0:0:
448,192,5535,1,0,0:0:0:0:
192,192,5793,128,0,5986:0:0:0:0:
448,192,5986,128,0,6179:0:0:0:0:
64,192,6179,1,0,0:0:0:0:
320,192,6179,1,0,0:0:0:0:
192,192,6243,1,0,0:0:0:0:
448,192,6308,1,0,0:0:0:0:
64,192,6308,1,0,0:0:0:0:
192,192,6565,128,0,6758:0:0:0:0:
320,192,6758,128,0,6952:0:0:0:0:
192,192,6952,1,0,0:0:0:0:
448,192,6952,1,0,0:0:0:0:
320,192,7016,1,0,0:0:0:0:
64,192,7080,1,0,0:0:0:0:
448,192,7080,1,0,0:0:0:0:
320,192,7338,128,0,7531:0:0:0:0:
192,192,7531,128,0,7724:0:0:0:0:
64,192,7724,1,0,0:0:0:0:
320,192,7724,1,0,0:0:0:0:
448,192,7788,1,0,0:0:0:0:
192,192,7788,1,0,0:0:0:0:
64,192,7853,1,0,0:0:0:0:
448,192,8110,1,0,0:0:0:0:
320,192,8175,1,0,0:0:0:0:
192,192,8239,1,0,0:0:0:0:
64,192,8303,1,0,0:0:0:0:
192,192,8368,1,0,0:0:0:0:
320,192,8432,1,0,0:0:0:0:
64,192,8496,1,0,0:0:0:0:
448,192,8496,1,0,0:0:0:0:
192,192,8561,1,0,0:0:0:0:
320,192,8625,1,0,0:0:0:0:
64,192,8625,1,0,0:0:0:0:
192,192,8883,1,0,0:0:0:0:
448,192,8883,128,0,9076:0:0:0:0:
64,192,8883,1,0,0:0:0:0:
320,192,9076,128,0,9269:0:0:0:0:
448,192,9269,1,0,0:0:0:0:
64,192,9269,1,0,0:0:0:0:
192,192,9333,1,0,0:0:0:0:
64,192,9398,1,0,0:0:0:0:
320,192,9398,1,0,0:0:0:0:
64,192,9655,1,0,0:0:0:0:
448,192,9655,1,0,0:0:0:0:
320,192,9655,128,0,9848:0:0:0:0:
64,192,9848,128,0,10041:0:0:0:0:
192,192,10041,1,0,0:0:0:0:
320,192,10041,1,0,0:0:0:0:
448,192,10106,1,0,0:0:0:0:
64,192,10170,1,0,0:0:0:0:
320,192,10170,1,0,0:0:0:0:
320,192,10428,1,0,0:0:0:0:
192,192,10428,1,0,0:0:0:0:
448,192,10428,128,0,10685:0:0:0:0:
192,192,10621,128,0,10814:0:0:0:0:
448,192,10814,1,0,0:0:0:0:
64,192,10814,1,0,0:0:0:0:
320,192,10878,1,0,0:0:0:0:
192,192,10943,1,0,0:0:0:0:
448,192,10943,1,0,0:0:0:0:
320,192,11200,1,0,0:0:0:0:
64,192,11200,1,0,0:0:0:0:
192,192,11200,128,0,11393:0:0:0:0:
320,192,11393,128,0,11586:0:0:0:0:
192,192,11586,1,0,0:0:0:0:
448,192,11586,1,0,0:0:0:0:
320,192,11651,1,0,0:0:0:0:
64,192,11715,1,0,0:0:0:0:
192,192,11715,1,0,0:0:0:0:
64,192,11972,1,0,0:0:0:0:
448,192,11972,1,0,0:0:0:0:
320,192,11972,128,0,12166:0:0:0:0:
64,192,12166,128,0,12359:0:0:0:0:
192,192,12359,1,0,0:0:0:0:
448,192,12359,1,0,0:0:0:0:
320,192,12423,1,0,0:0:0:0:
64,192,12487,1,0,0:0:0:0:
448,192,12487,1,0,0:0:0:0:
448,192,12745,1,0,0:0:0:0:
192,192,12745,1,0,0:0:0:0:
320,192,12745,128,0,12938:0:0:0:0:
448,192,12938,128,0,13131:0:0:0:0:
64,192,13131,1,0,0:0:0:0:
320,192,13131,1,0,0:0:0:0:
192,192,13196,1,0,0:0:0:0:
448,192,13260,1,0,0:0:0:0:
320,192,13260,1,0,0:0:0:0:
192,192,13517,1,0,0:0:0:0:
64,192,13517,1,0,0:0:0:0:
320,192,13517,128,0,13710:0:0:0:0:
448,192,13710,128,0,13904:0:0:0:0:
64,192,13904,1,0,0:0:0:0:
192,192,13968,1,0,0:0:0:0:
320,192,14032,1,0,0:0:0:0:
448,192,14225,1,0,0:0:0:0:
320,192,14290,1,0,0:0:0:0:
192,192,14354,1,0,0:0:0:0:
320,192,14547,1,0,0:0:0:0:
192,192,14612,1,0,0:0:0:0:
64,192,14676,1,0,0:0:0:0:
448,192,14676,1,0,0:0:0:0:
320,192,15062,128,0,15449:0:0:0:0:
192,192,15062,1,0,0:0:0:0:
64,192,15449,1,0,0:0:0:0:
448,192,15449,1,0,0:0:0:0:
64,192,15835,128,0,16221:0:0:0:0:
448,192,15835,1,0,0:0:0:0:
320,192,16221,1,0,0:0:0:0:
192,192,16221,1,0,0:0:0:0:
320,192,16607,128,0,16993:0:0:0:0:
448,192,16607,1,0,0:0:0:0:
192,192,16993,1,0,0:0:0:0:
448,192,16993,1,0,0:0:0:0:
448,192,17187,1,0,0:0:0:0:
64,192,17187,1,0,0:0:0:0:
192,192,17380,128,0,17766:0:0:0:0:
64,192,17380,1,0,0:0:0:0:
448,192,17766,1,0,0:0:0:0:
320,192,17766,1,0,0:0:0:0:
448,192,18152,128,0,18538:0:0:0:0:
320,192,18152,1,0,0:0:0:0:
192,192,18538,1,0,0:0:0:0:
64,192,18538,1,0,0:0:0:0:
320,192,18925,128,0,19311:0:0:0:0:
192,192,18925,1,0,0:0:0:0:
192,192,19311,1,0,0:0:0:0:
448,192,19311,1,0,0:0:0:0:
192,192,19697,128,0,20083:0:0:0:0:
448,192,19697,1,0,0:0:0:0:
320,192,20083,1,0,0:0:0:0:
64,192,20083,1,0,0:0:0:0:
64,192,20469,128,0,20856:0:0:0:0:
448,192,20469,1,0,0:0:0:0:
320,192,20534,1,0,0:0:0:0:
192,192,20598,1,0,0:0:0:0:
448,192,20856,1,0,0:0:0:0:
320,192,20856,1,0,0:0:0:0:
320,192,21242,128,0,21628:0:0:0:0:
448,192,21242,1,0,0:0:0:0:
64,192,21628,1,0,0:0:0:0:
448,192,22014,128,0,22401:0:0:0:0:
192,192,22014,1,0,0:0:0:0:
320,192,22401,1,0,0:0:0:0:
64,192,22401,1,0,0:0:0:0:
192,192,22787,128,0,23173:0:0:0:0:
320,192,22787,1,0,0:0:0:0:
64,192,23173,1,0,0:0:0:0:
448,192,23173,1,0,0:0:0:0:
448,192,23366,1,0,0:0:0:0:
192,192,23366,1,0,0:0:0:0:
320,192,23559,128,0,23945:0:0:0:0:
64,192,23559,1,0,0:0:0:0:
448,192,23945,1,0,0:0:0:0:
192,192,23945,1,0,0:0:0:0:
64,192,24332,128,0,24718:0:0:0:0:
192,192,24332,1,0,0:0:0:0:
320,192,24718,1,0,0:0:0:0:
448,192,24718,1,0,0:0:0:0:
448,192,25104,128,0,25490:0:0:0:0:
192,192,25104,1,0,0:0:0:0:
64,192,25490,1,0,0:0:0:0:
320,192,25490,1,0,0:0:0:0:
320,192,25877,1,0,0:0:0:0:
192,192,25877,1,0,0:0:0:0:
192,192,26263,1,0,0:0:0:0:
320,192,26327,1,0,0:0:0:0:
448,192,26392,1,0,0:0:0:0:
320,192,26456,1,0,0:0:0:0:
192,192,26520,1,0,0:0:0:0:
64,192,26585,1,0,0:0:0:0:
192,192,26649,1,0,0:0:0:0:
320,192,26713,1,0,0:0:0:0:
448,192,26778,1,0,0:0:0:0:
64,192,26842,1,0,0:0:0:0:
448,192,26907,1,0,0:0:0:0:
192,192,26971,1,0,0:0:0:0:
64,192,27035,1,0,0:0:0:0:
448,192,27035,1,0,0:0:0:0:
320,192,27100,1,0,0:0:0:0:
64,192,27164,1,0,0:0:0:0:
192,192,27164,1,0,0:0:0:0:
320,192,27421,128,0,27808:0:0:0:0:
192,192,27421,1,0,0:0:0:0:
192,192,27808,1,0,0:0:0:0:
448,192,27808,1,0,0:0:0:0:
192,192,27872,1,0,0:0:0:0:
320,192,27936,1,0,0:0:0:0:
64,192,27936,1,0,0:0:0:0:
64,192,28194,1,0,0:0:0:0:
448,192,28194,1,0,0:0:0:0:
192,192,28194,128,0,28580:0:0:0:0:
320,192,28580,1,0,0:0:0:0:
64,192,28580,1,0,0:0:0:0:
448,192,28645,1,0,0:0:0:0:
64,192,28709,1,0,0:0:0:0:
448,192,28709,1,0,0:0:0:0:
192,192,28966,1,0,0:0:0:0:
320,192,28966,128,0,29353:0:0:0:0:
64,192,29224,1,0,0:0:0:0:
448,192,29353,1,0,0:0:0:0:
320,192,29481,1,0,0:0:0:0:
320,192,29739,1,0,0:0:0:0:
64,192,29739,1,0,0:0:0:0:
192,192,29739,128,0,30125:0:0:0:0:
448,192,30125,1,0,0:0:0:0:
64,192,30125,1,0,0:0:0:0:
320,192,30189,1,0,0:0:0:0:
64,192,30254,1,0,0:0:0:0:
320,192,30254,1,0,0:0:0:0:
192,192,30511,1,0,0:0:0:0:
320,192,30511,128,0,30897:0:0:0:0:
192,192,30897,1,0,0:0:0:0:
448,192,30962,1,0,0:0:0:0:
448,192,31026,1,0,0:0:0:0:
64,192,31026,1,0,0:0:0:0:
320,192,31284,1,0,0:0:0:0:
192,192,31284,128,0,31670:0:0:0:0:
448,192,31670,1,0,0:0:0:0:
64,192,31670,1,0,0:0:0:0:
320,192,31734,1,0,0:0:0:0:
64,192,31799,1,0,0:0:0:0:
448,192,31799,1,0,0:0:0:0:
320,192,32056,1,0,0:0:0:0:
192,192,32056,1,0,0:0:0:0:
192,192,32314,1,0,0:0:0:0:
64,192,32442,1,0,0:0:0:0:
448,192,32442,1,0,0:0:0:0:
64,192,32829,1,0,0:0:0:0:
320,192,32829,1,0,0:0:0:0:
192,192,33215,1,0,0:0:0:0:
448,192,33215,1,0,0:0:0:0:
320,192,33279,1,0,0:0:0:0:
64,192,33344,1,0,0:0:0:0:
192,192,33344,1,0,0:0:0:0:
320,192,33601,1,0,0:0:0:0:
448,192,33601,128,0,33987:0:0:0:0:
192,192,33987,1,0,0:0:0:0:
320,192,34052,1,0,0:0:0:0:
448,192,34116,1,0,0:0:0:0:
64,192,34116,1,0,0:0:0:0:
320,192,34374,1,0,0:0:0:0:
192,192,34374,128,0,34760:0:0:0:0:
448,192,34760,1,0,0:0:0:0:
64,192,34760,1,0,0:0:0:0:
320,192,34824,1,0,0:0:0:0:
192,192,34888,1,0,0:0:0:0:
448,192,34888,1,0,0:0:0:0:
320,192,35146,1,0,0:0:0:0:
64,192,35146,1,0,0:0:0:0:
192,192,35146,128,0,35532:0:0:0:0:
448,192,35532,1,0,0:0:0:0:
64,192,35918,1,0,0:0:0:0:
320,192,35918,1,0,0:0:0:0:
448,192,35918,128,0,36305:0:0:0:0:
64,192,36305,1,0,0:0:0:0:
192,192,36305,1,0,0:0:0:0:
320,192,36369,1,0,0:0:0:0:
448,192,36433,1,0,0:0:0:0:
192,192,36433,1,0,0:0:0:0:
64,192,36691,1,0,0:0:0:0:
192,192,36691,1,0,0:0:0:0:
320,192,36691,128,0,37077:0:0:0:0:
448,192,37077,1,0,0:0:0:0:
64,192,37206,1,0,0:0:0:0:
192,192,37206,1,0,0:0:0:0:
192,192,37463,128,0,37850:0:0:0:0:
320,192,37463,1,0,0:0:0:0:
64,192,37850,1,0,0:0:0:0:
320,192,37850,1,0,0:0:0:0:
192,192,37978,1,0,0:0:0:0:
448,192,37978,1,0,0:0:0:0:
448,192,38236,1,0,0:0:0:0:
192,192,38558,1,0,0:0:0:0:
320,192,38558,1,0,0:0:0:0:
192,192,38879,1,0,0:0:0:0:
320,192,38944,1,0,0:0:0:0:
448,192,39008,1,0,0:0:0:0:
320,192,39266,1,0,0:0:0:0:
192,192,39330,1,0,0:0:0:0:
448,192,39394,1,0,0:0:0:0:
64,192,39394,128,0,40939:0:0:0:0:
320,192,39781,1,0,0:0:0:0:
192,192,39781,1,0,0:0:0:0:
448,192,40167,1,0,0:0:0:0:
192,192,40167,1,0,0:0:0:0:
320,192,40360,1,0,0:0:0:0:
192,192,40553,1,0,0:0:0:0:
448,192,40939,1,0,0:0:0:0:
192,192,40939,128,0,42484:0:0:0:0:
320,192,41326,1,0,0:0:0:0:
448,192,41326,1,0,0:0:0:0:
64,192,41326,1,0,0:0:0:0:
64,192,41712,1,0,0:0:0:0:
448,192,41712,1,0,0:0:0:0:
320,192,41905,1,0,0:0:0:0:
448,192,42098,1,0,0:0:0:0:
64,192,42098,1,0,0:0:0:0:
320,192,42484,1,0,0:0:0:0:
448,192,42484,128,0,44029:0:0:0:0:
192,192,42870,1,0,0:0:0:0:
64,192,42870,1,0,0:0:0:0:
320,192,42870,1,0,0:0:0:0:
64,192,43257,1,0,0:0:0:0:
192,192,43450,1,0,0:0:0:0:
64,192,43643,1,0,0:0:0:0:
320,192,43643,1,0,0:0:0:0:
320,192,44029,1,0,0:0:0:0:
192,192,44029,128,0,45188:0:0:0:0:
448,192,44415,1,0,0:0:0:0:
64,192,44415,1,0,0:0:0:0:
320,192,44415,1,0,0:0:0:0:
320,192,44802,1,0,0:0:0:0:
448,192,44802,1,0,0:0:0:0:
320,192,44995,1,0,0:0:0:0:
64,192,45188,1,0,0:0:0:0:
448,192,45188,1,0,0:0:0:0:
320,192,45574,1,0,0:0:0:0:
448,192,45574,1,0,0:0:0:0:
192,192,45574,128,0,47891:0:0:0:0:
64,192,45960,1,0,0:0:0:0:
320,192,45960,1,0,0:0:0:0:
320,192,46346,1,0,0:0:0:0:
64,192,46540,1,0,0:0:0:0:
448,192,46540,1,0,0:0:0:0:
448,192,46733,1,0,0:0:0:0:
320,192,47055,1,0,0:0:0:0:
64,192,47055,1,0,0:0:0:0:
64,192,47505,1,0,0:0:0:0:
448,192,47505,1,0,0:0:0:0:
320,192,47505,1,0,0:0:0:0:
320,192,47891,1,0,0:0:0:0:
448,192,47891,1,0,0:0:0:0:
64,192,48084,1,0,0:0:0:0:
192,192,48278,1,0,0:0:0:0:
320,192,48278,1,0,0:0:0:0:
64,192,48471,1,0,0:0:0:0:
448,192,48471,1,0,0:0:0:0:
192,192,48857,1,0,0:0:0:0:
320,192,48857,1,0,0:0:0:0:
448,192,48857,1,0,0:0:0:0:
64,192,49050,1,0,0:0:0:0:
448,192,49050,1,0,0:0:0:0:
448,192,49436,1,0,0:0:0:0:
192,192,49436,1,0,0:0:0:0:
64,192,49436,1,0,0:0:0:0:
192,192,49887,1,0,0:0:0:0:
320,192,49887,1,0,0:0:0:0:
64,192,49887,1,0,0:0:0:0:
64,192,50273,1,0,0:0:0:0:
320,192,50273,1,0,0:0:0:0:
448,192,50273,1,0,0:0:0:0:
64,192,50659,1,0,0:0:0:0:
448,192,50659,1,0,0:0:0:0:
192,192,50659,1,0,0:0:0:0:
320,192,50852,1,0,0:0:0:0:
192,192,50852,1,0,0:0:0:0:
448,192,50852,1,0,0:0:0:0:
320,192,51303,1,0,0:0:0:0:
64,192,51303,1,0,0:0:0:0:
448,192,51303,1,0,0:0:0:0:
192,192,51496,1,0,0:0:0:0:
64,192,51496,1,0,0:0:0:0:
448,192,51496,1,0,0:0:0:0:
320,192,51689,1,0,0:0:0:0:
64,192,51689,1,0,0:0:0:0:
192,192,51689,1,0,0:0:0:0:
192,192,51818,1,0,0:0:0:0:
448,192,51818,128,0,54972:0:0:0:0:
64,192,52269,1,0,0:0:0:0:
320,192,52269,1,0,0:0:0:0:
64,192,52655,1,0,0:0:0:0:
192,192,52655,1,0,0:0:0:0:
320,192,52848,1,0,0:0:0:0:
192,192,53041,1,0,0:0:0:0:
64,192,53041,1,0,0:0:0:0:
64,192,53427,1,0,0:0:0:0:
192,192,53620,1,0,0:0:0:0:
320,192,53813,1,0,0:0:0:0:
64,192,53813,1,0,0:0:0:0:
320,192,54200,1,0,0:0:0:0:
64,192,54200,1,0,0:0:0:0:
192,192,54393,1,0,0:0:0:0:
64,192,54586,1,0,0:0:0:0:
64,192,54972,1,0,0:0:0:0:
192,192,54972,1,0,0:0:0:0:
320,192,54972,128,0,56517:0:0:0:0:
448,192,55358,1,0,0:0:0:0:
64,192,55358,1,0,0:0:0:0:
192,192,55358,1,0,0:0:0:0:
64,192,55745,1,0,0:0:0:0:
448,192,55745,1,0,0:0:0:0:
192,192,55938,1,0,0:0:0:0:
64,192,56131,1,0,0:0:0:0:
448,192,56131,1,0,0:0:0:0:
448,192,56517,1,0,0:0:0:0:
192,192,56710,1,0,0:0:0:0:
448,192,56903,1,0,0:0:0:0:
64,192,56903,1,0,0:0:0:0:
320,192,56903,1,0,0:0:0:0:
448,192,57290,1,0,0:0:0:0:
64,192,57290,1,0,0:0:0:0:
192,192,57547,1,0,0:0:0:0:
320,192,57611,1,0,0:0:0:0:
448,192,57676,1,0,0:0:0:0:
448,192,57933,1,0,0:0:0:0:
320,192,57998,1,0,0:0:0:0:
192,192,58062,1,0,0:0:0:0:
64,192,58062,1,0,0:0:0:0:
448,192,58448,1,0,0:0:0:0:
320,192,58448,1,0,0:0:0:0:
64,192,58448,1,0,0:0:0:0:
448,192,58834,1,0,0:0:0:0:
192,192,58834,1,0,0:0:0:0:
320,192,59028,1,0,0:0:0:0:
192,192,59221,1,0,0:0:0:0:
64,192,59221,1,0,0:0:0:0:
448,192,59414,1,0,0:0:0:0:
320,192,59607,1,0,0:0:0:0:
192,192,59993,1,0,0:0:0:0:
448,192,59993,1,0,0:0:0:0:
64,192,59993,1,0,0:0:0:0:
320,192,60379,1,0,0:0:0:0:
448,192,60572,1,0,0:0:0:0:
192,192,60572,1,0,0:0:0:0:
320,192,60766,1,0,0:0:0:0:
64,192,60766,1,0,0:0:0:0:
448,192,60766,1,0,0:0:0:0:
192,192,61152,1,0,0:0:0:0:
448,192,61152,1,0,0:0:0:0:
320,192,61152,1,0,0:0:0:0:
320,192,61538,1,0,0:0:0:0:
64,192,61538,1,0,0:0:0:0:
448,192,61731,1,0,0:0:0:0:
64,192,61924,1,0,0:0:0:0:
192,192,62246,1,0,0:0:0:0:
64,192,62246,1,0,0:0:0:0:
320,192,62246,1,0,0:0:0:0:
448,192,62246,128,0,62632:0:0:0:0:
320,192,62632,1,0,0:0:0:0:
192,192,62632,1,0,0:0:0:0:
64,192,62632,128,0,63019:0:0:0:0:
320,192,63019,1,0,0:0:0:0:
192,192,63019,1,0,0:0:0:0:
448,192,63019,128,0,63405:0:0:0:0:
64,192,63405,1,0,0:0:0:0:
192,192,63405,1,0,0:0:0:0:
320,192,63405,1,0,0:0:0:0:
64,192,63871,1,0,0:0:0:0:
192,192,63920,1,0,0:0:0:0:
320,192,63968,1,0,0:0:0:0:
448,192,64016,1,0,0:0:0:0:
320,192,64065,1,0,0:0:0:0:
192,192,64113,1,0,0:0:0:0:
64,192,64161,1,0,0:0:0:0:
448,192,64177,128,0,67331:0:0:0:0:
64,192,64628,1,0,0:0:0:0:
320,192,64628,1,0,0:0:0:0:
192,192,64628,1,0,0:0:0:0:
64,192,65014,1,0,0:0:0:0:
192,192,65014,1,0,0:0:0:0:
320,192,65207,1,0,0:0:0:0:
64,192,65400,1,0,0:0:0:0:
192,192,65400,1,0,0:0:0:0:
64,192,65786,1,0,0:0:0:0:
192,192,65786,1,0,0:0:0:0:
320,192,66173,1,0,0:0:0:0:
64,192,66173,1,0,0:0:0:0:
192,192,66173,1,0,0:0:0:0:
64,192,66559,1,0,0:0:0:0:
320,192,66559,1,0,0:0:0:0:
192,192,66752,1,0,0:0:0:0:
64,192,66945,1,0,0:0:0:0:
320,192,66945,1,0,0:0:0:0:
320,192,67331,1,0,0:0:0:0:
64,192,67331,1,0,0:0:0:0:
192,192,67331,128,0,68876:0:0:0:0:
320,192,67524,1,0,0:0:0:0:
64,192,67718,1,0,0:0:0:0:
448,192,67718,1,0,0:0:0:0:
64,192,68104,1,0,0:0:0:0:
320,192,68104,1,0,0:0:0:0:
320,192,68297,1,0,0:0:0:0:
448,192,68490,1,0,0:0:0:0:
64,192,68490,1,0,0:0:0:0:
320,192,68876,1,0,0:0:0:0:
64,192,68876,1,0,0:0:0:0:
64,192,69262,1,0,0:0:0:0:
192,192,69327,1,0,0:0:0:0:
320,192,69391,1,0,0:0:0:0:
64,192,69456,1,0,0:0:0:0:
448,192,69456,1,0,0:0:0:0:
448,192,69649,1,0,0:0:0:0:
320,192,69713,1,0,0:0:0:0:
192,192,69777,1,0,0:0:0:0:
64,192,69842,1,0,0:0:0:0:
448,192,69842,1,0,0:0:0:0:
64,192,70228,1,0,0:0:0:0:
192,192,70292,1,0,0:0:0:0:
320,192,70357,1,0,0:0:0:0:
64,192,70421,1,0,0:0:0:0:
448,192,70421,1,0,0:0:0:0:
320,192,70421,128,0,71966:0:0:0:0:
448,192,70807,1,0,0:0:0:0:
192,192,70807,1,0,0:0:0:0:
448,192,71194,1,0,0:0:0:0:
192,192,71387,1,0,0:0:0:0:
64,192,71387,1,0,0:0:0:0:
448,192,71580,1,0,0:0:0:0:
192,192,71580,1,0,0:0:0:0:
448,192,71966,1,0,0:0:0:0:
64,192,71966,1,0,0:0:0:0:
192,192,71966,128,0,73511:0:0:0:0:
64,192,72352,1,0,0:0:0:0:
448,192,72352,1,0,0:0:0:0:
320,192,72352,1,0,0:0:0:0:
64,192,72738,1,0,0:0:0:0:
448,192,72738,1,0,0:0:0:0:
320,192,72932,1,0,0:0:0:0:
448,192,73125,1,0,0:0:0:0:
320,192,73125,1,0,0:0:0:0:
64,192,73511,1,0,0:0:0:0:
320,192,73511,1,0,0:0:0:0:
320,192,73704,1,0,0:0:0:0:
64,192,73897,1,0,0:0:0:0:
448,192,73897,1,0,0:0:0:0:
192,192,73897,1,0,0:0:0:0:
192,192,74283,1,0,0:0:0:0:
64,192,74283,1,0,0:0:0:0:
320,192,74477,1,0,0:0:0:0:
448,192,74670,1,0,0:0:0:0:
64,192,74670,1,0,0:0:0:0:
192,192,74670,1,0,0:0:0:0:
448,192,75056,1,0,0:0:0:0:
64,192,75056,1,0,0:0:0:0:
192,192,75056,1,0,0:0:0:0:
320,192,75249,1,0,0:0:0:0:
448,192,75442,1,0,0:0:0:0:
64,192,75442,1,0,0:0:0:0:
320,192,75442,1,0,0:0:0:0:
64,192,75828,1,0,0:0:0:0:
448,192,75828,1,0,0:0:0:0:
192,192,75828,1,0,0:0:0:0:
192,192,76021,1,0,0:0:0:0:
448,192,76215,1,0,0:0:0:0:
320,192,76215,1,0,0:0:0:0:
64,192,76215,1,0,0:0:0:0:
64,192,76601,1,0,0:0:0:0:
320,192,76601,1,0,0:0:0:0:
448,192,76601,128,0,77180:0:0:0:0:
192,192,76794,1,0,0:0:0:0:
192,192,76987,1,0,0:0:0:0:
320,192,77180,1,0,0:0:0:0:
192,192,77180,1,0,0:0:0:0:
64,192,77180,128,0,77759:0:0:0:0:
320,192,77373,1,0,0:0:0:0:
320,192,77566,1,0,0:0:0:0:
192,192,77759,1,0,0:0:0:0:
320,192,77759,1,0,0:0:0:0:
448,192,77759,128,0,78339:0:0:0:0:
192,192,77953,1,0,0:0:0:0:
192,192,78146,1,0,0:0:0:0:
320,192,78339,1,0,0:0:0:0:
64,192,78339,1,0,0:0:0:0:
192,192,78339,128,0,78918:0:0:0:0:
320,192,78532,1,0,0:0:0:0:
320,192,78725,1,0,0:0:0:0:
64,192,78918,1,0,0:0:0:0:
448,192,78918,128,0,79369:0:0:0:0:
320,192,79176,1,0,0:0:0:0:
64,192,79369,1,0,0:0:0:0:
320,192,79369,1,0,0:0:0:0:
320,192,79691,1,0,0:0:0:0:
192,192,79691,1,0,0:0:0:0:
448,192,80206,1,0,0:0:0:0:
320,192,80334,1,0,0:0:0:0:
192,192,80399,1,0,0:0:0:0:
64,192,80527,1,0,0:0:0:0:
192,192,80592,1,0,0:0:0:0:
320,192,80720,1,0,0:0:0:0:
448,192,80785,1,0,0:0:0:0:
320,192,80914,1,0,0:0:0:0:
192,192,80978,1,0,0:0:0:0:
64,192,81107,1,0,0:0:0:0:
320,192,81171,1,0,0:0:0:0:
192,192,81171,1,0,0:0:0:0:
448,192,81171,1,0,0:0:0:0:
64,192,81364,1,0,0:0:0:0:
448,192,81364,1,0,0:0:0:0:
192,192,81364,1,0,0:0:0:0:
320,192,81364,1,0,0:0:0:0:
448,192,82845,128,0,88316:0:0:0:0:
320,192,82845,128,0,82973:0:0:0:0:
64,192,82845,1,0,0:0:0:0:
192,192,82909,1,0,0:0:0:0:
64,192,82973,1,0,0:0:0:0:
192,192,83167,1,0,0:0:0:0:
320,192,83360,1,0,0:0:0:0:
64,192,83553,1,0,0:0:0:0:
320,192,83553,1,0,0:0:0:0:
192,192,83553,128,0,83682:0:0:0:0:
320,192,83682,1,0,0:0:0:0:
64,192,83682,1,0,0:0:0:0:
320,192,83939,1,0,0:0:0:0:
64,192,84132,1,0,0:0:0:0:
64,192,84325,1,0,0:0:0:0:
192,192,84325,128,0,84454:0:0:0:0:
320,192,84454,1,0,0:0:0:0:
64,192,84454,1,0,0:0:0:0:
64,192,84711,1,0,0:0:0:0:
320,192,84905,1,0,0:0:0:0:
192,192,85098,1,0,0:0:0:0:
64,192,85098,128,0,85226:0:0:0:0:
320,192,85226,1,0,0:0:0:0:
192,192,85226,1,0,0:0:0:0:
320,192,85484,1,0,0:0:0:0:
192,192,85677,1,0,0:0:0:0:
192,192,85870,1,0,0:0:0:0:
320,192,85870,128,0,85999:0:0:0:0:
64,192,85999,1,0,0:0:0:0:
192,192,85999,1,0,0:0:0:0:
64,192,86256,1,0,0:0:0:0:
320,192,86449,1,0,0:0:0:0:
320,192,86643,1,0,0:0:0:0:
192,192,86643,1,0,0:0:0:0:
64,192,86643,128,0,86771:0:0:0:0:
320,192,86771,1,0,0:0:0:0:
192,192,87029,1,0,0:0:0:0:
192,192,87222,1,0,0:0:0:0:
64,192,87415,1,0,0:0:0:0:
192,192,87415,1,0,0:0:0:0:
320,192,87415,128,0,87544:0:0:0:0:
192,192,87544,1,0,0:0:0:0:
64,192,87801,1,0,0:0:0:0:
320,192,87994,1,0,0:0:0:0:
192,192,88187,1,0,0:0:0:0:
64,192,88187,1,0,0:0:0:0:
320,192,88187,1,0,0:0:0:0:
320,192,88316,1,0,0:0:0:0:
64,192,88316,1,0,0:0:0:0:
192,192,88316,1,0,0:0:0:0:
