osu file format v14

[General]
AudioFilename: audio.mp3
AudioLeadIn: 0
PreviewTime: 51367
Countdown: 0
SampleSet: None
StackLeniency: 0.7
Mode: 3
LetterboxInBreaks: 0
SpecialStyle: 0
WidescreenStoryboard: 0

[Editor]
DistanceSpacing: 1
BeatDivisor: 3
GridSize: 32
TimelineZoom: 1

[Metadata]
Title:Saturday Night Question [TV Size]
TitleUnicode:サタデー・ナイト・クエスチョン
Artist:Megumi Nakajima
ArtistUnicode:Megumi Nakajima
Creator:Sweeboo
Version:EZ
Source:Net-juu no Susume
Tags:net juu no susume saturday night question megumi nakajima
BeatmapID:1523415
BeatmapSetID:721457

[Difficulty]
HPDrainRate:4
CircleSize:4
OverallDifficulty:5
ApproachRate:5
SliderMultiplier:1.4
SliderTickRate:1

[Events]
//Background and Video events
Video,0,"NJNSOP.mp4"
0,0,"883188.jpg",0,0
//Break Periods
//Storyboard Layer 0 (Background)
//Storyboard Layer 1 (Fail)
//Storyboard Layer 2 (Pass)
//Storyboard Layer 3 (Foreground)
//Storyboard Sound Samples

[TimingPoints]
0.0170985786369551,386.224654007081,4,3,0,100,1,0

[HitObjects]
192,192,2317,5,0,0:0:0:0:
448,192,2317,1,0,0:0:0:0:
320,192,3089,1,0,0:0:0:0:
192,192,3089,1,0,0:0:0:0:
320,192,3862,1,0,0:0:0:0:
64,192,3862,1,0,0:0:0:0:
64,192,4634,1,0,0:0:0:0:
448,192,4634,1,0,0:0:0:0:
192,192,5407,1,0,0:0:0:0:
320,192,5407,1,0,0:0:0:0:
64,192,6179,1,0,0:0:0:0:
192,192,6179,1,0,0:0:0:0:
192,192,6952,1,0,0:0:0:0:
448,192,6952,1,0,0:0:0:0:
320,192,7724,1,0,0:0:0:0:
192,192,7724,128,0,8496:0:0:0:0:
64,192,8496,1,0,0:0:0:0:
320,192,9269,1,0,0:0:0:0:
448,192,9269,1,0,0:0:0:0:
64,192,10041,1,0,0:0:0:0:
320,192,10041,1,0,0:0:0:0:
320,192,10814,1,0,0:0:0:0:
448,192,10814,1,0,0:0:0:0:
64,192,11586,1,0,0:0:0:0:
192,192,11586,1,0,0:0:0:0:
192,192,12359,1,0,0:0:0:0:
448,192,12359,1,0,0:0:0:0:
448,192,13131,1,0,0:0:0:0:
64,192,13131,1,0,0:0:0:0:
320,192,13904,1,0,0:0:0:0:
64,192,13904,1,0,0:0:0:0:
448,192,15062,128,0,15449:0:0:0:0:
64,192,15835,128,0,16221:0:0:0:0:
320,192,16607,128,0,16993:0:0:0:0:
192,192,17380,128,0,17766:0:0:0:0:
448,192,18152,128,0,18538:0:0:0:0:
320,192,18925,128,0,19311:0:0:0:0:
192,192,19697,128,0,20083:0:0:0:0:
64,192,20469,128,0,20856:0:0:0:0:
320,192,21242,128,0,21628:0:0:0:0:
448,192,22014,128,0,22401:0:0:0:0:
192,192,22787,128,0,23173:0:0:0:0:
320,192,23559,128,0,23945:0:0:0:0:
64,192,24332,128,0,24718:0:0:0:0:
448,192,25104,128,0,25490:0:0:0:0:
192,192,25877,128,0,26263:0:0:0:0:
320,192,26263,128,0,26649:0:0:0:0:
64,192,27035,1,0,0:0:0:0:
448,192,27035,1,0,0:0:0:0:
192,192,27808,1,0,0:0:0:0:
448,192,27808,1,0,0:0:0:0:
320,192,28580,1,0,0:0:0:0:
192,192,28580,1,0,0:0:0:0:
448,192,30125,1,0,0:0:0:0:
64,192,30125,1,0,0:0:0:0:
192,192,30897,1,0,0:0:0:0:
320,192,30897,1,0,0:0:0:0:
192,192,31670,1,0,0:0:0:0:
448,192,31670,1,0,0:0:0:0:
192,192,33215,1,0,0:0:0:0:
448,192,33215,1,0,0:0:0:0:
192,192,33987,1,0,0:0:0:0:
320,192,33987,1,0,0:0:0:0:
448,192,34760,1,0,0:0:0:0:
64,192,34760,1,0,0:0:0:0:
320,192,36305,1,0,0:0:0:0:
192,192,36305,1,0,0:0:0:0:
448,192,37077,1,0,0:0:0:0:
320,192,37077,1,0,0:0:0:0:
64,192,37850,1,0,0:0:0:0:
320,192,37850,1,0,0:0:0:0:
192,192,38622,1,0,0:0:0:0:
320,192,38622,128,0,39008:0:0:0:0:
448,192,39008,128,0,39394:0:0:0:0:
64,192,39394,1,0,0:0:0:0:
320,192,39781,1,0,0:0:0:0:
448,192,40167,1,0,0:0:0:0:
192,192,40553,1,0,0:0:0:0:
448,192,40939,1,0,0:0:0:0:
320,192,41326,1,0,0:0:0:0:
64,192,41712,1,0,0:0:0:0:
448,192,42098,1,0,0:0:0:0:
320,192,42484,1,0,0:0:0:0:
192,192,42870,1,0,0:0:0:0:
448,192,43257,1,0,0:0:0:0:
64,192,43643,1,0,0:0:0:0:
320,192,44029,1,0,0:0:0:0:
448,192,44415,1,0,0:0:0:0:
320,192,44802,1,0,0:0:0:0:
64,192,45188,1,0,0:0:0:0:
448,192,45188,1,0,0:0:0:0:
320,192,45574,1,0,0:0:0:0:
192,192,45574,1,0,0:0:0:0:
64,192,45960,1,0,0:0:0:0:
448,192,46733,1,0,0:0:0:0:
64,192,47505,1,0,0:0:0:0:
448,192,48278,1,0,0:0:0:0:
192,192,48535,1,0,0:0:0:0:
320,192,48535,1,0,0:0:0:0:
64,192,49050,1,0,0:0:0:0:
192,192,49436,1,0,0:0:0:0:
320,192,49436,1,0,0:0:0:0:
448,192,49822,1,0,0:0:0:0:
320,192,50209,1,0,0:0:0:0:
192,192,50209,1,0,0:0:0:0:
64,192,50595,1,0,0:0:0:0:
192,192,51367,1,0,0:0:0:0:
320,192,51367,128,0,51754:0:0:0:0:
448,192,51754,1,0,0:0:0:0:
64,192,52140,1,0,0:0:0:0:
448,192,52526,1,0,0:0:0:0:
192,192,52912,1,0,0:0:0:0:
64,192,53299,1,0,0:0:0:0:
320,192,53685,1,0,0:0:0:0:
448,192,54071,1,0,0:0:0:0:
320,192,54457,1,0,0:0:0:0:
192,192,54843,1,0,0:0:0:0:
64,192,55230,1,0,0:0:0:0:
320,192,55616,1,0,0:0:0:0:
448,192,56002,1,0,0:0:0:0:
192,192,56388,1,0,0:0:0:0:
64,192,56775,1,0,0:0:0:0:
320,192,57161,1,0,0:0:0:0:
448,192,57547,1,0,0:0:0:0:
192,192,57933,1,0,0:0:0:0:
64,192,58319,1,0,0:0:0:0:
320,192,58706,1,0,0:0:0:0:
64,192,59092,1,0,0:0:0:0:
320,192,59478,1,0,0:0:0:0:
448,192,59864,1,0,0:0:0:0:
320,192,60251,1,0,0:0:0:0:
192,192,60637,1,0,0:0:0:0:
320,192,61023,1,0,0:0:0:0:
64,192,61409,1,0,0:0:0:0:
448,192,61795,1,0,0:0:0:0:
192,192,62182,1,0,0:0:0:0:
320,192,62568,1,0,0:0:0:0:
448,192,62954,1,0,0:0:0:0:
64,192,63340,1,0,0:0:0:0:
320,192,63727,1,0,0:0:0:0:
448,192,63727,128,0,64113:0:0:0:0:
64,192,64113,1,0,0:0:0:0:
192,192,64499,1,0,0:0:0:0:
448,192,64885,1,0,0:0:0:0:
192,192,65271,1,0,0:0:0:0:
448,192,65658,1,0,0:0:0:0:
320,192,66044,1,0,0:0:0:0:
192,192,66430,1,0,0:0:0:0:
64,192,66816,1,0,0:0:0:0:
320,192,67203,1,0,0:0:0:0:
448,192,67589,1,0,0:0:0:0:
192,192,67975,1,0,0:0:0:0:
192,192,68361,1,0,0:0:0:0:
448,192,68748,1,0,0:0:0:0:
64,192,69134,1,0,0:0:0:0:
192,192,69520,1,0,0:0:0:0:
320,192,69906,1,0,0:0:0:0:
448,192,70292,1,0,0:0:0:0:
64,192,70679,1,0,0:0:0:0:
320,192,71065,1,0,0:0:0:0:
192,192,71451,1,0,0:0:0:0:
448,192,71837,1,0,0:0:0:0:
192,192,72224,1,0,0:0:0:0:
64,192,72610,1,0,0:0:0:0:
448,192,72996,1,0,0:0:0:0:
192,192,73382,1,0,0:0:0:0:
320,192,73768,1,0,0:0:0:0:
64,192,74155,1,0,0:0:0:0:
448,192,74541,1,0,0:0:0:0:
192,192,74927,1,0,0:0:0:0:
192,192,75313,1,0,0:0:0:0:
448,192,75700,1,0,0:0:0:0:
320,192,76086,1,0,0:0:0:0:
64,192,76472,1,0,0:0:0:0:
448,192,76472,1,0,0:0:0:0:
192,192,77244,128,0,78403:0:0:0:0:
320,192,77244,1,0,0:0:0:0:
64,192,78403,1,0,0:0:0:0:
320,192,78918,1,0,0:0:0:0:
192,192,79691,1,0,0:0:0:0:
320,192,79691,1,0,0:0:0:0:
64,192,79948,128,0,81493:0:0:0:0:
448,192,79948,128,0,81493:0:0:0:0:
192,192,82780,1,0,0:0:0:0:
320,192,82780,1,0,0:0:0:0:
64,192,83553,1,0,0:0:0:0:
192,192,83553,1,0,0:0:0:0:
320,192,84325,1,0,0:0:0:0:
448,192,84325,1,0,0:0:0:0:
320,192,85098,1,0,0:0:0:0:
192,192,85098,1,0,0:0:0:0:
448,192,85870,1,0,0:0:0:0:
64,192,85870,1,0,0:0:0:0:
320,192,86643,1,0,0:0:0:0:
64,192,86643,1,0,0:0:0:0:
192,192,87415,1,0,0:0:0:0:
448,192,87415,1,0,0:0:0:0:
320,192,88187,1,0,0:0:0:0:
192,192,88187,1,0,0:0:0:0:
