osu file format v14

[General]
AudioFilename: audio.mp3
AudioLeadIn: 0
PreviewTime: 7212
Countdown: 0
SampleSet: Soft
StackLeniency: 0.2
Mode: 0
LetterboxInBreaks: 0
WidescreenStoryboard: 0

[Editor]
DistanceSpacing: 0.8
BeatDivisor: 4
GridSize: 8
TimelineZoom: 1.6

[Metadata]
Title:The hero arrives!
TitleUnicode:The hero arrives!
Artist:Megumi Komagata
ArtistUnicode:Megumi Komagata
Creator:z0z
Version:Hard
Source:Half-Minute Hero
Tags:30 seconds Super Mega Neo Climax Ultimate Boy
BeatmapID:1865224
BeatmapSetID:892271

[Difficulty]
HPDrainRate:4
CircleSize:3
OverallDifficulty:4
ApproachRate:6
SliderMultiplier:1.6
SliderTickRate:1

[Events]
//Background and Video events
0,0,"moo.jpg",0,0
//Break Periods
//Storyboard Layer 0 (Background)
//Storyboard Layer 1 (Fail)
//Storyboard Layer 2 (Pass)
//Storyboard Layer 3 (Foreground)
//Storyboard Sound Samples

[TimingPoints]
580,414.507772020725,4,2,0,75,1,0
11564,-100,4,2,0,50,0,0
13844,-90.9090909090909,4,2,0,75,0,1
23792,-94.3396226415094,4,2,0,75,0,1
25450,-97.0873786407767,4,2,0,75,0,1
27108,-100,4,2,0,75,0,0
50320,-114.942528735632,4,2,0,75,0,0
63377,-114.942528735632,4,2,0,5,0,0

[Colours]
Combo1 : 53,53,53
Combo2 : 128,64,64

[HitObjects]
48,70,580,6,0,B|100:62|81:91|137:83,1,80,2|8,0:0|0:0,0:0:0:0:
205,86,994,1,2,0:0:0:0:
273,44,1201,2,0,B|325:36|306:65|351:51|351:51,1,80,0|0,0:0|0:0,0:0:0:0:
431,49,1616,1,2,0:0:0:0:
452,126,1823,1,8,0:0:0:0:
430,203,2030,1,2,0:0:0:0:
354,229,2238,6,0,B|310:243|274:229|274:229|215:285|215:285|114:273,1,240,0|2,0:0|0:0,0:0:0:0:
101,263,2963,1,2,0:0:0:0:
70,237,3067,1,2,0:0:0:0:
48,160,3274,1,0,0:0:0:0:
31,82,3481,5,2,0:0:0:0:
104,45,3688,1,8,0:0:0:0:
186,40,3896,2,0,B|249:66|215:21|298:58,1,80,2|8,0:0|0:0,0:0:0:0:
338,75,4310,1,0,0:0:0:0:
389,137,4517,2,0,P|416:181|429:228,1,80,2|0,0:0|0:0,0:0:0:0:
436,287,4932,5,2,0:0:0:0:
365,324,5139,1,8,0:0:0:0:
285,322,5346,1,2,0:0:0:0:
212,289,5554,2,0,B|174:264|153:236|153:236|186:203|170:167|170:167|142:125|168:78,1,240,2|2,0:0|0:0,0:0:0:0:
193,60,6279,1,8,0:0:0:0:
232,51,6383,2,0,L|289:142,1,80
310,191,6797,1,2,0:0:0:0:
370,340,7212,6,0,L|202:327,1,160,4|0,0:0|0:0,0:0:0:0:
61,312,8041,2,0,L|74:144,1,160,4|0,0:0|0:0,0:0:0:0:
84,0,8870,2,0,L|252:13,1,160,4|0,0:0|0:0,0:0:0:0:
393,28,9699,2,0,L|380:196,1,160,4|0,0:0|0:0,0:0:0:0:
370,340,10528,5,2,0:0:0:0:
291,349,10735,1,2,0:0:0:0:
212,356,10942,1,2,0:0:0:0:
212,356,11564,6,0,L|118:341,2,80,2|8|8,0:0|0:0|0:0,0:0:0:0:
237,198,12393,2,0,L|252:104,2,80,2|8|8,0:0|0:0|0:0,0:0:0:0:
395,224,13222,2,0,L|486:237,2,80,2|8|8,0:0|0:0|0:0,0:0:0:0:
331,163,13844,6,0,B|301:188|305:242|305:242|213:230|213:230|168:201|149:140,1,264.000008056641,4|8,0:0|0:0,0:0:0:0:
98,91,14673,1,2,0:0:0:0:
164,20,14880,1,2,0:0:0:0:
253,58,15087,1,2,0:0:0:0:
345,26,15295,1,2,0:0:0:0:
435,61,15502,6,0,B|469:138|469:138|460:231,1,176.000005371094,4|8,0:0|0:0,0:0:0:0:
268,257,16331,2,0,B|238:170|238:170|243:87,1,176.000005371094,4|8,0:0|0:0,0:0:0:0:
426,23,17160,6,0,P|489:31|514:61,1,88.000002685547,2|0,0:0|0:0,0:0:0:0:
511,143,17574,1,8,0:0:0:0:
485,246,17782,5,4,0:0:0:0:
390,291,17989,1,8,0:0:0:0:
285,280,18196,1,4,0:0:0:0:
187,241,18403,1,8,0:0:0:0:
98,183,18611,1,4,0:0:0:0:
35,98,18818,6,0,B|80:72|80:30|80:30|123:9|180:20,1,176.000005371094,4|8,0:0|0:0,0:0:0:0:
271,43,19440,1,0,0:0:0:0:
320,62,19543,1,0,0:0:0:0:
365,90,19647,2,0,B|406:110|411:158|411:158|464:184|512:138,1,176.000005371094,4|8,0:0|0:0,0:0:0:0:
334,288,20476,6,0,B|296:269|296:269|254:268|254:268|213:242|213:242|172:231|172:231|80:241,1,264.000008056641,2|0,0:0|0:0,0:0:0:0:
32,264,21201,1,0,0:0:0:0:
0,311,21305,6,0,B|90:341|90:341|171:312,1,176.000005371094,0|4,0:0|0:0,0:0:0:0:
289,122,22134,5,4,0:0:0:0:
76,40,22548,1,4,0:0:0:0:
0,257,22963,1,4,0:0:0:0:
210,347,23377,1,4,0:0:0:0:
425,301,23792,6,0,B|464:215|464:215|459:122|459:122|408:63,1,254.400000388184,2|8,0:0|0:0,0:0:0:0:
367,53,24517,1,8,0:0:0:0:
324,50,24621,2,0,B|235:51|235:51|158:75|158:75|68:74,1,254.400000388184,8|2,0:0|0:0,0:0:0:0:
102,150,25450,6,0,B|191:151|191:151|222:223|222:223|186:313,1,247.199997925415,2|0,0:0|0:0,0:0:0:0:
150,296,26175,1,0,0:0:0:0:
108,293,26279,2,0,B|37:251|37:251|35:154,1,164.799998616943,2|0,0:0|0:0,0:0:0:0:
36,169,27108,6,0,L|125:188,1,80,4|0,0:0|0:0,0:0:0:0:
191,209,27523,1,0,0:0:0:0:
270,222,27730,1,2,0:0:0:0:
347,201,27937,1,8,0:0:0:0:
394,136,28144,1,2,0:0:0:0:
376,58,28352,1,8,0:0:0:0:
305,22,28559,1,2,0:0:0:0:
226,35,28766,6,0,B|193:108|193:108|216:152|300:126|334:183,1,240,2|8,0:0|0:0,0:0:0:0:
353,214,29491,1,8,0:0:0:0:
353,254,29595,2,0,B|343:292|314:324|314:324|278:342|232:338|232:338|205:302|146:315,1,240,8|8,0:0|0:0,0:0:0:0:
87,332,30424,5,2,0:0:0:0:
14,299,30631,1,0,0:0:0:0:
0,220,30839,1,2,0:0:0:0:
44,153,31046,1,0,0:0:0:0:
124,148,31253,1,2,0:0:0:0:
195,184,31460,1,0,0:0:0:0:
271,211,31668,1,2,0:0:0:0:
348,190,31875,1,0,0:0:0:0:
396,127,32082,5,4,0:0:0:0:
240,88,32497,1,8,0:0:0:0:
186,238,32911,1,4,0:0:0:0:
341,277,33326,1,2,0:0:0:0:
396,127,33740,6,0,B|320:101|320:101|279:31|279:31|197:9,1,240,0|2,0:0|0:0,0:0:0:0:
162,11,34466,1,2,0:0:0:0:
130,34,34569,1,2,0:0:0:0:
96,106,34776,1,8,0:0:0:0:
171,135,34984,1,2,0:0:0:0:
140,209,35191,1,8,0:0:0:0:
202,260,35398,6,0,B|281:283|281:283|355:261|355:261|446:290,1,240,0|2,0:0|0:0,0:0:0:0:
472,281,36124,1,2,0:0:0:0:
506,260,36228,1,2,0:0:0:0:
512,181,36434,1,8,0:0:0:0:
435,157,36642,1,2,0:0:0:0:
460,81,36849,1,8,0:0:0:0:
386,51,37056,6,0,B|309:28|309:28|235:60|235:60|146:40,1,240,0|2,0:0|0:0,0:0:0:0:
118,52,37782,1,2,0:0:0:0:
92,83,37885,1,2,0:0:0:0:
58,155,38092,1,8,0:0:0:0:
136,175,38300,1,2,0:0:0:0:
114,252,38507,1,8,0:0:0:0:
191,274,38714,5,10,0:0:0:0:
309,165,39129,1,10,0:0:0:0:
198,51,39543,1,10,0:0:0:0:
80,159,39958,1,10,0:0:0:0:
191,274,40372,6,0,P|266:358|342:283,1,240,4|2,0:0|0:0,0:0:0:0:
371,244,41098,1,2,0:0:0:0:
348,198,41201,1,2,0:0:0:0:
244,186,41409,1,8,0:0:0:0:
191,274,41616,1,4,0:0:0:0:
88,257,41823,1,8,0:0:0:0:
28,174,42030,6,0,B|93:80|185:267|263:168,1,240,4|2,0:0|0:0,0:0:0:0:
281,144,42756,1,2,0:0:0:0:
317,112,42859,1,2,0:0:0:0:
371,32,43067,1,8,0:0:0:0:
456,76,43274,1,2,0:0:0:0:
399,153,43481,1,8,0:0:0:0:
335,223,43688,6,0,L|278:294,1,80,0|0,0:0|0:0,0:0:0:0:
204,320,44103,1,8,0:0:0:0:
121,292,44310,1,0,0:0:0:0:
84,212,44517,1,8,0:0:0:0:
120,131,44725,1,2,0:0:0:0:
200,95,44932,2,0,L|283:96,1,80,8|2,0:0|0:0,0:0:0:0:
366,93,45346,5,4,0:0:0:0:
215,372,46175,1,4,0:0:0:0:
137,233,46590,1,8,0:0:0:0:
297,235,47004,5,2,0:0:0:0:
258,305,47212,1,0,0:0:0:0:
215,372,47419,1,0,0:0:0:0:
135,353,47626,1,0,0:0:0:0:
83,292,47833,1,0,0:0:0:0:
73,212,48041,1,0,0:0:0:0:
99,137,48248,1,0,0:0:0:0:
161,86,48455,1,0,0:0:0:0:
241,72,48662,6,0,P|292:242|174:79,1,560,0|0,0:0|0:0,0:0:0:0:
241,72,50320,6,0,L|326:91,1,69.6000005841065,2|0,0:0|0:0,0:0:0:0:
346,146,50735,1,0,0:0:0:0:
277,157,50942,2,0,L|126:124,1,139.200001168213,2|2,0:0|0:0,0:0:0:0:
113,63,51564,1,0,0:0:0:0:
44,55,51771,1,0,0:0:0:0:
8,114,51978,1,0,0:0:0:0:
33,179,52186,2,0,L|50:217,2,34.8000002920532,8|8|0,0:0|0:0|0:0,0:0:0:0:
33,179,53222,5,0,0:0:0:0:
97,152,53429,1,0,0:0:0:0:
161,126,53636,1,0,0:0:0:0:
226,100,53844,2,0,L|274:79,2,34.8000002920532,0|0|0,0:0|0:0|0:0,0:0:0:0:
226,100,54673,6,0,L|306:143,1,69.6000005841065,0|0,0:0|0:0,0:0:0:0:
350,163,55087,1,0,0:0:0:0:
414,191,55295,1,0,0:0:0:0:
478,218,55502,2,0,L|527:242,2,34.8000002920532,0|0|0,0:0|0:0|0:0,0:0:0:0:
478,218,56953,6,0,L|481:291,1,69.6000005841065,2|0,0:0|0:0,0:0:0:0:
449,350,57367,1,0,0:0:0:0:
405,296,57574,2,0,L|398:133,1,139.200001168213
333,133,58197,1,0,0:0:0:0:
266,151,58404,1,0,0:0:0:0:
229,210,58611,1,0,0:0:0:0:
230,280,58819,2,0,L|251:317,2,34.8000002920532,8|8|8,0:0|0:0|0:0,0:0:0:0:
76,50,59854,5,0,0:0:0:0:
10,172,60269,1,0,0:0:0:0:
130,243,60683,5,2,0:0:0:0:
210,128,61098,1,2,0:0:0:0:
323,208,61512,1,2,0:0:0:0:
397,91,61927,1,2,0:0:0:0:
508,176,62341,1,2,0:0:0:0:
256,192,62445,12,0,63377,0:0:0:0:
