osu file format v14

[General]
AudioFilename: Northern Lights (TV version).mp3
AudioLeadIn: 0
PreviewTime: 41304
Countdown: 0
SampleSet: Soft
StackLeniency: 0.7
Mode: 0
LetterboxInBreaks: 0
WidescreenStoryboard: 1

[Editor]
DistanceSpacing: 1
BeatDivisor: 4
GridSize: 4
TimelineZoom: 1.5

[Metadata]
Title:Northern lights (TV Size)
TitleUnicode:Northern lights (TV Size)
Artist:Megumi Hayashibara
ArtistUnicode:林原めぐみ
Creator:P o M u T a
Version:Hard
Source:シャーマンキング
Tags:pomuta shaman king shounen jump japanese female vocals pop jpop j-pop anime op2 2nd opening op
BeatmapID:4421939
BeatmapSetID:67169

[Difficulty]
HPDrainRate:4.5
CircleSize:4
OverallDifficulty:6
ApproachRate:7
SliderMultiplier:1.72
SliderTickRate:2

[Events]
//Background and Video events
Video,391,"opening.mp4"
0,0,"Shaman.jpg",0,0
//Break Periods
//Storyboard Layer 0 (Background)
//Storyboard Layer 1 (Fail)
//Storyboard Layer 2 (Pass)
//Storyboard Layer 3 (Foreground)
//Storyboard Layer 4 (Overlay)
//Storyboard Sound Samples

[TimingPoints]
1155,451.977401129944,4,2,1,45,1,0
1155,-111.111111111111,4,2,1,45,0,0
2962,442.80442804428,4,2,1,45,1,0
2962,-111.111111111111,4,2,1,45,0,0
3626,461.538461538462,4,2,1,50,1,0
3856,428.571428571429,4,2,1,50,1,0
4284,444.444444444444,4,2,1,50,1,0
4728,442.80442804428,4,2,1,50,1,0
6499,444.444444444444,4,2,1,50,1,0
8276,446.927374301676,4,2,1,50,1,0
11851,445.682451253482,4,2,1,50,1,0
15416,444.444444444444,4,2,1,50,1,0
20749,447.761194029851,4,2,1,50,1,0
22540,440.366972477064,4,2,1,50,1,0
26062,443.62292051756,4,2,1,55,1,0
27836,461.538461538462,4,2,1,55,1,0
28759,437.158469945355,4,2,1,55,1,0
29633,458.015267175573,4,2,1,55,1,0
30091,442.80442804428,4,2,1,55,1,0
31419,440.366972477064,4,2,1,55,1,0
32299,-100,4,2,1,45,0,0
33180,447.343895619758,4,2,1,55,1,0
36758,441.176470588235,4,2,1,55,1,0
38522,444.444444444444,4,2,1,55,1,0
39410,451.127819548872,4,2,1,55,1,0
40312,441.176470588235,4,2,1,55,1,0
42076,461.538461538462,4,2,1,60,1,1
42537,441.176470588235,4,2,1,60,1,1
43860,445.765230312036,4,2,1,60,1,1
47426,444.444444444444,4,2,1,60,1,1
50981,443.62292051756,4,2,1,60,1,1
52755,446.677833612507,4,2,1,60,1,1
55435,-100,4,2,1,55,0,1
55881,434.782608695652,4,2,1,55,1,1
56315,454.545454545455,4,2,1,60,1,1
56315,-100,4,2,1,60,0,1
56769,441.988950276243,4,2,1,60,1,1
58094,444.444444444444,4,2,1,60,1,1
61649,446.096654275093,4,2,1,60,1,1
63433,443.62292051756,4,2,1,60,1,1
65207,446.927374301676,4,2,1,60,1,1
67888,441.176470588235,4,2,1,60,1,1
68770,444.444444444444,4,2,1,60,1,1
70547,446.927374301676,4,2,1,60,1,1
74122,444.033302497687,4,2,1,60,1,1
77674,442.80442804428,4,2,1,60,1,0
77674,-100,4,2,1,60,0,0
79445,445.269016697588,4,2,1,60,1,0
81226,447.427293064877,4,2,1,60,1,0
83015,445.269016697588,4,2,1,60,1,0
84796,446.927374301676,4,2,1,60,1,0
86583,450.281425891182,4,2,1,60,1,0
87933,444.444444444444,4,2,1,55,1,0
87933,-100,4,2,1,55,0,0
88377,-100,4,2,1,50,0,0
88821,-100,4,2,1,45,0,0
89266,-100,4,2,1,40,0,0
89710,-100,4,2,1,35,0,0
90155,-100,4,2,1,30,0,0
90599,-100,4,2,1,25,0,0
91044,-100,4,2,1,5,0,0

[Colours]
Combo1 : 255,198,255
Combo2 : 226,148,29
Combo3 : 199,250,223

[HitObjects]
188,228,1155,6,0,P|123:244|65:229,2,116.099996456909,2|2|2,0:0|0:0|0:0,0:0:0:0:
256,192,2058,2,0,L|344:201,1,77.3999976379395,2|0,0:0|0:0,0:0:0:0:
360,226,2397,2,0,P|353:169|376:117,1,116.099996456909,2|2,0:0|0:0,0:0:0:0:
438,68,2962,2,0,P|376:38|332:52,1,116.099996456909,2|2,0:0|0:0,0:0:0:0:
288,120,3515,1,0,0:0:0:0:
288,120,3626,2,0,P|246:132|203:123,1,86,4|8,0:1|0:3,0:0:0:0:
125,92,4070,5,2,1:2:0:0:
62,150,4284,1,10,0:2:0:0:
67,192,4395,1,0,1:0:0:0:
72,234,4506,1,8,0:3:0:0:
156,252,4728,6,0,L|158:344,1,86,4|0,1:2|0:0,0:0:0:0:
129,370,5060,2,0,P|205:343|254:358,1,129,2|2,0:0|0:0,0:0:0:0:
335,349,5613,1,2,0:0:0:0:
385,279,5835,1,2,1:2:0:0:
351,200,6056,2,0,L|255:194,1,86,8|2,0:0|0:0,0:0:0:0:
195,144,6499,2,0,L|197:52,1,86,2|0,1:2|0:0,0:0:0:0:
168,26,6832,2,0,P|244:53|293:38,1,129,2|2,0:0|0:0,0:0:0:0:
373,26,7387,1,2,0:0:0:0:
462,42,7610,1,2,1:2:0:0:
446,131,7832,1,8,0:0:0:0:
357,115,8054,1,2,0:0:0:0:
303,183,8276,6,0,P|294:226|309:269,1,86,4|0,1:2|0:0,0:0:0:0:
306,265,8611,2,0,L|178:283,1,129,2|2,0:0|0:0,0:0:0:0:
180,200,9169,2,0,P|137:209|94:194,1,86,4|0,0:0|1:0,0:0:0:0:
98,197,9505,2,0,L|80:325,1,129,2|2,0:0|0:0,0:0:0:0:
152,372,10063,1,4,1:2:0:0:
235,350,10287,1,2,1:2:0:0:
277,356,10398,1,2,0:0:0:0:
354,320,10622,1,2,0:0:0:0:
396,325,10734,1,2,0:0:0:0:
472,282,10957,1,4,0:0:0:0:
498,249,11069,1,0,0:0:0:0:
503,206,11181,1,2,0:0:0:0:
491,165,11292,1,0,1:0:0:0:
460,135,11404,2,0,L|416:127,3,43,10|8|8|8,0:0|0:0|0:3|0:3,0:0:0:0:
393,91,11851,6,0,P|398:132|379:199,1,86,6|2,1:2|0:0,0:0:0:0:
324,232,12296,1,2,0:0:0:0:
238,229,12519,1,2,1:2:0:0:
184,161,12742,2,0,P|139:155|94:177,1,86,8|2,0:0|0:0,0:0:0:0:
79,206,13076,1,2,0:0:0:0:
152,247,13299,2,0,L|148:303,1,43,0|2,0:0|0:0,0:0:0:0:
227,324,13633,2,0,P|255:284|258:242,1,86,2|0,1:2|0:0,0:0:0:0:
238,209,13967,2,0,L|237:114,1,86,2|0,1:2|0:0,0:0:0:0:
237,80,14302,1,2,1:2:0:0:
307,30,14525,1,8,0:0:0:0:
469,86,14970,2,0,L|463:43,2,43,0|8|2,1:0|0:0|0:0,0:0:0:0:
463,172,15416,5,2,1:2:0:0:
457,258,15638,1,2,0:0:0:0:
451,344,15860,2,0,B|434:341|434:341|384:353|384:353|366:350,1,86,2|2,0:0|1:2,0:0:0:0:
286,320,16304,2,0,P|275:281|289:233,1,86,8|2,0:0|0:0,0:0:0:0:
314,205,16638,1,2,0:0:0:0:
338,122,16860,1,0,0:0:0:0:
338,122,16971,1,2,0:0:0:0:
304,42,17193,2,0,L|218:47,1,86,2|0,1:2|0:0,0:0:0:0:
184,74,17527,2,0,L|98:79,1,86,2|2,1:2|0:0,0:0:0:0:
64,106,17860,1,2,1:2:0:0:
29,184,18082,2,0,P|21:227|39:275,1,86,8|2,1:2|0:0,0:0:0:0:
112,303,18527,2,0,P|120:261|108:221,1,86,2|2,0:0|0:0,0:0:0:0:
43,355,18971,5,4,1:2:0:0:
112,303,19193,2,0,L|202:313,1,86,2|0,0:0|0:0,0:0:0:0:
264,257,19638,1,2,1:2:0:0:
337,212,19860,2,0,P|350:256|337:303,1,86,8|2,0:0|0:0,0:0:0:0:
319,331,20193,2,0,L|415:346,1,86,2|0,0:0|0:0,0:0:0:0:
446,348,20527,1,2,0:0:0:0:
478,268,20749,2,0,P|465:224|478:177,1,86,2|0,1:2|0:0,0:0:0:0:
496,149,21084,2,0,L|400:134,1,86,2|0,1:2|0:0,0:0:0:0:
369,132,21420,1,2,1:2:0:0:
382,47,21644,1,8,0:0:0:0:
356,216,22092,2,0,L|308:208,1,43,0|8,1:0|0:0,0:0:0:0:
270,205,22316,1,2,0:0:0:0:
230,281,22540,5,2,1:2:0:0:
163,226,22760,1,2,0:0:0:0:
81,253,22980,1,2,0:0:0:0:
61,336,23200,1,2,1:2:0:0:
163,226,23420,2,0,P|161:184|138:145,1,86,8|2,0:0|0:0,0:0:0:0:
141,103,23751,2,0,P|102:83|58:83,1,86,2|2,0:0|0:0,0:0:0:0:
78,44,24081,1,2,0:0:0:0:
161,24,24301,1,2,1:2:0:0:
226,79,24521,1,2,0:0:0:0:
231,165,24741,2,0,L|322:162,1,86,2|2,0:0|1:2,0:0:0:0:
384,108,25182,2,0,P|372:156|384:190,1,86,2|2,0:0|1:2,0:0:0:0:
407,225,25512,2,0,P|419:273|407:307,1,86,2|0,0:0|1:0,0:0:0:0:
387,344,25842,1,8,0:0:0:0:
251,259,26062,6,0,L|337:266,1,86,4|0,1:2|0:0,0:0:0:0:
298,342,26505,2,0,L|212:348,1,86,8|0,0:0|0:0,0:0:0:0:
169,343,26838,1,0,1:2:0:0:
129,326,26949,2,0,P|107:284|112:241,1,86,2|0,0:0|1:0,0:0:0:0:
168,183,27392,2,0,L|156:91,1,86,8|0,0:0|0:0,0:0:0:0:
211,30,27836,2,0,P|131:15|91:41,2,129,2|2|2,1:2|0:0|0:0,0:0:0:0:
269,92,28759,2,0,L|408:74,2,129,2|2|2,0:0|0:0|0:0,0:0:0:0:
214,158,29633,6,0,L|128:169,1,86,2|0,1:2|0:0,0:0:0:0:
55,213,30091,2,0,P|54:261|66:301,1,86,8|0,0:0|0:0,0:0:0:0:
100,320,30423,1,0,1:0:0:0:
142,330,30533,2,0,L|238:326,1,86,2|0,0:0|1:0,0:0:0:0:
295,273,30976,2,0,P|313:320|307:359,1,86,8|0,0:0|0:0,0:0:0:0:
218,250,31419,2,0,P|200:203|206:164,1,86,2|0,1:2|0:0,0:0:0:0:
238,141,31749,2,0,L|330:132,1,86,0|0,0:0|0:0,0:0:0:0:
366,129,32079,1,2,0:0:0:0:
386,45,32299,1,2,0:0:0:0:
447,104,32519,1,2,1:2:0:0:
366,129,32740,1,8,0:0:0:0:
427,188,32960,1,2,0:0:0:0:
346,213,33180,6,0,L|358:310,1,86,4|0,1:2|0:0,0:0:0:0:
280,338,33627,2,0,P|239:312|202:305,1,86,8|0,0:0|0:0,0:0:0:0:
159,304,33962,1,0,1:0:0:0:
124,329,34074,2,0,L|109:227,1,86,2|0,0:0|1:0,0:0:0:0:
42,192,34522,1,8,0:0:0:0:
42,192,34745,1,0,0:0:0:0:
113,144,34969,2,0,P|152:148|198:132,1,86,2|0,1:2|0:0,0:0:0:0:
234,113,35304,1,2,0:0:0:0:
273,95,35416,2,0,P|313:80|355:84,1,86,8|2,0:0|0:0,0:0:0:0:
426,133,35864,1,0,0:0:0:0:
364,192,36087,1,2,1:2:0:0:
364,192,36311,1,8,0:0:0:0:
364,192,36535,1,2,0:0:0:0:
426,251,36758,6,0,P|435:295|420:340,1,86,4|0,1:2|0:0,0:0:0:0:
337,338,37199,1,8,0:0:0:0:
302,312,37309,1,0,0:0:0:0:
259,303,37419,1,0,0:0:0:0:
218,317,37530,1,8,1:2:0:0:
189,349,37640,2,0,L|138:343,3,43,2|2|2|2,0:0|0:0|1:2|0:0,0:0:0:0:
103,339,38081,1,8,0:0:0:0:
103,235,38302,1,2,0:0:0:0:
8,190,38522,2,0,P|45:115|27:32,1,172,4|8,1:2|0:0,0:0:0:0:
198,32,39410,2,0,P|180:115|218:190,1,172,2|8,0:0|0:0,0:0:0:0:
256,358,40312,6,0,P|303:360|342:341,1,86,4|0,1:2|0:0,0:0:0:0:
374,321,40642,2,0,L|352:179,1,129,4|4,1:2|1:2,0:0:0:0:
341,108,41194,1,4,0:0:0:0:
256,92,41414,1,8,0:0:0:0:
171,76,41635,1,8,0:0:0:0:
175,118,41745,1,0,1:0:0:0:
180,160,41856,1,8,0:3:0:0:
238,223,42076,6,0,L|332:228,1,86,4|0,1:2|0:0,0:0:0:0:
365,230,42422,2,0,P|369:258|362:282,1,43,2|8,0:0|0:0,0:0:0:0:
341,354,42757,1,2,0:0:0:0:
260,342,42978,1,2,0:0:0:0:
260,342,43088,2,0,P|201:315|138:323,1,129,2|8,0:0|0:0,0:0:0:0:
65,366,43639,1,2,0:0:0:0:
65,366,43750,2,0,L|55:234,1,129,2|0,0:0|0:0,0:0:0:0:
49,151,44305,1,8,0:0:0:0:
49,151,44417,1,0,0:0:0:0:
126,186,44640,2,0,P|178:191|251:145,1,129,2|2,1:2|1:2,0:0:0:0:
290,82,45197,2,0,L|282:39,1,43,8|2,0:0|0:0,0:0:0:0:
201,30,45531,5,2,0:0:0:0:
201,30,45643,2,0,P|110:43|31:9,2,172,2|8|2,1:2|0:0|0:2,0:0:0:0:
283,40,46757,1,0,1:0:0:0:
322,55,46868,2,0,B|361:46|361:46|407:58|407:58|454:44,1,129,2|2,0:0|0:0,0:0:0:0:
481,125,47426,2,0,L|475:217,1,86,2|2,1:2|0:0,0:0:0:0:
389,204,47870,2,0,L|429:286,1,86,8|0,0:0|0:0,0:0:0:0:
348,316,48314,2,0,L|424:367,1,86,0|0,1:0|1:0,0:0:0:0:
318,241,48759,1,8,0:0:0:0:
256,300,48981,1,2,0:0:0:0:
194,241,49203,6,0,P|183:189|207:132,1,86,4|2,1:2|0:0,0:0:0:0:
218,125,49537,2,0,L|80:115,1,129,2|2,0:0|0:0,0:0:0:0:
35,183,50092,1,2,0:0:0:0:
35,183,50203,2,0,B|21:254|59:254|46:310,1,129,2|8,0:0|0:0,0:0:0:0:
130,328,50759,1,2,0:0:0:0:
130,328,50870,2,0,L|268:338,1,129,2|0,0:0|0:0,0:0:0:0:
346,343,51424,1,8,0:0:0:0:
346,343,51535,1,0,0:0:0:0:
407,283,51757,2,0,P|410:228|366:165,1,129,2|2,1:2|1:2,0:0:0:0:
294,128,52311,1,8,0:0:0:0:
300,85,52422,1,2,0:0:0:0:
229,36,52644,1,2,0:2:0:0:
229,36,52755,6,0,P|196:106|234:193,2,172,0|8|2,1:0|0:0|0:0,0:0:0:0:
300,85,53871,1,0,1:0:0:0:
333,111,53983,2,0,L|466:102,1,129,2|2,0:0|0:0,0:0:0:0:
469,188,54541,2,0,L|383:193,1,86,2|2,1:2|0:0,0:0:0:0:
360,230,54876,2,0,P|278:226|242:258,1,129,2|0,0:0|0:0,0:0:0:0:
206,330,55435,1,6,1:2:0:0:
121,345,55658,1,8,1:2:0:0:
40,307,55881,1,8,0:0:0:0:
17,270,55989,1,8,0:0:0:0:
2,229,56098,1,8,0:0:0:0:
14,187,56207,1,8,0:0:0:0:
40,153,56315,6,0,L|133:155,1,86,4|2,1:2|0:0,0:0:0:0:
160,129,56655,2,0,L|159:60,1,43,2|8,0:0|0:0,0:0:0:0:
158,0,56989,1,2,0:0:0:0:
246,23,57210,1,2,0:0:0:0:
246,23,57321,2,0,L|248:151,1,129,2|8,0:0|0:0,0:0:0:0:
314,207,57873,1,2,0:0:0:0:
314,207,57984,2,0,P|389:216|441:187,1,129,2|0,0:0|1:0,0:0:0:0:
490,126,58538,1,8,0:0:0:0:
490,126,58649,1,0,0:0:0:0:
423,71,58871,2,0,P|348:62|296:91,1,129,2|2,1:2|1:2,0:0:0:0:
242,147,59427,2,0,P|211:147|186:138,1,43,8|2,0:0|0:0,0:0:0:0:
112,142,59760,1,2,0:0:0:0:
112,142,59871,6,0,P|149:72|234:61,2,172,2|8|2,1:2|0:0|0:0,0:0:0:0:
142,222,60982,1,0,1:2:0:0:
184,216,61094,2,0,P|255:223|301:263,1,129,2|2,0:0|0:0,0:0:0:0:
346,329,61649,2,0,L|441:324,1,86,2|2,1:2|0:0,0:0:0:0:
468,246,62095,2,0,L|373:251,1,86,8|0,0:0|1:0,0:0:0:0:
338,176,62541,2,0,L|433:171,1,86,8|2,0:0|1:2,0:0:0:0:
292,254,62987,1,8,0:0:0:0:
256,332,63210,1,2,0:0:0:0:
173,355,63433,6,0,P|125:354|84:324,1,86,4|2,1:2|0:0,0:0:0:0:
68,299,63765,2,0,P|42:231|65:160,1,129,2|2,0:0|0:0,0:0:0:0:
124,128,64320,1,2,0:0:0:0:
124,128,64431,2,0,L|254:119,1,129,2|8,0:0|0:0,0:0:0:0:
265,208,64985,1,2,0:0:0:0:
265,208,65096,2,0,L|395:199,1,129,2|0,0:0|0:0,0:0:0:0:
482,193,65653,1,8,0:0:0:0:
482,193,65765,1,0,0:0:0:0:
436,120,65989,2,0,P|370:103|298:114,1,129,2|2,1:2|1:2,0:0:0:0:
233,149,66547,1,8,0:0:0:0:
190,140,66659,1,2,0:0:0:0:
110,173,66882,1,2,0:0:0:0:
67,164,66994,6,0,B|52:215|77:245|77:245|57:289|69:331,2,172,2|8|2,1:2|0:0|0:0,0:0:0:0:
112,90,68108,1,0,1:2:0:0:
146,64,68218,2,0,P|213:45|274:62,1,129,2|2,0:0|0:0,0:0:0:0:
333,116,68770,2,0,L|432:110,1,86,2|2,1:2|0:0,0:0:0:0:
452,83,69103,2,0,P|432:167|442:214,1,129,2|2,0:0|0:0,0:0:0:0:
470,288,69658,1,4,0:0:0:0:
412,351,69881,1,8,1:2:0:0:
326,345,70103,1,8,0:0:0:0:
282,270,70325,1,0,1:0:0:0:
276,227,70436,1,8,0:3:0:0:
294,188,70547,6,0,P|295:149|277:100,1,86,4|0,1:2|0:0,0:0:0:0:
203,64,70993,2,0,L|117:70,1,86,8|0,0:0|0:0,0:0:0:0:
74,73,71329,1,0,1:0:0:0:
31,76,71440,1,4,0:0:0:0:
34,161,71664,1,0,1:0:0:0:
120,155,71887,2,0,P|119:206|92:241,1,86,8|2,0:0|0:0,0:0:0:0:
25,276,72334,2,0,B|74:263|74:263|91:312|174:328,1,172,4|8,1:2|0:0,0:0:0:0:
256,333,73005,1,2,0:0:0:0:
256,246,73228,1,8,0:3:0:0:
256,203,73340,1,0,1:0:0:0:
256,160,73452,1,0,1:0:0:0:
256,117,73563,1,8,0:3:0:0:
256,73,73675,1,8,0:0:0:0:
331,31,73898,1,8,0:3:0:0:
340,116,74122,6,0,L|476:105,2,129,4|6|6,1:2|1:2|1:2,0:0:0:0:
382,191,75010,2,0,B|371:240|371:240|390:276,1,86,4|0,1:2|0:0,0:0:0:0:
425,292,75343,2,0,L|296:281,1,129,4|6,1:2|1:2,0:0:0:0:
217,245,75898,2,0,B|206:294|206:294|225:330,1,86,4|0,1:2|0:0,0:0:0:0:
260,346,76231,2,0,L|131:335,1,129,6|4,1:2|1:2,0:0:0:0:
45,335,76786,1,8,0:3:0:0:
38,249,77008,1,2,1:2:0:0:
102,192,77230,1,10,0:0:0:0:
144,187,77341,1,0,1:0:0:0:
186,182,77452,1,8,0:3:0:0:
256,43,77674,6,0,P|247:94|264:138,1,86,4|2,1:2|0:0,0:0:0:0:
293,147,78006,2,0,L|426:136,1,129,2|2,0:0|0:0,0:0:0:0:
457,214,78559,1,2,0:0:0:0:
371,225,78781,1,2,1:2:0:0:
300,274,79002,2,0,L|299:367,1,86,8|2,0:0|0:0,0:0:0:0:
212,359,79445,2,0,L|212:274,1,86,2|2,1:2|0:0,0:0:0:0:
189,237,79778,2,0,P|132:238|72:288,1,129,2|2,0:0|0:0,0:0:0:0:
21,213,80335,1,2,0:0:0:0:
40,129,80558,1,2,1:2:0:0:
120,99,80780,1,8,0:0:0:0:
188,151,81003,1,2,0:0:0:0:
189,237,81226,6,0,L|289:225,1,86,4|0,1:2|0:0,0:0:0:0:
274,226,81561,2,0,P|260:311|279:352,1,129,2|2,0:0|0:0,0:0:0:0:
364,372,82120,2,0,L|352:272,1,86,4|0,0:0|1:2,0:0:0:0:
354,287,82456,2,0,P|438:301|479:282,1,129,2|2,0:0|0:0,0:0:0:0:
491,199,83015,1,4,0:0:0:0:
438,131,83237,1,2,0:0:0:0:
420,170,83348,1,2,1:2:0:0:
366,102,83571,1,2,0:0:0:0:
348,141,83682,1,2,1:2:0:0:
294,73,83905,1,4,1:2:0:0:
276,112,84016,1,2,0:0:0:0:
258,151,84128,1,8,0:0:0:0:
240,190,84239,1,0,1:2:0:0:
222,229,84350,2,0,L|169:226,3,43,8|0|2|2,0:0|1:0|1:2|1:2,0:0:0:0:
143,201,84796,6,0,L|155:333,1,129,6|2,1:2|1:2,0:0:0:0:
161,372,85242,1,2,0:0:0:0:
76,355,85466,2,0,L|64:226,1,129,6|2,1:2|1:2,0:0:0:0:
58,184,85913,1,2,0:0:0:0:
113,118,86136,2,0,P|183:99|231:58,1,129,6|8,1:2|0:3,0:0:0:0:
256,32,86583,1,4,3:0:0:0:
332,70,86808,2,0,P|378:56|421:66,1,86,10|10,0:0|0:0,0:0:0:0:
420,105,87145,2,0,P|374:119|331:109,1,86,10|10,0:0|0:0,0:0:0:0:
264,157,87596,1,8,0:3:0:0:
260,199,87708,2,0,L|255:252,2,43,8|8|6,0:3|0:3|0:0,0:0:0:0:
256,192,88044,12,0,91044,0:0:0:0:
