osu file format v14

[General]
AudioFilename: Northern Lights (TV version).mp3
AudioLeadIn: 0
PreviewTime: 41304
Countdown: 0
SampleSet: Soft
StackLeniency: 0.7
Mode: 0
LetterboxInBreaks: 0
WidescreenStoryboard: 1

[Editor]
DistanceSpacing: 1
BeatDivisor: 4
GridSize: 4
TimelineZoom: 1

[Metadata]
Title:Northern lights (TV Size)
TitleUnicode:Northern lights (TV Size)
Artist:Megumi Hayashibara
ArtistUnicode:林原めぐみ
Creator:P o M u T a
Version:Easy
Source:シャーマンキング
Tags:pomuta shaman king shounen jump japanese female vocals pop jpop j-pop anime op2 2nd opening op
BeatmapID:4421938
BeatmapSetID:67169

[Difficulty]
HPDrainRate:2
CircleSize:3
OverallDifficulty:2
ApproachRate:3
SliderMultiplier:1.1
SliderTickRate:2

[Events]
//Background and Video events
Video,391,"opening.mp4"
0,0,"Shaman.jpg",0,0
//Break Periods
//Storyboard Layer 0 (Background)
//Storyboard Layer 1 (Fail)
//Storyboard Layer 2 (Pass)
//Storyboard Layer 3 (Foreground)
//Storyboard Layer 4 (Overlay)
//Storyboard Sound Samples

[TimingPoints]
1155,451.977401129944,4,2,1,45,1,0
2962,442.80442804428,4,2,1,45,1,0
3626,461.538461538462,4,2,1,50,1,0
3856,428.571428571429,4,2,1,50,1,0
4284,444.444444444444,4,2,1,50,1,0
4728,442.80442804428,4,2,1,50,1,0
6499,444.444444444444,4,2,1,50,1,0
8276,446.927374301676,4,2,1,50,1,0
11851,445.682451253482,4,2,1,50,1,0
15416,444.444444444444,4,2,1,50,1,0
20749,447.761194029851,4,2,1,50,1,0
22540,440.366972477064,4,2,1,50,1,0
26062,443.62292051756,4,2,1,55,1,0
27836,461.538461538462,4,2,1,55,1,0
28759,437.158469945355,4,2,1,55,1,0
29633,458.015267175573,4,2,1,55,1,0
30091,442.80442804428,4,2,1,55,1,0
31419,440.366972477064,4,2,1,55,1,0
32299,-100,4,2,1,45,0,0
33180,447.343895619758,4,2,1,55,1,0
36758,441.176470588235,4,2,1,55,1,0
38522,444.444444444444,4,2,1,55,1,0
39410,451.127819548872,4,2,1,55,1,0
40312,441.176470588235,4,2,1,55,1,0
42076,461.538461538462,4,2,1,60,1,1
42537,441.176470588235,4,2,1,60,1,1
43860,445.765230312036,4,2,1,60,1,1
47426,444.444444444444,4,2,1,60,1,1
50981,443.62292051756,4,2,1,60,1,1
52755,446.677833612507,4,2,1,60,1,1
55435,-100,4,2,1,55,0,1
55881,434.782608695652,4,2,1,55,1,1
56315,454.545454545455,4,2,1,60,1,1
56315,-100,4,2,1,60,0,1
56769,441.988950276243,4,2,1,60,1,1
58094,444.444444444444,4,2,1,60,1,1
61649,446.096654275093,4,2,1,60,1,1
63433,443.62292051756,4,2,1,60,1,1
65207,446.927374301676,4,2,1,60,1,1
67888,441.176470588235,4,2,1,60,1,1
68770,444.444444444444,4,2,1,60,1,1
70547,446.927374301676,4,2,1,60,1,1
74122,444.033302497687,4,2,1,60,1,1
77674,442.80442804428,4,2,1,60,1,0
77674,-100,4,2,1,60,0,0
79445,445.269016697588,4,2,1,60,1,0
81226,447.427293064877,4,2,1,60,1,0
83015,445.269016697588,4,2,1,60,1,0
84796,446.927374301676,4,2,1,60,1,0
86583,450.281425891182,4,2,1,60,1,0
87933,444.444444444444,4,2,1,55,1,0
87933,-100,4,2,1,55,0,0
88377,-100,4,2,1,50,0,0
88821,-100,4,2,1,45,0,0
89266,-100,4,2,1,40,0,0
89710,-100,4,2,1,35,0,0
90155,-100,4,2,1,30,0,0
90599,-100,4,2,1,25,0,0
91044,-100,4,2,1,5,0,0

[Colours]
Combo1 : 255,198,255
Combo2 : 226,148,29
Combo3 : 199,250,223

[HitObjects]
146,166,1155,5,2,0:0:0:0:
366,166,2058,1,2,0:0:0:0:
256,357,2962,2,0,L|256:192,1,165,2|4,0:0|0:1,0:0:0:0:
479,32,4728,6,0,B|371:7|371:76|263:32,1,220,4|2,1:2|0:0,0:0:0:0:
156,54,6056,1,8,0:0:0:0:
47,37,6499,2,0,L|57:150,1,110,2|8,1:2|0:0,0:0:0:0:
73,255,7387,1,2,0:0:0:0:
181,235,7832,1,8,0:0:0:0:
230,333,8276,6,0,L|346:321,1,110,4|8,1:2|0:0,0:0:0:0:
448,306,9169,2,0,P|468:251|453:204,1,110,4|8,0:0|0:0,0:0:0:0:
501,104,10063,2,0,P|445:117|396:104,1,110,4|8,1:2|0:0,0:0:0:0:
299,49,10957,1,4,0:0:0:0:
203,103,11404,1,10,0:0:0:0:
112,41,11851,6,0,P|99:143|182:214,1,220,6|8,1:2|0:0,0:0:0:0:
289,192,13188,1,0,0:0:0:0:
391,231,13633,2,0,P|284:251|226:345,1,220,2|8,1:2|0:0,0:0:0:0:
120,368,14970,1,0,1:0:0:0:
32,300,15416,6,0,B|32:247|32:247|94:246|134:189,1,165,2|2,1:2|1:2,0:0:0:0:
138,143,16304,2,0,P|124:87|138:36,1,110,8|2,0:0|0:0,0:0:0:0:
234,90,17193,2,0,L|457:76,1,220,2|8,1:2|1:2,0:0:0:0:
460,186,18527,1,2,0:0:0:0:
350,195,18971,6,0,L|359:304,1,110,4|0,1:2|0:0,0:0:0:0:
261,355,19860,2,0,L|242:135,1,220,8|2,0:0|1:2,0:0:0:0:
326,64,21196,1,0,0:0:0:0:
225,20,21644,2,0,P|166:33|118:25,1,110,8|0,0:0|1:0,0:0:0:0:
64,121,22540,6,0,P|114:153|143:193,1,110,2|2,1:2|0:0,0:0:0:0:
40,232,23420,2,0,B|147:206|147:279|254:232,1,220,8|2,0:0|1:2,0:0:0:0:
302,205,24521,2,0,L|373:199,1,55,2|2,0:0|0:0,0:0:0:0:
449,143,25182,1,2,0:0:0:0:
510,234,25622,1,8,0:0:0:0:
476,338,26062,6,0,P|424:358|368:348,1,110,4|8,1:2|0:0,0:0:0:0:
281,283,26949,2,0,P|227:274|177:294,1,110,2|8,0:0|0:0,0:0:0:0:
77,248,27836,2,0,P|68:302|83:349,2,82.5,2|2|2,1:2|0:0|0:0,0:0:0:0:
35,88,29196,1,8,0:0:0:0:
144,99,29633,6,0,L|254:114,1,110,2|8,1:2|0:0,0:0:0:0:
296,215,30533,2,0,P|281:270|292:329,1,110,2|8,0:0|0:0,0:0:0:0:
397,348,31419,2,0,P|466:309|510:231,1,165,2|2,1:2|0:0,0:0:0:0:
512,182,32299,2,0,P|506:129|479:78,1,110,2|8,0:0|0:0,0:0:0:0:
376,46,33180,5,4,1:2:0:0:
266,60,33627,1,8,0:0:0:0:
198,146,34074,1,2,0:0:0:0:
88,132,34522,1,8,0:0:0:0:
88,242,34969,2,0,L|6:228,2,82.5,2|2|2,1:2|0:0|0:0,0:0:0:0:
201,362,36311,1,8,0:0:0:0:
300,314,36758,6,0,B|407:164|191:164|300:15,1,330,4|8,1:2|0:0,0:0:0:0:
409,29,38522,1,4,1:2:0:0:
419,138,38966,1,8,0:0:0:0:
500,212,39410,1,2,0:0:0:0:
510,321,39861,1,8,0:0:0:0:
401,303,40312,2,0,B|347:288|347:288|245:323|245:323|185:308,1,220,4|4,1:2|0:0,0:0:0:0:
94,255,41635,1,8,0:0:0:0:
48,154,42076,6,0,P|69:99|110:67,1,110,4|8,1:2|0:0,0:0:0:0:
194,136,42978,1,2,0:0:0:0:
256,45,43419,1,8,0:0:0:0:
318,136,43860,2,0,L|429:136,2,110,2|8|0,1:2|0:0|1:0,0:0:0:0:
256,227,45197,1,8,0:0:0:0:
304,325,45643,6,0,P|357:333|413:315,1,110,2|8,1:2|0:0,0:0:0:0:
402,206,46534,2,0,L|486:203,2,82.5,2|2|2,0:2|0:0|0:0,0:0:0:0:
365,164,47426,1,2,1:2:0:0:
363,53,47870,1,8,0:0:0:0:
253,60,48314,2,0,P|237:112|255:163,1,110,0|8,1:0|0:0,0:0:0:0:
365,164,49203,6,0,L|483:155,2,110,4|8|2,1:2|0:0|0:0,0:0:0:0:
295,249,50537,1,8,0:0:0:0:
185,259,50981,2,0,L|67:268,2,110,2|8|0,1:2|0:0|0:0,0:0:0:0:
264,335,52311,1,8,0:0:0:0:
369,303,52755,6,0,P|384:251|371:198,1,110,0|8,1:0|0:0,0:0:0:0:
269,155,53648,2,0,P|227:166|185:154,2,82.5,2|2|2,0:0|0:0|0:0,0:0:0:0:
316,127,54541,1,2,1:2:0:0:
358,25,54988,2,0,L|246:20,1,110,8|6,0:0|0:2,0:0:0:0:
148,65,55881,1,8,0:0:0:0:
51,118,56315,6,0,P|35:169|42:236,1,110,4|8,1:2|0:0,0:0:0:0:
139,269,57210,1,2,0:0:0:0:
217,191,57652,1,8,0:0:0:0:
254,294,58094,2,0,L|363:281,1,110,2|8,1:2|0:0,0:0:0:0:
437,199,58982,2,0,L|327:197,1,110,0|8,0:0|0:0,0:0:0:0:
217,191,59871,6,0,P|230:249|275:293,1,110,2|8,1:2|0:0,0:0:0:0:
350,353,60760,2,0,L|442:343,2,82.5,2|2|2,0:0|0:0|0:0,0:0:0:0:
296,367,61649,1,2,1:2:0:0:
186,376,62095,1,8,0:0:0:0:
116,291,62541,2,0,P|102:238|116:186,1,110,8|8,0:0|0:0,0:0:0:0:
220,151,63433,6,0,P|273:156|325:135,1,110,4|8,1:2|0:0,0:0:0:0:
434,137,64320,2,0,P|403:180|395:235,1,110,2|8,0:0|0:0,0:0:0:0:
333,327,65207,2,0,P|310:278|266:244,1,110,2|8,1:2|0:0,0:0:0:0:
161,211,66100,1,0,0:0:0:0:
51,198,66547,1,8,0:0:0:0:
20,302,66994,6,0,P|72:321|105:363,1,110,2|8,1:2|0:0,0:0:0:0:
185,288,67888,2,0,P|186:331|205:381,2,82.5,2|2|2,0:0|0:0|0:0,0:0:0:0:
209,238,68770,1,2,1:2:0:0:
319,241,69214,1,8,0:0:0:0:
428,244,69658,2,0,P|417:191|385:143,1,110,4|8,0:0|0:0,0:0:0:0:
279,129,70547,6,0,L|265:15,2,110,4|8|4,1:2|0:0|0:0,0:0:0:0:
212,216,71887,1,8,0:0:0:0:
111,172,72334,2,0,L|93:300,2,110,4|8|8,1:2|0:0|0:3,0:0:0:0:
41,99,73675,1,8,0:0:0:0:
118,19,74122,6,0,L|32:5,2,82.5,4|6|6,1:2|1:2|1:2,0:0:0:0:
166,46,75010,2,0,L|279:27,1,110,4|2,1:2|0:0,0:0:0:0:
321,127,75898,2,0,L|407:113,2,82.5,4|6|6,1:2|1:2|1:2,0:0:0:0:
157,154,77230,1,10,0:0:0:0:
87,239,77674,6,0,B|137:246|137:246|213:304|294:302,1,220,4|2,1:2|0:0,0:0:0:0:
350,208,79002,1,8,0:0:0:0:
261,142,79445,2,0,P|385:102|446:153,2,220,2|2|4,1:2|0:0|1:2,0:0:0:0:
162,93,81673,6,0,P|207:41|244:19,2,110,8|4|8,0:0|0:0|0:0,0:0:0:0:
75,161,83015,1,4,0:0:0:0:
93,269,83460,1,8,0:0:0:0:
199,243,83905,1,4,1:2:0:0:
217,351,84350,1,8,0:0:0:0:
323,325,84796,6,0,B|369:319|369:319|441:337|441:337|490:332,2,165,6|6|6,1:2|1:2|1:2,0:0:0:0:
148,192,87033,2,0,L|240:192,1,82.5,10|10,0:0|0:0,0:0:0:0:
256,192,87933,12,0,91044,0:0:0:0:
